ML
     
  Уважаемый Гость!
Вы можете поддержать проект и зарегистрироваться у наших партнеров - онлайн-стратегия MyLands. При регистрации в игре Вы получите код, который сможете активировать после регистрации на pirat.ca и получить 1000 дублонов.

Ваш код:
6f9ab67d502902cc72a06c406977ddb589b7f39d
 
     

Такси Квадрология / Taxi Qatrology (Люк Бессон / Luc Besson и Жерар Кравчик / Gérard Krawczyk) [1998, 2000, 2003, 2007, Боевик, Комедия, Приключения, DVD-HD Rip]

Ответить на тему
 
Автор
Сообщение

Пост 06-Ноя-2011 20:24

[Q] 

racom

Такси Квадрология / Taxi Qatrology-Такси / Taxi (Люк Бессон / Luc Besson)-

Год выпуска: 1998
Производство: Франция
Жанр: Боевик, Комедия, Приключения
Продолжительность: 01:27:27
Перевод: Профессиональный (полное дублирование)
Режиссер: Люк Бессон / Luc Besson
В ролях: Сами Насери, Фредерик Дифенталь, Марион Котияр, Мануэла Гурари, Эмма Сьоберг, Фредерик Дифенталь
Описание: Молодой таксист Даниэль помешан на быстрой езде. Как ураган проносится он по извилистым улицам Марселя на своем мощном ревущем звере `Пежо`, пугая пассажиров и прохожих. Неподкупный полицейский Эмильен вынуждает его помочь в поимке банды грабителей, ускользающих от полиции на своих неуловимых `Мерседесах`. И до самого конца не ясно, кто же сможет удержаться на крутом вираже...
Источник/Качество: DVDRip
Формат: AVI
Видео кодек: XviD MPEG-4
Аудио кодек: AC3 Dolby Digital
Видео: 720x304 (2.37:1), 25 fps, 1927 kbps avg, ~0.35 bit/pixel
Аудио 1: 3/2 (L,C,R,l,r) + LFE ch,448 Kbps, 48 KHz (профессиональный многоголосный)
Video
ID : 0
Format : MPEG-4 Visual
Format profile : Advanced [email protected]
Format settings, BVOP : 2
Format settings, QPel : No
Format settings, GMC : No warppoints
Format settings, Matrix : Custom
Muxing mode : Packed bitstream
Codec ID : XVID
Codec ID/Hint : XviD
Duration : 1h 27mn
Bit rate : 1 927 Kbps
Width : 720 pixels
Height : 304 pixels
Display aspect ratio : 2.35:1
Frame rate : 25.000 fps
Color space : YUV
Chroma subsampling : 4:2:0
Bit depth : 8 bits
Scan type : Progressive
Compression mode : Lossy
Bits/(Pixel*Frame) : 0.352
Stream size : 1.18 GiB (81%)
Writing library : XviD 1.2.1 (UTC 2008-12-04)
Audio
ID : 1
Format : AC-3
Format/Info : Audio Coding 3
Mode extension : CM (complete main)
Codec ID : 2000
Duration : 1h 27mn
Bit rate mode : Constant
Bit rate : 448 Kbps
Channel(s) : 6 channels
Channel positions : Front: L C R, Side: L R, LFE
Sampling rate : 48.0 KHz
Bit depth : 16 bits
Compression mode : Lossy
Stream size : 280 MiB (19%)
Alignment : Split accross interleaves
Interleave, duration : 40 ms (1.00 video frame)
Interleave, preload duration : 500 ms
Title : дубляж




-Такси 2 / Taxi 2 (Люк Бессон / Luc Besson)-

Год выпуска: 2000
Производство: Франция
Жанр: Боевик, Комедия, Приключения
Продолжительность: 01:24:47
Перевод: Профессиональный (полное дублирование)
Режиссер: Люк Бессон / Luc Besson
В ролях: Сами Насери, Фредерик Дифенталь, Марион Котийяр, Эмма Сьоберг, Бернар Фарси, Жан-Кристоф Буве, Марк Фор, Хирата Харухико, Цую Симидзу
Описание: Во Францию прибывает министр обороны Японии. Цель его визита — ознакомиться с французским опытом борьбы с терроризмом и подписать «контракт века» о взаимном сотрудничестве. Неожиданно во время показательных выступлений французской полиции министра обороны похищает гангстерская группировка «Якудза», желающая сорвать заключение наиважнейшего контракта. Даниэль и Эмильен отправляются на поиски высокого гостя. В дело вступает уже хорошо знакомое нам такси…
Источник/Качество: HDRip
Формат: MKV
Видео кодек: V_MPEG4/ISO/AVC
Аудио кодек: AC3 Dolby Digital
Видео: 720x304 (2.35:1), 25 fps, 1 407 kbps avg
Аудио 1: 3/2 (L,C,R,l,r) + LFE ch,448 Kbps, 48 KHz (профессиональный многоголосный)
Аудио 2: 3/2 (L,C,R,l,r) + LFE ch,448 Kbps, 48 KHz (оригинал)
Video
ID : 1
Format : AVC
Format/Info : Advanced Video Codec
Format profile : [email protected]
Format settings, CABAC : Yes
Format settings, ReFrames : 10 frames
Codec ID : V_MPEG4/ISO/AVC
Duration : 1h 24mn
Bit rate : 1 407 Kbps
Width : 720 pixels
Height : 304 pixels
Display aspect ratio : 2.35:1
Frame rate : 25.000 fps
Color space : YUV
Chroma subsampling : 4:2:0
Bit depth : 8 bits
Scan type : Progressive
Bits/(Pixel*Frame) : 0.257
Stream size : 828 MiB (59%)
Writing library : x264 core 58 svn-736M
Encoding settings : cabac=1 / ref=10 / deblock=1:-2:-1 / analyse=0x3:0x113 / me=umh / subme=6 / me-prepass=0 / brdo=1 / mixed_ref=1 / me_range=16 / chroma_me=1 / trellis=2 / 8x8dct=1 / cqm=0 / deadzone=21,11 / chroma_qp_offset=0 / threads=3 / nr=0 / decimate=0 / mbaff=0 / bframes=16 / b_pyramid=1 / b_adapt=1 / b_bias=0 / direct=3 / wpredb=1 / bime=1 / keyint=250 / keyint_min=25 / scenecut=40(pre) / rc=2pass / bitrate=1407 / ratetol=1.0 / rceq='blurCplx^(1-qComp)' / qcomp=1.00 / qpmin=10 / qpmax=51 / qpstep=4 / cplxblur=20.0 / qblur=0.5 / ip_ratio=1.40 / pb_ratio=1.30 / aq=1:0.5:13.0
Language : English
Audio #1
ID : 2
Format : AC-3
Format/Info : Audio Coding 3
Mode extension : CM (complete main)
Codec ID : A_AC3
Duration : 1h 24mn
Bit rate mode : Constant
Bit rate : 448 Kbps
Channel(s) : 6 channels
Channel positions : Front: L C R, Side: L R, LFE
Sampling rate : 48.0 KHz
Bit depth : 16 bits
Compression mode : Lossy
Stream size : 272 MiB (19%)
Language : Russian
Audio #2
ID : 3
Format : AC-3
Format/Info : Audio Coding 3
Mode extension : CM (complete main)
Codec ID : A_AC3
Duration : 1h 24mn
Bit rate mode : Constant
Bit rate : 448 Kbps
Channel(s) : 6 channels
Channel positions : Front: L C R, Side: L R, LFE
Sampling rate : 48.0 KHz
Bit depth : 16 bits
Compression mode : Lossy
Stream size : 272 MiB (19%)
Language : French




-Такси 3 / Taxi 3 (Жерар Кравчик / Gérard Krawczyk)-

Год выпуска: 2003
Производство: Франция
Жанр: Боевик, Комедия, Приключения
Продолжительность: 01:23:48
Перевод: Профессиональный (полное дублирование)
Режиссер: Жерар Кравчик / Gérard Krawczyk
В ролях: Сэми Насери, Фредерик Дифенталь, Бернар Фарси, Эмма Сьоберг, Марион Котийар, Сильвестр Сталлоне
Описание: Марсель вновь в опасности! В канун Рождества городские банки грабят переодетые в Санта-Клаусов преступники. Полицейские проверяют всех подозрительных дедов Морозов, но не могут найти среди них грабителей. Тогда шеф марсельской полиции Жибер предлагает провести крупномасштабную операцию, чтобы захватить преступников в их логове. Однако вряд ли она увенчалась бы успехом, если бы не полицейский Эмильен и его друг таксист Даниэль...
Источник/Качество: HDRip
Формат: MKV
Видео кодек: V_MPEG4/ISO/AVC
Аудио кодек: AC3 Dolby Digital
Видео: 720x304 (2.35:1), 25 fps, 1 435 kbps avg
Аудио 1: 3/2 (L,C,R,l,r) + LFE ch,448 Kbps, 48 KHz (профессиональный многоголосный)
Аудио 2: 3/2 (L,C,R,l,r) + LFE ch,448 Kbps, 48 KHz (оригинал)
Video
ID : 1
Format : AVC
Format/Info : Advanced Video Codec
Format profile : [email protected]
Format settings, CABAC : Yes
Format settings, ReFrames : 10 frames
Codec ID : V_MPEG4/ISO/AVC
Duration : 1h 23mn
Bit rate : 1 435 Kbps
Width : 720 pixels
Height : 304 pixels
Display aspect ratio : 2.35:1
Frame rate : 25.000 fps
Color space : YUV
Chroma subsampling : 4:2:0
Bit depth : 8 bits
Scan type : Progressive
Bits/(Pixel*Frame) : 0.262
Stream size : 834 MiB (60%)
Writing library : x264 core 58 svn-736M
Encoding settings : cabac=1 / ref=10 / deblock=1:-2:-1 / analyse=0x3:0x113 / me=umh / subme=6 / me-prepass=0 / brdo=1 / mixed_ref=1 / me_range=16 / chroma_me=1 / trellis=2 / 8x8dct=1 / cqm=0 / deadzone=21,11 / chroma_qp_offset=0 / threads=3 / nr=0 / decimate=0 / mbaff=0 / bframes=16 / b_pyramid=1 / b_adapt=1 / b_bias=0 / direct=3 / wpredb=1 / bime=1 / keyint=250 / keyint_min=25 / scenecut=40(pre) / rc=2pass / bitrate=1435 / ratetol=1.0 / rceq='blurCplx^(1-qComp)' / qcomp=1.00 / qpmin=10 / qpmax=51 / qpstep=4 / cplxblur=20.0 / qblur=0.5 / ip_ratio=1.40 / pb_ratio=1.30 / aq=1:0.5:13.0
Language : French
Audio #1
ID : 2
Format : AC-3
Format/Info : Audio Coding 3
Mode extension : CM (complete main)
Codec ID : A_AC3
Duration : 1h 23mn
Bit rate mode : Constant
Bit rate : 448 Kbps
Channel(s) : 6 channels
Channel positions : Front: L C R, Side: L R, LFE
Sampling rate : 48.0 KHz
Bit depth : 16 bits
Compression mode : Lossy
Stream size : 269 MiB (19%)
Language : Russian
Audio #2
ID : 3
Format : AC-3
Format/Info : Audio Coding 3
Mode extension : CM (complete main)
Codec ID : A_AC3
Duration : 1h 23mn
Bit rate mode : Constant
Bit rate : 448 Kbps
Channel(s) : 6 channels
Channel positions : Front: L C R, Side: L R, LFE
Sampling rate : 48.0 KHz
Bit depth : 16 bits
Compression mode : Lossy
Stream size : 269 MiB (19%)
Language : French




-Такси 4 / Taxi 4 (Жерар Кравчик / Gérard Krawczyk)-

Год выпуска: 2007
Производство: Франция
Жанр: Боевик, Комедия, Приключения
Продолжительность: 01:27:11
Перевод: Профессиональный (полное дублирование)
Режиссер: Жерар Кравчик / Gérard Krawczyk
В ролях: Сами Насери, Фредерик Дифенталь, Бернар Фарси, Эмма Сьоберг, Эдуар Монтут, Жан-Кристоф Буве
Описание: Преступника № 1 транспортируют из Бельгии в Конго… через Марсель. Всего несколько часов самый опасный человек в мире, надежно упакованный в скафандр и железную клетку, должен пробыть в полицейском участке комиссара Жибера. Но стеречь преступника доверили Эмильену… Петра внедрится в банду и очарует злодея, Жибер задаст жару бандитам и покажет, как настоящие французы играют в футбол. И, конечно, полицейским Марселя опять не обойтись без помощи Даниеля и его реактивного такси.
Источник/Качество: DVDRip
Формат: AVI
Видео кодек: XviD build 47
Аудио кодек: AC3 Dolby Digital
Видео: 720x304 (2.35:1), 25 fps, 1 791 kbps avg
Аудио 1: 3/2 (L,C,R,l,r) + LFE ch,448 Kbps, 48 KHz (профессиональный многоголосный)
Video
ID : 0
Format : MPEG-4 Visual
Format profile : Advanced [email protected]
Format settings, BVOP : 1
Format settings, QPel : No
Format settings, GMC : No warppoints
Format settings, Matrix : Custom
Codec ID : XVID
Codec ID/Hint : XviD
Duration : 1h 27mn
Bit rate : 1 791 Kbps
Width : 720 pixels
Height : 320 pixels
Display aspect ratio : 2.25:1
Frame rate : 25.000 fps
Color space : YUV
Chroma subsampling : 4:2:0
Bit depth : 8 bits
Scan type : Progressive
Compression mode : Lossy
Bits/(Pixel*Frame) : 0.311
Stream size : 1.09 GiB (80%)
Writing library : XviD 1.2.0.dev47 (UTC 2006-11-01)
Audio
ID : 1
Format : AC-3
Format/Info : Audio Coding 3
Mode extension : CM (complete main)
Codec ID : 2000
Duration : 1h 27mn
Bit rate mode : Constant
Bit rate : 448 Kbps
Channel(s) : 6 channels
Channel positions : Front: L C R, Side: L R, LFE
Sampling rate : 48.0 KHz
Bit depth : 16 bits
Compression mode : Lossy
Stream size : 279 MiB (20%)
Alignment : Split accross interleaves
Interleave, duration : 96 ms (2.40 video frames)
Interleave, preload duration : 96 ms



Download / Скачать

Хотите скачать бесплатно? Зарегистрируйтесь на сайте (ссылка на регистрацию). Pirat.ca - самый быстрый торрент трекер в рунете!

Как скачивать  ·   Что такое торрент  ·   Рейтинг и ограничения

Пост 06-Ноя-2011 20:30 (спустя 6 минут)

Топик был перенесен из форума Художественные фильмы (Зарубежное кино) в форум Зарубежное Кино

Skinwalker
 

CHARLI2236

1089

Пост 26-Ноя-2011 17:23 (спустя 19 дней)

[Q] 

спасибо

_________________
[Профиль]  [ЛС] 

Rion

Корсар

122

Пост 11-Фев-2012 02:38 (спустя 2 месяца 14 дней)

[Q] 

классно, спасибо
[Профиль]  [ЛС] 

Rion

Корсар

122

Пост 11-Фев-2012 02:40 (спустя 1 минута)

[Q] 

почему никто не раздаёт?
[Профиль]  [ЛС] 

Jigsaw

Пост 13-Май-2012 12:31 (спустя 3 месяца 2 дня)

[Q] 

 

ChezaA

Морской Волк

Пост 17-Май-2012 16:59 (спустя 4 дня)

[Q] 

[Профиль]  [ЛС] 

A.Net

Корсар

Пост 21-Май-2012 12:23 (спустя 3 дня)

[Q] 

[Профиль]  [ЛС] 

alik0401

Лоцман

Пост 27-Май-2012 11:13 (спустя 5 дней)

[Q] 

спасибо
[Профиль]  [ЛС] 

Volodko

Корсар

Пост 27-Июл-2012 10:00 (спустя 1 месяц 30 дней)

[Q] 

Классная комедия, по крайней мере, первые две части.
[Профиль]  [ЛС] 

Прораб

Легенда

Пост 08-Сен-2012 20:51 (спустя 1 месяц 12 дней)

[Q] 


_________________
Config comp: CPU-i7-2600K/RAM-32Gb/GF580GTX-1536Mb/RAID0(2 SSD-480GB)+RAID5(8 HDD-20Tb)/Win7 64bit.
[Профиль]  [ЛС] 

TriGun

Морской Волк

Пост 15-Янв-2013 04:08 (спустя 4 месяца 6 дней)

[Q] 

дайте скорости плиз,заранее спс

_________________
[Профиль]  [ЛС] 

beetle

Морской Волк

Пост 30-Янв-2013 19:45 (спустя 15 дней)

[Q] 

Пасибо, качаю
[Профиль]  [ЛС] 

Fettel

Морской Волк

Пост 29-Апр-2013 18:15 (спустя 2 месяца 29 дней)

[Q] 

[Профиль]  [ЛС] 

yuriy-yu

Лоцман

Пост 04-Май-2013 21:10 (спустя 5 дней)

[Q] 

Скорости!!!!!!!!!!!!!!!!!!!!!!!!!!!!!!!!!!!!!!!!!!!!!!!!!!!!!!!!!!!!!!!!!!!!!!!!!!!!! bc
[Профиль]  [ЛС] 

Antoshqa3

Морской Волк

Пост 22-Май-2013 23:05 (спустя 18 дней)

[Q] 

[Профиль]  [ЛС] 

vodoleii

Шкипер

Пост 25-Май-2013 19:06 (спустя 2 дня 20 часов)

[Q] 

[Профиль]  [ЛС] 

мек

Морской Волк

Пост 16-Фев-2014 21:37 (спустя 8 месяцев 22 дня)

[Q] 

скорости побольше !!!!!! Автору респект!!!
[Профиль]  [ЛС] 

Dominik

Морской Волк

68

Пост 19-Апр-2014 12:02 (спустя 2 месяца 2 дня)

[Q] 

Спасибо!!!
Супер!

_________________
Раньше удивляло хамство, теперь удивляет вежливость!
[Профиль]  [ЛС] 

Nokia C3-00

Штурман

Пост 07-Июн-2014 04:28 (спустя 1 месяц 17 дней)

[Q] 

Отличный фильмец! Всем качать!!!
[Профиль]  [ЛС] 

gigsoft

Лоцман

Пост 06-Сен-2014 20:14 (спустя 2 месяца 29 дней)

[Q] 

спасибо качаю Лови бочку Супер!
[Профиль]  [ЛС] 

xzxscorpxzx

Флибустьер

Пост 14-Сен-2015 06:58 (спустя 1 год)

[Q] 

суперский фильмец Лови бочку
[Профиль]  [ЛС] 

[email protected]

Морской Волк

Пост 23-Дек-2015 19:29 (спустя 3 месяца 9 дней)

[Q] 

На новый год надо обязательно посмотреть Всем качать!!!

_________________
[Профиль]  [ЛС] 

KoNiaL_KCC

Гроза морей

Пост 13-Фев-2016 00:03 (спустя 1 месяц 20 дней)

[Q] 

как то действительно racom . нет ни какой скорости,раздача ноль, ау "С"идеры вы где
[Профиль]  [ЛС] 
Показать сообщения:    
Ответить на тему

Текущее время: Сегодня 16:29

Часовой пояс: GMT + 4



Вы не можете начинать темы
Вы не можете отвечать на сообщения
Вы не можете редактировать свои сообщения
Вы не можете удалять свои сообщения
Вы не можете голосовать в опросах
Вы не можете прикреплять файлы к сообщениям
Вы не можете скачивать файлы

▼ Вниз