ML
     
  Уважаемый Гость!
Вы можете поддержать проект и зарегистрироваться у наших партнеров - онлайн-стратегия MyLands. При регистрации в игре Вы получите код, который сможете активировать после регистрации на pirat.ca и получить 1000 дублонов.

Ваш код:
73640f24f8a0f579e128ea7346fd2db2b1009143
 
     

Кошмар на улице Вязов - Антология / A Nightmare on Elm Street Part (Уэс Крэйвен/Wes Craven) [1984-2003] г., Ужасы, триллер, фэнтези, мистика, DVDRip] (MVO)

Ответить на тему
 
Автор
Сообщение

Пост 08-Ноя-2011 15:59

[Q] 

stellrat

Шкипер

Кошмар на улице Вязов полная коллекция (8 фильмов)-
-Годы выпуска: 1984, 1985, 1987, 1988, 1989, 1991, 1994, 2003
Производство: США, New Line Cinema, Smart Egg Pictures...
Жанр: Ужасы, триллер, фэнтези, мистика
Продолжительность: 12:35:02
Перевод 1: Профессиональный (многоголосый, закадровый) Позитив-мультимедиа - 1 часть
Перевод 2: Профессиональный (многоголосый, закадровый) Киномания - 2, 3, 4, 5, 6, 7 части
Перевод 3: Профессиональный (дублированный) - Фредди против Джейсона
Оригинальный аудиопоток: Отсутствует
Русские субтитры: нет
Режиссеры: Стивен Хопкинс/Stephen Hopkins, Рэчел Тэлэлэй/Rachel Talalay, Уэс Крэйвен/Wes Craven, Ронни Юу/Ronny Yu, Джек Шолдер/Jack Sholder, Чак Расселл /Chuck Russell, Ренни Харлин/Renny Harlin
Кошмар на улице Вязов / A Nightmare on Elm Street Part
Год выпуска: 1984
Мировая премьера: 9 ноября 1984
Российская премьера: 9 ноября 1984
Дата выхода DVD: 30 октября 2008, «CP-Digital»
Производство: США, New Line Cinema, Smart Egg Pictures...
Жанр: Ужасы, триллер, фэнтези, мистика
Продолжительность: 01:31:11
Перевод: Профессиональный (многоголосый, закадровый) Позитив-мультимедиа
Оригинальный аудиопоток: Отсутствует
Режиссер: Уэс Крэйвен/Wes Craven,
В ролях: Роберт Инглунд, Лиза Уилкокс, Эрика Андерсон, Вэлори Армстронг, Майкл Эштон, Беатрис Боппл, Мэтт Борленджи, Ноубл Крэйг, Джонни Депп, Барр ДеБеннинг, Лиза Зейн, Шон Гринблатт, Лесли Дин, Рики Дин Логан, Брекин Мейер, Яфет Котто, Роузэнн, Том Арнольд, Элинор Донахью, Хезер Лэнгенкэмп, Мико Хьюз, Уэс Крэйвен, Джон Саксон, Роберт Шэй, Сара Ришер, Марианн Маддалена, Дэвид Ньюсом, Кен Кирзингер, Моника Кина, Джейсон Риттер, Келли Роулэнд, Крис Маркетт, Брендан Флетчер, Катарина Изабель, Локлин Манро
Описание: Старшеклассников одной из школ Спрингвуда, преследует один и тот же кошмарный сон в котором за ними гонится и кромсает на куски изуродованный человек в шляпе и с ножами на своей перчатке. И тот, кого убили во сне — умирает в реальности… Оказывается много лет назад, герой сна — Фредди Крюгер был маньяком, совершившим несколько зверских убийств детей. Их родители, не дожидаясь суда, линчевали Фредди, спалив заживо в котельной. И теперь Фредди пришел отомстить…
  • По словам Уэса Крэйвена, он назвал Фредди Крюгера по имени парня, который издевался над ним в школе. Уэс создал внешность Фредди на основе обезображенного бездомного, который испугал его в детстве.
  • Для того чтобы не заснуть, Нэнси смотрит «Зловещих мертвецов» (1981). Однако она смотрит не сам фильм, а, скорее всего, театральный трейлер.
  • В фильме можно заметить разорванный постер «Зловещих мертвецов» (1981).
  • Изначально внешность Фредди Крюгера задумывалось еще более мерзкой и отвратительной. Например, его зубы можно было видеть через тонкую кожу челюсти, должны были быть видны кости черепа… Однако создателям фильма пришлось отказаться от данной концепции, т.к. такую внешность невозможно было создать с помощью грима, а технологии того времени не позволяли использовать правдоподобные спецэффекты.
  • В сцене, где погибает Глен (Джонни Депп), над его кроватью весит постер альбома группы «Rush» - «Grace Under Pressure».
  • Джонни Депп попал на пробы фильма совершенно случайно, придя за кампанию вместе со своим другом Джеки Эрл Хейли. Увидев Джонни, Крэйвен предложил ему почитать роль Глена.
    Джозеф Випп, сыгравший сержанта Паркера, впоследствии исполнил роль шерифа Бёрка в «Крике» (1996) Уэса Крэйвена.
  • В финальной сцене, откидная крыша автомобиля упала слишком быстро и неожиданно для актеров, поэтому реакция на их лицах подлинная.
    Ванна Нэнси была герметично установлена сверху специального резервуара, встроенного в пол, с вырезанной частью для ванны.
  • Съёмки сцены, где Нэнси принимает ванну, продолжались двенадцать часов. Сценарий фильма был готов еще в 1981 году, но ни одна киностудия не была заинтересована в его реализации.
    «Кошмары на улице Вязов» стали первым фильмом, снятым на студии «New Line Cinema». До этого «New Line» была дистрибьютором картин других студий.
  • Во время съёмок, дистрибьютор фильма разорвал контракт с «New Line». В результате, члены съёмочной группы проработали две недели бесплатно до тех пор, пока не был найден новый дистрибьютор.
  • В течение временного безденежья ни один человек не покинул проект.
  • Изначально Уэс Крэйвен задумывал Фредди Крюгера «молчаливым» серийным убийцей на подобии Джейсона Вурхиса и Майкла Майерса. Однако при разработке проекта, а также благодаря многочисленным продолжениям Фредди превратился в маньяка с весьма черным чувством юмора, любящим поболтать.
  • Оригинальная перчатка Фредди также использовалась во втором фильме, но затем была утеряна. Согласно комментариям на DVD, оригинальную перчатку можно заметить в фильме «Зловещие мертвецы 2» (1987).
  • Данный фильм спас студию «New Line Cinema» от банкротства. Впоследствии студию начали в шутку называть «домом, который построил Фредди».
  • В своей комнате, после того как её чуть не убили в ванной, Нэнси смотрит на свое отражение в зеркале и восклицает: «О, Боже, я выгляжу на двадцать лет». Многие критики нашли данную фразу весьма забавной, посчитав, что на момент съёмок Хезер Лэнгенкэмп было двадцать. Однако, согласно комментариям на DVD, Хезер говорит, что тогда ей было 18 или 19 лет.
  • Во время съёмок фильма было использовано около 500 галлонов бутафорской крови.
  • Для съёмок известнейшей сцены с гейзером крови кинематографисты использовали ту же самую вращающуюся декорацию, которая была применена для съёмок смерти Тины. Комнату перевернули вверх ногами, также как и камеру, что создало эффект нормального расположения комнаты. Затем в комнату вылили несколько галлонов воды, окрашенной в красный цвет. Для данной сцены не подходила обычная бутафорская кровь, так как, используя её, было невозможно создать гейзер крови.
  • Во время съёмок данной сцены комнату начали переворачивать в неправильном направлении, что привело к разбрызгиванию бутафорской крови по всей съёмочной площадке и всеобщему хаосу. Вдобавок, в павильоне выключилось электричество, и, по словам Крэйвена, съёмочная группа, покрытая с головы до ног кровью, провела некоторое время в кромешной темноте.
  • Зритель может заметить слова «улица Вязов» лишь на начальных и финальных титрах. На протяжении всего фильма ни разу не произносится данное словосочетание.
  • «Кошмары на улице Вязов» - кинодебют Джонни Деппа.
  • Из удаленной сцены мы узнаем, что Нэнси и другие её друзья не были единственными детьми в семьях, а у них были братья и сестры, которые погибли от рук Фредди.
  • Уэс Крэйвен помог Шону С. Каннингэму снять несколько кадров для «Пятницы 13-ое» (1980). В свою очередь, Шон снял несколько кадров для фильма Уэса.
  • На роль Нэнси Томпсон пробовалось около 200 актрис, включая Дженнифер Грэй, Деми Мур, Кортни Кокс и Трэйси Голд.
  • Когда Фредди Крюгер преследует Нэнси, она пытается убежать от него по лестнице, но наступает в какую-ту вязкую субстанцию. По словам Уэса Крэйвена, это была овсяная мука, по словам Жака Хэйткина – взбитое тесто для блинов, по словам Хезер Лэнгенкэмп, это было что-то каучукообразное.
  • В сериале «Just the Ten of Us» (1988-1990) Хезер Лэнгенкэмп говорит о ржавом ноже на разделочной доске: «Выглядит, как что-то из «Кошмаров на улице Вязов».
  • Жена Уэса Крэйвена, Мими Крэйвен сыграла медсестру, которая присутствует во время «изучения» снов Нэнси.
  • По словам Уэса Крэйвена, идея фильма пришла ему в голову после того, как он прочитал несколько газетных очерков о группе молодых камбоджийцев, умерших от ужасных ночных кошмаров. Молодые люди страдали ночными кошмарами, и отказывались спать настолько долго, насколько это было возможным. Когда они, в конце концов, засыпали от истощения организма, они просыпались с дикими воплями и умирали от сердечного приступа.
  • Уэс Крэйвен специально выбрал для Фредди свитер красно-зеленого оттенка, т.к. он где-то прочитал, что человеческому глазу трудно воспринимать вместе данные цвета.
  • По словам Инглунда, во время создания образа Фредди он вдохновлялся игрой таких актеров как Клаус Кински и Джеймс Кэгни.
  • В роли Рода Лейна в титрах фильма значится актер с именем Ник Корри. Но этот актер широко известен как Хсу Гарсиа.
  • 4 апреля 2007 года, британец Джейсон Мур был приговорён к тюремному заключению после того, как напал на своего друга перчаткой с когтями, очень напоминающей ту, что носит Фредди. По признанию психиатров, тридцатисемилетний Мур просто одержим Фредди и его кровавыми деяниями. Он пересматривал фильм множество раз, и даже непосредственно перед нападением. Детектив, расследующий это дело, заявил, что орудие Мура — «самое страшное орудие из тех, что он когда-либо видел»
,
Источник/Качество: DVDRip
Формат: AVI
Видео кодек: XviD
Аудио кодек: AC3
Видео: MPEG-4 Visual, XVID, 704x400, 1896 Кбит/сек, 23,976 кадра/сек
Аудио: AC-3, 384 Кбит/сек, 6 каналов, 48,0 КГц
Субтитры: нет
Приз критиков на МКФ в Авориазе в 1985 году.
Видео
Идентификатор : 0
Формат : MPEG-4 Visual
Профиль формата : Advanced [email protected]
Параметр BVOP формата : 2
Параметр QPel формата : Нет
Параметр GMC формата : Без точки перехода
Параметр матрицы формата : Выборочная
Идентификатор кодека : XVID
Идентификатор кодека/Подсказка : XviD
Продолжительность : 1 ч. 31 м.
Битрейт : 1896 Кбит/сек
Ширина : 704 пикселя
Высота : 400 пикселей
Соотношение сторон : 16:9
Частота кадров : 23,976 кадра/сек
Цветовое пространство : YUV
Субдискретизация насыщенности : 4:2:0
Битовая глубина : 8 бит
Тип развёртки : Прогрессивная
Метод сжатия : С потерями
Бит/(Пиксели*Кадры) : 0.281
Размер потока : 1,21 Гбайт (83%)
Библиотека кодирования : XviD 1.2.1 (UTC 2008-12-04)
Аудио
Идентификатор : 1
Формат : AC-3
Формат/Информация : Audio Coding 3
Расширение режима : CM (complete main)
Идентификатор кодека : 2000
Продолжительность : 1 ч. 31 м.
Вид битрейта : Постоянный
Битрейт : 384 Кбит/сек
Каналы : 6 каналов
Расположение каналов : Front: L C R, Side: L R, LFE
Частота : 48,0 КГц
Битовая глубина : 16 бит
Метод сжатия : С потерями
Размер потока : 250 Мбайт (17%)
Выравнивание : Разделение по промежуткам
Продолжительность промежутка : 42 мс. (1,00 видеокадр)
Время предзагрузки промежутка : 500 мс.
Кошмар на улице Вязов 2: Месть Фредди
Год выпуска: 1985
Мировая премьера: 1 ноября 1985
Российская премьера: 1 ноября 1985
Дата выхода DVD: 21 августа 2008, «CP-Digital»
Производство: США, New Line Cinema, Smart Egg Pictures...
Жанр: Ужасы, триллер, фэнтези, мистика
Продолжительность: 1:25:34
Перевод: Профессиональный (многоголосый, закадровый) Киномания
Оригинальный аудиопоток: Отсутствует
Режиссер: Джек Шолдер/Jack Sholder
В ролях: Марк Пэттон /Mark Patton, Ким Майерс /Kim Myers, Роберт Раслер /Robert Rusler, Клу Гулагер /Clu Gulager, Хоуп Лэнг /Hope Lange, Роберт Энглунд /Robert Englund
Описание:Спустя пять лет в дом, где подростков преследовали кошмары с кровавым убийцей, въезжает новая семья, ничего не подозревающая о дурной славе этого коттеджа. Фрэдди Крюгер вновь возникает в снах юного Джесси Уэлма и пытается завладеть не только его мозгом, но и телом. Подружка Джесси, Лиза, надеется помочь ему избавиться от навязчивого видения. Замечательные спецэффекты и пиротехника обеспечили фильму кассовый успех.
  • Данный фильм стал единственной картиной в серии о Фредди Крюгере, где отсутствует оригинальная музыкальная тема Чарльза Берштейна или её вариация.
  • Роберт Инглунд сыграл водителя автобуса в начальной сцене фильма.
  • Роберт Шэй, продюсер фильма, сыграл бармена.
  • На роль Джесса пробовались Брэд Питт, Джон Стамос и Кристиан Слэйтер.
  • Песня «Touch Me», которая играет в комнате Джесса, - первая и слегка измененная версия одного из главных хитов Кэти Деннис в начале 1990-х годов.
  • В данном фильме происходит максимальное количество убийств среди всех картин франчайза.
  • Фредди получил значительно больше экранного времени, чем в первом фильме.
  • Оригинальная перчатка Фредди была украдена во время съемок.
  • Крейвен отказался работать над продолжением, так как не хотел снимать сиквел картины. Однако идеи Крейвена для первого фильма были позаимствованы для съёмок второго. Например, альтернативный финал, в котором Крюгер увозит Ненси и её друзей в школьном автобусе, стал открывающей сценой второй серии.
  • Создателей фильма часто упрекают в том, что в фильме слишком много сцен гомосексуального характера. Хотя сам режиссёр картины, Джек Шолдер, отрицает этот факт, многим зрителям показалось, что в Джесси слишком много подавленной гомосексуальности; вероятно, это обуславливается тем, что исполнитель роли Джесси, Марк Паттон, придерживается нетрадиционной сексуальной ориентации. Именно из-за этого многие фанаты окрестили картину «гомосексуальной комедией» и считают самой неудачной в серии. Интересно также, что Паттон публично признался в своей ориентации вскоре после выхода фильма.
  • Режиссёр Джек Шолдер также снял продолжение продюсерского проекта Уэса Крейвена — «Исполнитель желаний 2: Зло бессмертно» (Wishmaster 2: Evil never dies) (1999 года).
  • Сцена с языком была снята вторым режиссёром фильма, потому что во время съемок Джек Шолдер не мог прекратить смеяться.
  • Джоан Уиллет исполнила роль одной из девушек в автобусе. Примечательно, что актриса играла в сериале производства канала ABC «10 из нас» (Just the Ten of Us). В этом шоу также принимало участие множество актёров из многосерийного фильма «Кошмар на улице Вязов», включая Хизер Ленгенкамп и Брук Тайс.
  • Над кроватью Джесси в его комнате на стене висит плакат/постер Simple Minds «Don’t You Forget About These». На самом деле композиция называется «Don’t You (Forget About Me)».
  • В данном фильме присутствует больше всего убийств, по сравнению с другими сериями франчайза.
    Достоверное жуткое кровопролитие и его сочетание с обилием пиротехники также выделяет этот фильм.
  • Специалист по визуальным эффектам Рик Лаззарини создал монструозную версию домашней птички Уолшей. Однако было решено, что птица должна выглядеть более реалистичной.
  • Фильм стал второй из трёх частей, в которой главные герой живёт в доме №1428. В остальных фильмах дом заброшен.
  • Бывший исполнительный продюсер и глава студии New Line Cinema Роб Шэй появляется в эпизодической роли бармена в клубе садо-мазохистов, куда приходит Джесси.
  • Шведская версия картина была сокращена на 5 минут.
  • Из немецкой видео-версии были вырезаны почти все кровавые сцены, из-за чего фильм. по мнению поклонников, смотреть практически неинтересно.
  • В первоначальном видео-издании, в финальных титрах сначала звучит песня «Touch Me», а затем музыка Кристфоера Янга. В отреставрированной версии в титрах звучит песня Бинга Кросби «Did You Ever See A Dream Walking?» и также появляется в списке песен, использованных в картине.
,
Источник/Качество: DVDRip
Формат: AVI
Видео кодек: XviD
Аудио кодек: AC3
Видео: MPEG-4 Visual, XVID, 704x384, 1982 Кбит/сек, 23,976 кадра/сек
Аудио: AC3 Dolby Digital, 448 Кбит/сек, 6 каналов, 48,0 КГц
Субтитры: нет
Видео
Идентификатор : 0
Формат : MPEG-4 Visual
Профиль формата : Advanced [email protected]
Параметр BVOP формата : 2
Параметр QPel формата : Нет
Параметр GMC формата : Без точки перехода
Параметр матрицы формата : Выборочная
Идентификатор кодека : XVID
Идентификатор кодека/Подсказка : XviD
Продолжительность : 1 ч. 36 м.
Битрейт : 1707 Кбит/сек
Ширина : 704 пикселя
Высота : XVID пикселя
Соотношение сторон : 16:9
Частота кадров : 23,976 кадра/сек
Цветовое пространство : YUV
Субдискретизация насыщенности : 4:2:0
Битовая глубина : 8 бит
Тип развёртки : Прогрессивная
Метод сжатия : С потерями
Бит/(Пиксели*Кадры) : 0.263
Размер потока : 1,15 Гбайт (79%)
Библиотека кодирования : XviD 1.2.1 (UTC 2008-12-04)
Аудио
Идентификатор : 1
Формат : AC-3
Формат/Информация : Audio Coding 3
Расширение режима : CM (complete main)
Идентификатор кодека : 2000
Продолжительность : 1 ч. 36 м.
Вид битрейта : Постоянный
Битрейт : 448 Кбит/сек
Каналы : 6 каналов
Расположение каналов : Front: L C R, Side: L R, LFE
Частота : 48,0 КГц
Битовая глубина : 16 бит
Метод сжатия : С потерями
Размер потока : 309 Мбайт (21%)
Выравнивание : Разделение по промежуткам
Продолжительность промежутка : 42 мс. (1,00 видеокадр)
Время предзагрузки промежутка : 500 мс.
Кошмар на улице Вязов 3: Воины сна
Год выпуска: 1987
Мировая премьера: 27 февраля 1987
Российская премьера: 27 февраля 1987
Дата выхода DVD: 28 августа 2008, «CP-Digital»
Производство: США, New Line Cinema, Smart Egg Pictures...
Жанр: Ужасы, триллер, фэнтези, мистика
Продолжительность: 1:36:31
Перевод: Профессиональный (многоголосый, закадровый) Киномания
Оригинальный аудиопоток: Отсутствует
Режиссер: Чак Рассел/Chuck Russell
В ролях:Хезер Лэнгенкэмп /Heather Langenkamp, Пэтришиа Аркетт /Patricia Arquette, Лоуренс Фишберн /Laurence Fishburne, Крэйг Уэссон /Craig Wasson, Роберт Энглунд /Robert Englund, Джон Сэксон /John Saxon
Описание:События происходят через шесть лет после первого появления Фредди Крюгера. Он стал намного сильнее, подпитываясь душами детей с улицы Вязов. Теперь он обратил внимание на семерых детишек, заключенных в психиатрической лечебнице.
Положение усугубляется повальными «самоубийствами», которые, разумеется, являются проделками Фредди. Разрешить ситуацию и объяснить что происходит может лишь Нэнси Томпсон, которая вернулась в родной город в качестве врача-практиканта….

  • В сцене, где Фредди убивает Дженнифер, по сценарию он должен был сказать: «Это – твой прорыв на ТВ, Дженнифер!» (This is it Jennifer, your big break on TV!). Роберт Инглунд повторил данную фразу в двух первых дублях, однако при третьем он решил поимпровизировать, сказав: «Добро пожаловать в прайм-тайм, {мат}!» (Welcome to Prime Time, bitch!). Чак Расселл так и не решил, какую фразу стоит оставить, поэтому в окончательный монтаж вошли обе версии.
  • Сцена, где скелет Фредди бросает Нила Гордона (Крэйг Вассон) в могилу и частично его закапывает, - это ссылка на «Подставное тело» (1984), где персонажа Крэйга также погребли заживо.
  • Незадолго до своей смерти Дженнифер смотрит «Зубастиков» (1986).
    Изначально Сэлли Келлерман была прописана в сценарии в качестве гости на шоу Дика Каветта в той самой сцене, где погибает Дженнифер.
  • Перчатка Фредди, которая была украдена во время съёмок данного фильма, была обнаружена в другой картине: она висит на стене подвала в «Зловещих мертвецах 2» (1987), что стала частью очередного подшучивания друг над другом между Уэсом Крэйвеном и Сэмом Рэйми. Различные ссылки на фильмы Рэйми можно заметить в картинах «У холмов есть глаза» (1977) и «Кошмар на улице Вязов» (1984). Ссылки на фильмы Уэса Крэйвена содержатся в «Зловещих мертвецах» (1981) и «Зловещих мертвецах 2» (1987).
  • Изначально «Змея Фредди» получилась слишком похожей на фаллос, поэтому её выкрасили в темно-зеленый цвет.
  • «Войны сна» - кинодебют Патриции Аркетт.
  • Роберт Инглунд написал сценарную заявку для фильма, однако продюсеры её отвергли.
  • В первоначальной версии сценария Ненси должна была вернуться к ребятам, а доктор Гордон погибал.
  • Став автором сценария этой серии, Крейвен хотел воплотить идею «фильма в фильме» уже в третьей серии, но, в конечном итоге, ему это удалось только через 7 лет.
  • Уэс Крейвен настаивал на трилогии. Но фильм оказался весьма успешным и чётвёртой части дали «зелёный свет». Крейвен вернулся к своему детищу только в 1994 году на съёмках седьмой серии — «Новый кошмар Уэса Крейвена».
,
Источник/Качество: DVDRip
Формат: AVI
Видео кодек: XviD
Аудио кодек: AC3
Видео: MPEG-4 Visual, XVID, 704x384, 1707 Кбит/сек, 23,976 кадра/сек
Аудио: AC3 Dolby Digital, 448 Кбит/сек, 6 каналов, 48,0 КГц
Субтитры: нет
Видео
Идентификатор : 0
Формат : MPEG-4 Visual
Профиль формата : Advanced [email protected]
Параметр BVOP формата : 2
Параметр QPel формата : Нет
Параметр GMC формата : Без точки перехода
Параметр матрицы формата : Выборочная
Идентификатор кодека : XVID
Идентификатор кодека/Подсказка : XviD
Продолжительность : 1 ч. 25 м.
Битрейт : 1982 Кбит/сек
Ширина : 704 пикселя
Высота : 384 пикселя
Соотношение сторон : 16:9
Частота кадров : 23,976 кадра/сек
Цветовое пространство : YUV
Субдискретизация насыщенности : 4:2:0
Битовая глубина : 8 бит
Тип развёртки : Прогрессивная
Метод сжатия : С потерями
Бит/(Пиксели*Кадры) : 0.306
Размер потока : 1,18 Гбайт (81%)
Библиотека кодирования : XviD 1.2.1 (UTC 2008-12-04)
Аудио
Идентификатор : 1
Формат : AC-3
Формат/Информация : Audio Coding 3
Расширение режима : CM (complete main)
Идентификатор кодека : 2000
Продолжительность : 1 ч. 25 м.
Вид битрейта : Постоянный
Битрейт : 448 Кбит/сек
Каналы : 6 каналов
Расположение каналов : Front: L C R, Side: L R, LFE
Частота : 48,0 КГц
Битовая глубина : 16 бит
Метод сжатия : С потерями
Размер потока : 274 Мбайт (18%)
Выравнивание : Разделение по промежуткам
Продолжительность промежутка : 42 мс. (1,00 видеокадр)
Время предзагрузки промежутка : 500 мс.


Кошмар на улице Вязов 4: Повелитель сна
Год выпуска:1988
Мировая премьера:19 августа 1988
Российская премьера:19 августа 1988
Дата выхода DVD:4 сентября 2008, «CP-Digital»
Производство: США, New Line Cinema, Smart Egg Pictures...
Жанр: Ужасы, триллер, фэнтези, мистика
Продолжительность: 1:33:21
Перевод: Профессиональный (многоголосый, закадровый) Киномания
Оригинальный аудиопоток: Отсутствует
Режиссер: Ренни Харлин/Renny Harlin
В ролях: Роберт Энглунд /Robert Englund, Родни Истмэн /Rodney Eastman, Дэнни Хэссел /Danny Hassel, Андраш Джоунс /Andras Jones, Лиза Уилкокс /Lisa Wilcox, Тьюзди Найт /Tuesday Knight
Описание Маленькая собачка, писающая огненным пламенем на могилу Фредди во сне одного из героев, оживляет этого Повелителя снов. С радостью он начинает убивать выживших героев предыдущей части, в свое время оказавших ему достойное сопротивление. Казалось, он останется непобедимым и ужасным Кошмаром улицы Вязов.
Но Фредди просчитался: за мгновение до своего ухода в мир иной, Кристен, последний отпрыск с улицы Вязов, успевает передать свою уникальную способность заманивать в свои сны других людей девушке Элис…
  • Когда Элис входит в кинотеатр, можно заметить афиши «Reefer Madness 2: The True Story» (1985), «Лака для волос» (1988) и «Тюрьмы» (1988).
  • На кладбище, позади могил Кристен Паркер и Роланда Кинкэйда, можно заметить два надгробия, на которых выгравированы имена Дональда и Нэнси Томпсоных, персонажей из «Кошмара на улице Вязов» (1984) и «Кошмара на улице Вязов 3: Войны сна» (1987).
  • Название закусочной, где работает Элис, - «Crave Inn», что является ссылкой на создателя Фредди Крюгера Уэса Крэйвена (Wes Craven).
  • Ренни Харлина можно заметить среди студентов в классе.
  • Тьюзди Найт не только сыграла одну из ролей в фильме, но также исполнила заглавную песню фильма.
  • Из семи фильмов о Фредди Крюгере, не считая «Фредди против Джейсона» (2003), картина Ренни Харлина собрала больше всего денег в кинопрокате США – $49 млн. (без учета инфляции).
  • Элис и другие ученики слушают лекцию о философии снов. Роберт Шэй, продюсер фильмов о Фредди Крюгере, сыграл лектора.
  • Когда Дэн и Элис находятся в больнице, можно услышать по громкой связи объявление, что доктору Шэю нужно явиться в такую-то палату. Это – ссылка на Роберта Шэя.
  • Изначально Уэс Крэйвен и Брюс Вагнер придумали сюжет, который крутился вокруг путешествия во времени через сны. Однако продюсеры Роберт Шэй и Сара Ришер посчитали такое развитие сюжета неверным и противоречащим концепции, созданной в первом фильме.
  • Элли Корнелл пробовалась на роль Элис.
  • Роберт Инглунд впервые назван первым в титрах. У него стало ровно в два раза больше экранного времени по сравнению с первой картиной.
  • Песню «Nightmare» в начальных титрах исполняет певица Тьюсдэй Найт, сыгравшая в фильме роль Кристин Паркер. Песня звучала только в фильме и не выходила ни на официальнмо саундтреки, ни на альбоме певицы.
,
Источник/Качество: DVDRip
Формат: AVI
Видео кодек: XviD
Аудио кодек: AC3
Видео: MPEG-4 Visual, XVID, 704x384, 1780 Кбит/сек, 23,976 кадра/сек
Аудио: AC3 Dolby Digital, 448 Кбит/сек, 6 каналов, 48,0 КГц
Субтитры: нет
Видео
Идентификатор : 0
Формат : MPEG-4 Visual
Профиль формата : Advanced [email protected]
Параметр BVOP формата : 2
Параметр QPel формата : Нет
Параметр GMC формата : Без точки перехода
Параметр матрицы формата : Выборочная
Идентификатор кодека : XVID
Идентификатор кодека/Подсказка : XviD
Продолжительность : 1 ч. 33 м.
Битрейт : 1780 Кбит/сек
Ширина : 704 пикселя
Высота : 384 пикселя
Соотношение сторон : 16:9
Частота кадров : 23,976 кадра/сек
Цветовое пространство : YUV
Субдискретизация насыщенности : 4:2:0
Битовая глубина : 8 бит
Тип развёртки : Прогрессивная
Метод сжатия : С потерями
Бит/(Пиксели*Кадры) : 0.275
Размер потока : 1,16 Гбайт (80%)
Библиотека кодирования : XviD 1.2.1 (UTC 2008-12-04)
Аудио
Идентификатор : 1
Формат : AC-3
Формат/Информация : Audio Coding 3
Расширение режима : CM (complete main)
Идентификатор кодека : 2000
Продолжительность : 1 ч. 33 м.
Вид битрейта : Постоянный
Битрейт : 448 Кбит/сек
Каналы : 6 каналов
Расположение каналов : Front: L C R, Side: L R, LFE
Частота : 48,0 КГц
Битовая глубина : 16 бит
Метод сжатия : С потерями
Размер потока : 299 Мбайт (20%)
Выравнивание : Разделение по промежуткам
Продолжительность промежутка : 42 мс. (1,00 видеокадр)
Время предзагрузки промежутка : 500 мс.


Кошмар на улице Вязов 5: Дитя сна
Год выпуска:1989
Мировая премьера: 11 августа 1989
Российская премьера: 11 августа 1989
Дата выхода DVD: 11 сентября 2008, «CP-Digital»
Производство: США, New Line Cinema, Smart Egg Pictures...
Жанр: Ужасы, триллер, фэнтези, мистика
Продолжительность: 1:29:40
Перевод: Профессиональный (многоголосый, закадровый) Киномания
Оригинальный аудиопоток: Отсутствует
Режиссер:Стивен Хопкинс/Stephen Hopkins
В ролях:Роберт Инглунд,Лиза Уилкокс,Эрика Андерсон,Вэлори Армстронг,Майкл Эштон,Беатрис Боппл,Мэтт Борленджи,Ноубл Крэйг,Е.Р. Дейвис,Барр ДеБеннинг
Описание:Неистребимый детоубийца, который в пятой части даже объявляет себя Супер-Фредди, исхитряется возродиться в ребенке, находящемся в утробе матери. Единственный шанс спасти ребенка — найти незахороненный труп монашки Аманды Крюгер, породившей на свет такое чудовище как Фредди, чтобы его уничтожить.
Фантастическая и феерическая картина с невероятными превращениями при помощи сложного грима с визуальными и компьютерными эффектами вновь имела огромный успех у зрителей.
  • Сценарий фильма неоднократно переписывался. От первоначальной версии Джона Скипа и Крэйга Спектора практически ничего не осталось в готовом фильме. От сценария Лесли Бохема осталась лишь половина. Уильям Уишер младший и Дэвид Шоу полировали сценарий, а окончательный вариант всего лишь за несколько дней до начала съёмок собрал Майкл Де Люка.
  • Мотоцикл, на котором мчится Дэн, - Yamaha V-Max 1200. Его номерной знак - «FREDDY».
  • Сцена вручения аттестатов была значительно урезана в готовом фильме. Были вырезаны следующие моменты: - речь Дэна; - диалог между Гретой и Расин; - разговор между Ивон, Элис и Гретой был значительно длиннее; - разговор о родителях и планах на будущее; - сцена, в которой папа Элис дарит ей камеру, на которую она копила деньги (когда они вдвоем идут фотографироваться на общее фото, то можно заметить, что Элис отдает камеру своему отцу).
  • Это – единственный фильм в серии, где была изменена считалочка Фредди. Изначально: «Раз, два, Фредди в гости жди. Три, четыре, двери затвори. Пять, шесть, крепче стисни крест. Семь, восемь, тебя не спать попросим. Девять, десять, никогда не спите, дети» (One, two, Freddy's coming for you. Three, four, better lock your door. Five, six, grab your crucifix. Seven, eight, gonna stay up late. Nine, ten, never sleep again). Измененный вариант: «Раз, два, Фредди в гости жди. Три, четыре, двери затвори. Пять, шесть, крепче стисни крест. Семь, восемь, тебя не спать попросим. Девять, десять, он вернулся снова» (One, two, Freddy's coming for you. Three, four, better lock your door. Five, six, grab your crucifix. Seven, eight, better stay up late. Nine, ten, he's back again).
  • Стивену Кингу и Фрэнку Миллеру предлагали написать сценарий и поставить фильм.
  • Во время сцены изнасилования Аманды среди заключенных можно заметить Роберта Инглунда без грима Фредди.
  • Все сцены смерти были урезаны в значительной степени, для того чтобы избежать рейтинга «X». Сцена смерти Дэна была намного длиннее и более жестокой: были вырезаны моменты крупных планов обезображенного лица Дэна, а также смех Фредди. Сцены, которые в фильме продолжаются всего лишь несколько секунд, изначально длились несколько минут. Подверглась монтажу сцена ужина Греты: изначально Фредди кормил Грету с помощью своей перчатки её же внутренними органами. Смерть Марка также должна была быть более кровавой.
  • Зловещий смех, раздающийся перед тем, как начинаются финальные титры, принадлежит Винсенту Прайсу, и взят он из видеоклипа Майкла Джексона «Триллер» 1982 года.
  • Когда Эллис приходит на ультразвук, на одной из табличек на дверях написано «Доктор Талалай» (имеется в виду один из продюсеров кинофильма - Рейчел Талалай). Но это единственный фильм, над которым Талалай не работала. Несколько лет спустя она сняла шестую серию под названием «Последний кошмар».
  • Небольшая часть фильма была снята для просмотра в специальных очках в 3-D формате.
  • Многие общественные организации восприняли фильм как своеобразное выступление против абортов.
,
Источник/Качество: DVDRip
Формат: AVI
Видео кодек: XviD
Аудио кодек: AC3
Видео: MPEG-4 Visual, XVID, 704x384, 1871 Кбит/сек, 23,976 кадра/сек
Аудио: AC3 Dolby Digital, 448 Кбит/сек, 6 каналов, 48,0 КГц
Субтитры: нет
Видео
Идентификатор : 0
Формат : MPEG-4 Visual
Профиль формата : Advanced [email protected]
Параметр BVOP формата : 2
Параметр QPel формата : Нет
Параметр GMC формата : Без точки перехода
Параметр матрицы формата : Выборочная
Идентификатор кодека : XVID
Идентификатор кодека/Подсказка : XviD
Продолжительность : 1 ч. 29 м.
Битрейт : 1871 Кбит/сек
Ширина : 704 пикселя
Высота : 384 пикселя
Соотношение сторон : 16:9
Частота кадров : 23,976 кадра/сек
Цветовое пространство : YUV
Субдискретизация насыщенности : 4:2:0
Битовая глубина : 8 бит
Тип развёртки : Прогрессивная
Метод сжатия : С потерями
Бит/(Пиксели*Кадры) : 0.289
Размер потока : 1,17 Гбайт (80%)
Библиотека кодирования : XviD 1.2.1 (UTC 2008-12-04)
Аудио
Идентификатор : 1
Формат : AC-3
Формат/Информация : Audio Coding 3
Расширение режима : CM (complete main)
Идентификатор кодека : 2000
Продолжительность : 1 ч. 29 м.
Вид битрейта : Постоянный
Битрейт : 448 Кбит/сек
Каналы : 6 каналов
Расположение каналов : Front: L C R, Side: L R, LFE
Частота : 48,0 КГц
Битовая глубина : 16 бит
Метод сжатия : С потерями
Размер потока : 287 Мбайт (19%)
Выравнивание : Разделение по промежуткам
Продолжительность промежутка : 42 мс. (1,00 видеокадр)
Время предзагрузки промежутка : 500 мс.


Кошмар на улице Вязов 6: Фредди мертв
Год выпуска:1991
Мировая премьера:5 сентября 1991
Российская премьера:5 сентября 1991
Дата выхода DVD:18 сентября 2008, «CP-Digital»
Производство: США, New Line Cinema, Smart Egg Pictures...
Жанр: Ужасы, триллер, фэнтези, мистика
Продолжительность: 1:29:14
Перевод: Профессиональный (многоголосый, закадровый) Киномания
Оригинальный аудиопоток: Отсутствует
Режиссер:Рейчел Тэлалей/Rachel Talalay
В ролях:Роберт Инглунд,Лиза Зейн,Шон Гринблатт,Лесли Дин,Рики Дин Логан,Брекин Мейер,Яфет Котто,Том Арнольд,Розанна,Элинор Донахью
Описание:десь выясняются причины появления духа-изверга Фредди Крюгера, с самого начала мстившего жителям своего родного городка. С детства заброшенный всеми, Фредди вырос очень озлобленным. Его терзает мания убийства, и он убивает детей, заманивая их в старую котельную. Когда суд по формальным причинам выносит маньяку оправдательный приговор, разъяренные родители жертв линчуют его.
  • Джонни Деппа можно заметить в рекламе, показанной по телевизору. Депп сыграл одного из главных персонажей в первом «Кошмаре на улице Вязов» (1984).
  • Элис Купер сыграл отца Фредди.
  • Продюсер фильма, Боб Шэй, сыграл продавца автобусных билетов.
  • Розана и Том Арнольд сыграли бездетную пару.
  • Сцены с момента, когда главная героиня надевает специальные очки и до того, как она их снимает, были сняты в 3-D. В кинотеатрах зрителям выдавали специальные очки, которые нужно было одеть для просмотра данной сцены.
  • Когда фильм вышел на видео, 3-D сцена была представлена в обычном формате. Однако в версии для Laserdisc сцена была сделана именно так, как её можно было посмотреть в кинотеатре. Две пары специальных очков входили в каждый комплект издания фильма на Laserdisc.
  • 12 сентября 1991, за день до премьеры фильма, в Лос-Анджелесе данный день был провозглашен Днем Фредди Крюгера.
  • Изначально Питер Джексон должен был написать сценарий фильма. Он написал сценарную заявку, однако она не понравилась продюсерам картины.
  • В данном фильме состоялся кинодебют Брекина Мейера.
  • В оригинальной версии сценария главным героем был шестнадцатилетний сын Элис Джонсон, героини предыдущего фильма. Фредди убивал Элис. Тарин, Джоуи и Кинкэйд из «Кошмара на улице Вязов 3: Войны сна», погибшие от рук Фредди, должны были вернуться в качестве «Полиции снов» (Dream Police). В сценарии Тарин была охарактеризована как «Blade Cop», Джоуи – «Sound Cop», Кинкэйд – «Power Cop». Оригинальный сценарий был отвергнут Рэйчел Талалэй.
  • Данный фильм суммирует все, что было снято в предыдущих картинах: город Спрингвуд (часть 1), Фредди пытается проникнуть в реальный мир (часть 2), детишки находятся в психиатрическом приюте (часть 3), 3D-эффекты (часть 4), факт того, что Фредди в самом деле имел ребенка (часть 5).
  • Музыку к фильму написал австралийский композитор Брайан Мэй (Brian May), автор музыкального сопровождения культовых роуд-муви «Безумный Макс I-II» и полный тёзка гитариста легендарной рок-группы «QUEEN».
,
Источник/Качество: DVDRip
Формат: AVI
Видео кодек: XviD
Аудио кодек: AC3
Видео: MPEG-4 Visual, XVID, 704x384, 1643 Кбит/сек, 23,976 кадра/сек
Аудио: AC3 Dolby Digital, 448 Кбит/сек, 6 каналов, 48,0 КГц
Субтитры: нет
Видео
Идентификатор : 0
Формат : MPEG-4 Visual
Профиль формата : Advanced [email protected]
Параметр BVOP формата : 2
Параметр QPel формата : Нет
Параметр GMC формата : Без точки перехода
Параметр матрицы формата : Выборочная
Идентификатор кодека : XVID
Идентификатор кодека/Подсказка : XviD
Продолжительность : 1 ч. 29 м.
Битрейт : 1643 Кбит/сек
Ширина : 704 пикселя
Высота : 384 пикселя
Соотношение сторон : 16:9
Частота кадров : 23,976 кадра/сек
Цветовое пространство : YUV
Субдискретизация насыщенности : 4:2:0
Битовая глубина : 8 бит
Тип развёртки : Прогрессивная
Метод сжатия : С потерями
Бит/(Пиксели*Кадры) : 0.254
Размер потока : 1,02 Гбайт (78%)
Библиотека кодирования : XviD 1.2.1 (UTC 2008-12-04)
Аудио
Идентификатор : 1
Формат : AC-3
Формат/Информация : Audio Coding 3
Расширение режима : CM (complete main)
Идентификатор кодека : 2000
Продолжительность : 1 ч. 29 м.
Вид битрейта : Постоянный
Битрейт : 448 Кбит/сек
Каналы : 6 каналов
Расположение каналов : Front: L C R, Side: L R, LFE
Частота : 48,0 КГц
Битовая глубина : 16 бит
Метод сжатия : С потерями
Размер потока : 286 Мбайт (21%)
Выравнивание : Разделение по промежуткам
Продолжительность промежутка : 42 мс. (1,00 видеокадр)
Время предзагрузки промежутка : 500 мс.


Кошмар на улице Вязов 7
Год выпуска:1994
Мировая премьера:9 сентября 1994
Российская премьера:9 сентября 1994
Дата выхода DVD:25 сентября 2008, «CP-Digital»
Производство: США, New Line Cinema, Smart Egg Pictures...
Жанр: Ужасы, триллер, фэнтези, мистика
Продолжительность: 1:52:16
Перевод: Профессиональный (многоголосый, закадровый) Киномания
Оригинальный аудиопоток: Отсутствует
Режиссер:Уэс Крэйвен/Wes Craven
В ролях:Хэзер Лэнгенкэмп,Роберт Инглунд,Мико Хьюз,Уэс Крэйвен,Джон Сэксон,Роберт Шэй,Сара Ришер,Марианн Маддалена,Дэвид Ньюсом.
Описание:Героиня первой серии, одержавшая победу над Фредди, выросла и вышла замуж за постановщика спецэффектов, разработавшего знаменитую ручку с маникюром. Снимается новый фильм про Крюгера, так как многочисленные поклонники требуют оживления своего любимчика.
  • Все сцены с землетрясением были сняты за один месяц до землетрясения в Лос-Анджелесе в 1994 году.
  • Дизайн новой перчатки Фредди был разработан на основе рисованной перчатки, которая присутствовала на театральном постере и обложках видеокассет «Кошмара на улице Вязов» (1984).
  • Дочь Уэса Крэйвена, Джессика Крэйвен, сыграла медсестру.
  • Хезер Лэнгенкэмп спрашивают – есть ли у неё пропуск, на что она отвечает – «К чёрту пропуск!». Данный эпизод позаимствован из «Кошмара на улице Вязов» (1984).
  • Лин Шэй, сыгравшая медсестру, также исполнила роль учительницы в «Кошмаре на улице Вязов» (1984).
  • Одежда, в которую одеты Хезер Лэнгенкэмп и Джон Саксон ближе к концовке фильма, - это та же самая одежда, в которой они появляются в «Кошмаре на улице Вязов» (1984).
  • Перед тем как приступить к съёмкам данного фильма, Уэс Крэйвен пересмотрел все части «Кошмара на улице Вязов» и, по его словам, так и не смог найти общую сюжетную линию.
  • Изначально Уэс Крэйвен планировал пригласить Джонни Деппа на небольшую роль в фильме: Джонни должен был появиться в роли самого себя в сцене похорон. Однако Уэс так и не набрался храбрости спросить об этом у Джонни. Уже после премьеры фильма Крэйвен спросил Джонни, последний ответил, что он бы принял предложение без всяких проблем и с удовольствием исполнил бы роль-камео.
  • Фотографию Хезер Лэнгенкэмп, которая стояла на столе Джона Саксона в первой части франчайза, можно заметить в доме Уэса Крэйвена.
  • В сценарии присутствовала сцена, в которой Роберт Инглунд засыпал и попадал в кошмар, где он застревал в паутине, и к нему подползал гигантский паук с лицом нового Фредди. Однако сцена так и не была снята, т.к. шла вразрез с общим тоном фильма.
  • Книгу Энди Мэнгельса (Andy Mangels) «Кошмар никогда не закончится» (The Nightmare Never Ends) можно заметить столе Боба Шэя.
,
Источник/Качество: DVDRip
Формат: AVI
Видео кодек: XviD
Аудио кодек: AC3
Видео: MPEG-4 Visual, XVID, 704x384, 1405 Кбит/сек, 23,976 кадра/сек
Аудио: AC3 Dolby Digital, 448 Кбит/сек, 6 каналов, 48,0 КГц
Субтитры: нет
Видео
Идентификатор : 0
Формат : MPEG-4 Visual
Профиль формата : Advanced [email protected]
Параметр BVOP формата : 2
Параметр QPel формата : Нет
Параметр GMC формата : Без точки перехода
Параметр матрицы формата : Выборочная
Идентификатор кодека : XVID
Идентификатор кодека/Подсказка : XviD
Продолжительность : 1 ч. 52 м.
Битрейт : 1405 Кбит/сек
Ширина : 704 пикселя
Высота : 384 пикселя
Соотношение сторон : 16:9
Частота кадров : 23,976 кадра/сек
Цветовое пространство : YUV
Субдискретизация насыщенности : 4:2:0
Битовая глубина : 8 бит
Тип развёртки : Прогрессивная
Метод сжатия : С потерями
Бит/(Пиксели*Кадры) : 0.217
Размер потока : 1,10 Гбайт (75%)
Библиотека кодирования : XviD 1.2.1 (UTC 2008-12-04)
Аудио
Идентификатор : 1
Формат : AC-3
Формат/Информация : Audio Coding 3
Расширение режима : CM (complete main)
Идентификатор кодека : 2000
Продолжительность : 1 ч. 52 м.
Вид битрейта : Постоянный
Битрейт : 448 Кбит/сек
Каналы : 6 каналов
Расположение каналов : Front: L C R, Side: L R, LFE
Частота : 48,0 КГц
Битовая глубина : 16 бит
Метод сжатия : С потерями
Размер потока : 360 Мбайт (24%)
Выравнивание : Разделение по промежуткам
Продолжительность промежутка : 42 мс. (1,00 видеокадр)
Время предзагрузки промежутка : 500 мс.


Фредди против Джейсона

Внимание! Freddy vs. Jason, так же включен в сборник Джейсона

Год выпуска: 2003
Мировая премьера: 13 августа 2003
Российская премьера: 4 декабря 2003
Дата выхода DVD: 30 июня 2011, «CP-Digital»
Производство: США, Канада, Италия, New Line Cinema, Smart Egg Pictures...
Жанр: Ужасы, триллер, фэнтези, мистика
Продолжительность: 1:37:15
Перевод: Профессиональный (дублированный)
Оригинальный аудиопоток: Отсутствует
Режиссер: Ронни Ю/Ronny Yu
В ролях: Роберт Инглунд,Кен Кирзингер,Моника Кина,Джейсон Риттер,Келли Роулэнд,Крис Маркетт,Брендан Флетчер, Кэтрин Изабель,Локлин Манро,Кайл Лэбин.
Описание: Фредди Крюгер доведен до отчаяния: он больше не может убивать. Лишь используя неуклюжего серийного убийцу Джейсона Вурхиса, Фредди удается истреблять детей с улицы Вязов. Но когда Джейсон начинает понимать, что им попросту манипулируют, планы Фредди готовы рухнуть.
Теперь дело за тинейджерами Уиллом, Лори и Кией. Каким-то образом им надо заставить Джейсона раз и навсегда убить Фредди Крюгера.
  • Кейн Ходдер хотел сыграть Джейсона, как это он делал в предыдущих четырёх сериях, но его кандидатуру отклонили.
  • Ронни Ю не хотел браться за работу, так как в сценарии не указывалось, кто вышел победителем. Он согласился только тогда, когда Роберт Шэй предложил ему самому выбрать маньяка, оставшегося в живых.
  • Первая попытка студии «New Line Cinema» сделать этот фильм была предпринята еще в 1987 году.
  • Герой Блейк назван в честь создателя сайта о сериале «Пятница, 13» Блейка Уошера.
  • Это первый фильм о Фредди, снятый не в Соединённых Штатах. Так что создателям пришлось искать дом, похожий на дом Фредди из первых семи серий.
  • Во время съёмок картины Кирзингер постоянно посещал дантиста, так как у него были проблемы с зубами. Но на снятие грима уходило очень много времени. Так что однажды актёр приехал в клинику в гриме Джейсона, но без маски.
  • По словам Кирзингера, самая сложная сцена фильма, когда Джейсон тонет в озере — сцена снималась в специальном бассейне. Вода в нём была очень хлорирована, чтобы больше походила на воду в озере. Ронни Ю хотел снять Джейсона крупным планом, тонущим с открытыми глазами. Попавшая в глаза хлорка вызывала раздражение и резкую боль. При этом актёр уходил на дно, задержав дыхание.
  • В этом фильме кровь Фредди и Джейсона красная и во сне и в реальности. Во всех предыдущих фильмах кровь Фредди была зелёного цвета, а кровь Джейсона — чёрного.
  • Бетси Палмер, постоянна исполнительница роли Памелы Вурхис в сериале, отказалась от съёмок в фильме из-за низкой зарплаты.
  • Во время тестовых и предпоказов зрителям не показывали концовку картины. Вместо неё на экране появлялась надпись '15 августа 2003 посмотрите последние 60 секунд, и узнайте, кто выжил... и что от него осталось'. Это прямая отсылка к слогану оригинальной «Техасской резни бензопилой»: «Кто выживет, и что от него останется?»
  • Робу Зомби предлагали занять режиссерское кресло, однако он отказался, так как был занят съемками картины «Дом 1000 трупов».
,
Источник/Качество: DVDRip
Формат: AVI
Видео кодек: XviD
Аудио кодек: AC3
Видео: MPEG-4 Visual, XVID, 720x304, 1689 Кбит/сек, 23,976 кадра/сек
Аудио: AC3 Dolby Digital, 448 Кбит/сек, 6 каналов, 48,0 КГц
Субтитры: нет
Видео
Идентификатор : 0
Формат : MPEG-4 Visual
Профиль формата : Advanced [email protected]
Параметр BVOP формата : 2
Параметр QPel формата : Нет
Параметр GMC формата : Без точки перехода
Параметр матрицы формата : Выборочная
Идентификатор кодека : XVID
Идентификатор кодека/Подсказка : XviD
Продолжительность : 1 ч. 37 м.
Битрейт : 1689 Кбит/сек
Ширина : 720 пикселей
Высота : 304 пикселя
Соотношение сторон : 2,35:1
Частота кадров : 23,976 кадра/сек
Цветовое пространство : YUV
Субдискретизация насыщенности : 4:2:0
Битовая глубина : 8 бит
Тип развёртки : Прогрессивная
Метод сжатия : С потерями
Бит/(Пиксели*Кадры) : 0.322
Размер потока : 1,15 Гбайт (79%)
Библиотека кодирования : XviD 1.2.1 (UTC 2008-12-04)
Аудио
Идентификатор : 1
Формат : AC-3
Формат/Информация : Audio Coding 3
Расширение режима : CM (complete main)
Идентификатор кодека : 2000
Продолжительность : 1 ч. 37 м.
Вид битрейта : Постоянный
Битрейт : 448 Кбит/сек
Каналы : 6 каналов
Расположение каналов : Front: L C R, Side: L R, LFE
Частота : 48,0 КГц
Битовая глубина : 16 бит
Метод сжатия : С потерями
Задержка видео : 1 с. 993 мс.
Размер потока : 312 Мбайт (21%)
Выравнивание : Разделение по промежуткам
Продолжительность промежутка : 42 мс. (1,00 видеокадр)
Время предзагрузки промежутка : 500 мс.




Внимание! Freddy vs. Jason, так же включен в сборник Джейсона
Download / Скачать

Хотите скачать бесплатно? Зарегистрируйтесь на сайте (ссылка на регистрацию). Pirat.ca - самый быстрый торрент трекер в рунете!

Как скачивать  ·   Что такое торрент  ·   Рейтинг и ограничения



Последний раз редактировалось: stellrat (2012-02-12 03:21), всего редактировалось 7 раз(а)

stellrat ®

Шкипер

62

Пост 08-Ноя-2011 16:02 (спустя 3 минуты)

[Q] 

на раздаче постоянно стоять не смогу.

_________________
[Профиль]  [ЛС] 

stellrat ®

Шкипер

62

Пост 09-Ноя-2011 01:19 (спустя 9 часов)

[Q] 

на следующей неделе залью сборник пятницы 13-ое 11 штук

_________________
[Профиль]  [ЛС] 

Пост 09-Ноя-2011 16:38 (спустя 15 часов)

Топик был перенесен из форума Художественные фильмы (Зарубежное кино) в форум Зарубежное Кино

Чужая
 

Giganter

Штурман

114

Пост 13-Ноя-2011 20:43 (спустя 4 дня)

[Q] 

Сражен, наповал, оформлением переплюнул самого Микеланджело с его Сикстинской капеллой. Готов взять пару уроков. Аплодируя стоя.
P.S. Где ж ты раньше был?

_________________
[Профиль]  [ЛС] 

Jigsaw

Пост 28-Фев-2013 19:56 (спустя 1 год 3 месяца)

[Q] 

 

vasja17101983

Лоцман

Пост 31-Мар-2013 20:45 (спустя 1 месяц 3 дня)

[Q] 

ОООчень хорошая подборка!!!! Спасибо!!!Респект!!!!!!!!
[Профиль]  [ЛС] 

Fettel

Морской Волк

Пост 29-Апр-2013 14:04 (спустя 28 дней)

[Q] 

[Профиль]  [ЛС] 

SuperBeTeR

Морской Волк

Пост 20-Июн-2013 12:31 (спустя 1 месяц 20 дней)

[Q] 

Лучшие на мой взгляд "Воины сна" и "Фредди мертв". А еще хорошо у авторов много чего получилось: юмор Фредди, изображение снов ....
[Профиль]  [ЛС] 

XMax

Флибустьер

Пост 27-Июл-2013 11:00 (спустя 1 месяц 6 дней)

[Q] 

[Профиль]  [ЛС] 

Нэйтон

Флибустьер

Пост 28-Июл-2013 01:16 (спустя 14 часов)

[Q] 

Самый лучший фильм ay aa
[Профиль]  [ЛС] 

Су-34

Гроза морей

10390

Пост 30-Июл-2013 22:50 (спустя 2 дня 21 час)

[Q] 

Старые добрые кошмары!!
[Профиль]  [ЛС] 

Дэн

Флибустьер

Пост 19-Апр-2014 21:23 (спустя 8 месяцев 19 дней)

[Q] 

спасибо !
[Профиль]  [ЛС] 

fiona-d

Шкипер

32

Пост 11-Апр-2015 13:53 (спустя 11 месяцев 21 день)

[Q] 

клёво! ))) Спасибо!!! Лови бочку
[Профиль]  [ЛС] 

LORD OR

Корсар

Пост 19-Апр-2015 22:32 (спустя 8 дней)

[Q] 

Фильм хороший! Сохранил себе в личную коллекцию.
[Профиль]  [ЛС] 

xzxscorpxzx

Флибустьер

Пост 14-Сен-2015 01:13 (спустя 4 месяца 24 дня)

[Q] 

я боюсь) На любителя
[Профиль]  [ЛС] 
Показать сообщения:    
Ответить на тему

Текущее время: Сегодня 22:35

Часовой пояс: GMT + 4



Вы не можете начинать темы
Вы не можете отвечать на сообщения
Вы не можете редактировать свои сообщения
Вы не можете удалять свои сообщения
Вы не можете голосовать в опросах
Вы не можете прикреплять файлы к сообщениям
Вы не можете скачивать файлы

▼ Вниз