ML
     
  Уважаемый Гость!
Вы можете поддержать проект и зарегистрироваться у наших партнеров - онлайн-стратегия MyLands. При регистрации в игре Вы получите код, который сможете активировать после регистрации на pirat.ca и получить 1000 дублонов.

Ваш код:
2932e5898d0a27592397f70b82a5834d1e70ea19
 
     

Обитель зла: Квадрология / Resident Evil Quadrilogy (Пол У. С. Андерсон / Paul W.S. Anderson) [2002-2010 г., ужасы, фантастика, боевик, триллер, приключения, BDRip] (Dub)

Ответить на тему
 
Автор
Сообщение

Пост 08-Ноя-2011 22:52

[Q] 

zyyx

--Обитель зла: Квадрология / Resident Evil Quadrilogy--
--Обитель зла / Resident Evil
«From the Director of Mortal Combat and Event Horizon.»
-- Год выпуска: 2002
Мировая премьера: 12 марта 2002
Российская премьера: 18 июля 2002, «Пирамида»
Дата выхода DVD: 4 июня 2009, «Парадиз Видео»
Дата выхода Blu-Ray: 18 июня 2009, «Парадиз Видео»
Производство: Германия, Франция, Великобритания
Жанр: ужасы, фантастика, боевик, триллер, приключения
Продолжительность: 01:40:31
Перевод: Профессиональный (полное дублирование) [Лицензия]
Оригинальный аудиопоток: Английский
Режиссер: Пол У. С. Андерсон / Paul W.S. Anderson
В ролях: Милла Йовович, Мишель Родригес, Эрик Мэбиас, Джеймс Пьюрфой, Мартин Крюз, Колин Сэлмон, Райан МакКласки, Оскар Пирс, Индра Ове, Анна Болт
Описание: В гигантской подземной лаборатории на волю вырывается опаснейший вирус, мгновенно превращая своих жертв в прожорливых зомби. Достаточно одного их укуса или царапины страшных когтей, чтобы человек стал обезумевшим пожирателем живой плоти.
Военные посылают в секретный комплекс, кишащий ужасными мутировавшими животными и голодными монстрами, группу спецназа, к которой присоединяются очаровательная Элис и отважный полицейский Мэтт. У них есть только три часа, чтобы уничтожить вирус до того, как он распространится по всей Земле…-Сэмпл | IMDB | КиноПоиск-Источник/Качество: BDRip
Формат: AVI
Видео кодек: XviD
Аудио кодек: AC3
Видео: 720x384 (1.88:1), 23.976 fps, XviD build 50, 2208 kbps avg, 0.33 bit/pixel
Аудио: 48 kHz, AC3 Dolby Digital, 3/2 (L,C,R,l,r) + LFE ch, 448 kbps | Русский
Аудио 2: 48 kHz, AC3 Dolby Digital, 3/2 (L,C,R,l,r) + LFE ch, 448 kbps | Английский
Общее
Полное имя : D:\pirat.ca\Obitel.Zla.1-4.BDRip.XviD.AC3.-HELLYWOOD\Obitel.Zla.I.2002.DUAL.BDRip.XviD.AC3.-HELLYWOOD\Obitel.Zla.I.2002.DUAL.BDRip.XviD.AC3.-HELLYWOOD.avi
Формат : AVI
Формат/Информация : Audio Video Interleave
Профиль формата : OpenDML
Размер файла : 2,18 Гбайт
Продолжительность : 1 ч. 40 м.
Общий поток : 3112 Кбит/сек
Название фильма : Obitel.Zla.2002.DUAL.BDRip.XviD.AC3.-HELLYWOOD
Программа кодирования : VirtualDubMod 1.5.10.2 (build 2540/release)
Видео
Идентификатор : 0
Формат : MPEG-4 Visual
Профиль формата : Advanced [email protected]
Параметр BVOP формата : 1
Параметр QPel формата : Нет
Параметр GMC формата : Без точки перехода
Параметр матрицы формата : Выборочная
Идентификатор кодека : XVID
Идентификатор кодека/Подсказка : XviD
Продолжительность : 1 ч. 40 м.
Битрейт : 2198 Кбит/сек
Ширина : 720 пикселей
Высота : 384 пикселя
Соотношение сторон : 1,875
Частота кадров : 23,976 кадра/сек
Цветовое пространство : YUV
Субдискретизация насыщенности : 4:2:0
Битовая глубина : 8 бит
Тип развёртки : Прогрессивная
Метод сжатия : С потерями
Бит/(Пиксели*Кадры) : 0.332
Размер потока : 1,54 Гбайт (71%)
Библиотека кодирования : XviD 1.2.1 (UTC 2008-12-04)
Аудио #1
Идентификатор : 1
Формат : AC-3
Формат/Информация : Audio Coding 3
Расширение режима : CM (complete main)
Идентификатор кодека : 2000
Продолжительность : 1 ч. 40 м.
Вид битрейта : Постоянный
Битрейт : 448 Кбит/сек
Каналы : 6 каналов
Расположение каналов : Front: L C R, Side: L R, LFE
Частота : 48,0 КГц
Битовая глубина : 16 бит
Метод сжатия : С потерями
Размер потока : 322 Мбайт (14%)
Выравнивание : Разделение по промежуткам
Продолжительность промежутка : 42 мс. (1,00 видеокадр)
Время предзагрузки промежутка : 500 мс.
Аудио #2
Идентификатор : 2
Формат : AC-3
Формат/Информация : Audio Coding 3
Расширение режима : CM (complete main)
Идентификатор кодека : 2000
Продолжительность : 1 ч. 40 м.
Вид битрейта : Постоянный
Битрейт : 448 Кбит/сек
Каналы : 6 каналов
Расположение каналов : Front: L C R, Side: L R, LFE
Частота : 48,0 КГц
Битовая глубина : 16 бит
Метод сжатия : С потерями
Размер потока : 322 Мбайт (14%)
Выравнивание : Разделение по промежуткам
Продолжительность промежутка : 42 мс. (1,00 видеокадр)
Время предзагрузки промежутка : 500 мс.



-
--Обитель зла 2: Апокалипсис / Resident Evil: Apocalypse
«Она прошла через катакомбы, кишащие зомби. Теперь на её пути целый город...»
-- Год выпуска: 2004
Мировая премьера: 10 сентября 2004
Российская премьера: 11 ноября 2004, «Пирамида»
Дата выхода DVD: 6 августа 2009, «Парадиз Видео»
Дата выхода Blu-Ray: 30 июля 2009, «Парадиз Видео»
Производство: Германия, Канада, Франция, Великобритания
Жанр: ужасы, фантастика, боевик, триллер
Продолжительность: 01:33:09
Перевод: Профессиональный (полное дублирование) [Лицензия]
Оригинальный аудиопоток: Английский
Режиссер: Пол У. С. Андерсон / Paul W.S. Anderson
В ролях: Милла Йовович, Сиенна Гиллори, Одед Фер, Томас Кречманн, Софи Вавасо, Разаак Адоти, Джаред Харрис, Майк Еппс, Сандрин Холт, Мэттью Дж. Тейлор, Ольга Плетнева, Любовь Германова, Игорь Тарадайкин, Вячеслав Баранов, Олег Куценко
Описание: Действие картины разворачивается на улицах печально известного Ракун-сити, города, контролируемого могущественной корпорацией «Амбрелла».
После бактериологической катастрофы все жители стали медленно превращаться в зомби, а те немногочисленные граждане, чей разум ещё не был до конца изъеден ужасным вирусом, доживали свои последние дни в атмосфере страха и желания скорейшей смерти…-Сэмпл | IMDB | КиноПоиск-Источник/Качество: BDRip
Формат: AVI
Видео кодек: XviD
Аудио кодек: AC3
Видео: 720x304 (2.37:1), 23.976 fps, XviD build 50, 2136 kbps avg, 0.41 bit/pixel
Аудио: 48 kHz, AC3 Dolby Digital, 3/2 (L,C,R,l,r) + LFE ch, 448 kbps | Русский
Аудио 2: 48 kHz, AC3 Dolby Digital, 3/2 (L,C,R,l,r) + LFE ch, 384 kbps | Английский
Аудио 3: 48 kHz, AC3 Dolby Digital, 3/2 (L,C,R,l,r) + LFE ch, 384 kbps | Tycoon
Общее
Полное имя : D:\pirat.ca\Obitel.Zla.1-4.BDRip.XviD.AC3.-HELLYWOOD\Obitel.Zla.II.Apokalipsis.2004.TRIPLE.BDRip.XviD.AC3.-HELLYWOOD\Obitel.Zla.II.Apokalipsis.2004.TRIPLE.BDRip.XviD.AC3.-HELLYWOOD.avi
Формат : AVI
Формат/Информация : Audio Video Interleave
Профиль формата : OpenDML
Размер файла : 2,19 Гбайт
Продолжительность : 1 ч. 33 м.
Общий поток : 3360 Кбит/сек
Название фильма : Obitel.Zla.2.Apokalipsis.2004.TRIPLE.BDRip.XviD.AC3.-HELLYWOOD
Программа кодирования : VirtualDubMod 1.5.10.2 (build 2540/release)
Видео
Идентификатор : 0
Формат : MPEG-4 Visual
Профиль формата : Advanced [email protected]
Параметр BVOP формата : 1
Параметр QPel формата : Нет
Параметр GMC формата : Без точки перехода
Параметр матрицы формата : Выборочная
Идентификатор кодека : XVID
Идентификатор кодека/Подсказка : XviD
Продолжительность : 1 ч. 33 м.
Битрейт : 2120 Кбит/сек
Ширина : 720 пикселей
Высота : 304 пикселя
Соотношение сторон : 2,35:1
Частота кадров : 23,976 кадра/сек
Цветовое пространство : YUV
Субдискретизация насыщенности : 4:2:0
Битовая глубина : 8 бит
Тип развёртки : Прогрессивная
Метод сжатия : С потерями
Бит/(Пиксели*Кадры) : 0.404
Размер потока : 1,38 Гбайт (63%)
Библиотека кодирования : XviD 1.2.1 (UTC 2008-12-04)
Аудио #1
Идентификатор : 1
Формат : AC-3
Формат/Информация : Audio Coding 3
Расширение режима : CM (complete main)
Идентификатор кодека : 2000
Продолжительность : 1 ч. 33 м.
Вид битрейта : Постоянный
Битрейт : 448 Кбит/сек
Каналы : 6 каналов
Расположение каналов : Front: L C R, Side: L R, LFE
Частота : 48,0 КГц
Битовая глубина : 16 бит
Метод сжатия : С потерями
Размер потока : 299 Мбайт (13%)
Выравнивание : Разделение по промежуткам
Продолжительность промежутка : 42 мс. (1,00 видеокадр)
Время предзагрузки промежутка : 500 мс.
Аудио #2
Идентификатор : 2
Формат : AC-3
Формат/Информация : Audio Coding 3
Расширение режима : CM (complete main)
Идентификатор кодека : 2000
Продолжительность : 1 ч. 33 м.
Вид битрейта : Постоянный
Битрейт : 384 Кбит/сек
Каналы : 6 каналов
Расположение каналов : Front: L C R, Side: L R, LFE
Частота : 48,0 КГц
Битовая глубина : 16 бит
Метод сжатия : С потерями
Размер потока : 256 Мбайт (11%)
Выравнивание : Разделение по промежуткам
Продолжительность промежутка : 42 мс. (1,00 видеокадр)
Время предзагрузки промежутка : 500 мс.
Аудио #3
Идентификатор : 3
Формат : AC-3
Формат/Информация : Audio Coding 3
Расширение режима : CM (complete main)
Идентификатор кодека : 2000
Продолжительность : 1 ч. 33 м.
Вид битрейта : Постоянный
Битрейт : 384 Кбит/сек
Каналы : 6 каналов
Расположение каналов : Front: L C R, Side: L R, LFE
Частота : 48,0 КГц
Битовая глубина : 16 бит
Метод сжатия : С потерями
Размер потока : 256 Мбайт (11%)
Выравнивание : Разделение по промежуткам
Продолжительность промежутка : 42 мс. (1,00 видеокадр)
Время предзагрузки промежутка : 500 мс.



-
--Обитель зла 3 / Resident Evil: Extinction
«На этот раз без компромиссов»
-- Год выпуска: 2007
Мировая премьера: 21 сентября 2007
Российская премьера: 20 сентября 2007, «Парадиз»
Дата выхода Blu-Ray: 30 апреля 2009, «Парадиз Видео»
Производство: США, Германия, Франция, Великобритания, Австралия
Жанр: ужасы, фантастика, боевик, триллер, приключения
Продолжительность: 01:34:05
Перевод: Профессиональный (полное дублирование) [Лицензия]
Оригинальный аудиопоток: Английский
Режиссер: Пол У. С. Андерсон / Paul W.S. Anderson
В ролях: Милла Йовович, Одед Фер, Эли Лартер, Айэйн Глен, Ашанти, Кристофер Иган, Спенсер Лок, Мэттью Мэрсден, Линден Эшби, Джейсон О`Мара, Пётр ИващенкоЛиза Мартиросова
Описание: Элис, не раз уже спасавшая мир от смертельных вирусов и неминуемой гибели, вновь взялась за оружие. На этот раз ей предстоит сразиться с корпорацией «Амбрелла», работающей над реализацией зверского антигуманного проекта. Коварные политики и прагматичные ученые стремятся уничтожить людей и заменить их на более «совершенные» создания, заселив Землю неуязвимыми бессмертными клонами…-Сэмпл | IMDB | КиноПоиск-Источник/Качество: BDRip
Формат: AVI
Видео кодек: XviD
Аудио кодек: AC3
Видео: 720x304 (2.37:1), 23.976 fps, XviD build 50, 2101 kbps avg, 0.40 bit/pixel
Аудио: 48 kHz, AC3 Dolby Digital, 3/2 (L,C,R,l,r) + LFE ch, 448 kbps | Русский
Аудио 2: 48 kHz, AC3 Dolby Digital, 3/2 (L,C,R,l,r) + LFE ch, 384 kbps | Живов
Аудио 3: 48 kHz, AC3 Dolby Digital, 3/2 (L,C,R,l,r) + LFE ch, 384 kbps | Английский
Общее
Полное имя : D:\pirat.ca\Obitel.Zla.1-4.BDRip.XviD.AC3.-HELLYWOOD\Obitel.Zla.III.2007.TRIPLE.BDRip.XviD.AC3.-HELLYWOOD\Obitel.Zla.III.2007.TRIPLE.BDRip.XviD.AC3.-HELLYWOOD.avi
Формат : AVI
Формат/Информация : Audio Video Interleave
Профиль формата : OpenDML
Размер файла : 2,18 Гбайт
Продолжительность : 1 ч. 34 м.
Общий поток : 3324 Кбит/сек
Название фильма : Obitel.Zla.III.2007.TRIPLE.BDRip.XviD.AC3.-HELLYWOOD
Программа кодирования : VirtualDubMod 1.5.10.2 (build 2540/release)
Видео
Идентификатор : 0
Формат : MPEG-4 Visual
Профиль формата : Advanced [email protected]
Параметр BVOP формата : 1
Параметр QPel формата : Нет
Параметр GMC формата : Без точки перехода
Параметр матрицы формата : Выборочная
Идентификатор кодека : XVID
Идентификатор кодека/Подсказка : XviD
Продолжительность : 1 ч. 34 м.
Битрейт : 2085 Кбит/сек
Ширина : 720 пикселей
Высота : 304 пикселя
Соотношение сторон : 2,35:1
Частота кадров : 23,976 кадра/сек
Цветовое пространство : YUV
Субдискретизация насыщенности : 4:2:0
Битовая глубина : 8 бит
Тип развёртки : Прогрессивная
Метод сжатия : С потерями
Бит/(Пиксели*Кадры) : 0.397
Размер потока : 1,37 Гбайт (63%)
Библиотека кодирования : XviD 1.2.1 (UTC 2008-12-04)
Аудио #1
Идентификатор : 1
Формат : AC-3
Формат/Информация : Audio Coding 3
Расширение режима : CM (complete main)
Идентификатор кодека : 2000
Продолжительность : 1 ч. 34 м.
Вид битрейта : Постоянный
Битрейт : 448 Кбит/сек
Каналы : 6 каналов
Расположение каналов : Front: L C R, Side: L R, LFE
Частота : 48,0 КГц
Битовая глубина : 16 бит
Метод сжатия : С потерями
Размер потока : 301 Мбайт (13%)
Выравнивание : Разделение по промежуткам
Продолжительность промежутка : 42 мс. (1,00 видеокадр)
Время предзагрузки промежутка : 500 мс.
Аудио #2
Идентификатор : 2
Формат : AC-3
Формат/Информация : Audio Coding 3
Расширение режима : CM (complete main)
Идентификатор кодека : 2000
Продолжительность : 1 ч. 34 м.
Вид битрейта : Постоянный
Битрейт : 384 Кбит/сек
Каналы : 6 каналов
Расположение каналов : Front: L C R, Side: L R, LFE
Частота : 48,0 КГц
Битовая глубина : 16 бит
Метод сжатия : С потерями
Размер потока : 258 Мбайт (12%)
Выравнивание : Разделение по промежуткам
Продолжительность промежутка : 42 мс. (1,00 видеокадр)
Время предзагрузки промежутка : 500 мс.
Аудио #3
Идентификатор : 3
Формат : AC-3
Формат/Информация : Audio Coding 3
Расширение режима : CM (complete main)
Идентификатор кодека : 2000
Продолжительность : 1 ч. 34 м.
Вид битрейта : Постоянный
Битрейт : 384 Кбит/сек
Каналы : 6 каналов
Расположение каналов : Front: L C R, Side: L R, LFE
Частота : 48,0 КГц
Битовая глубина : 16 бит
Метод сжатия : С потерями
Размер потока : 258 Мбайт (12%)
Выравнивание : Разделение по промежуткам
Продолжительность промежутка : 42 мс. (1,00 видеокадр)
Время предзагрузки промежутка : 500 мс.



-
Обитель зла 4: Жизнь после смерти 3D / Resident Evil: Afterlife
«Испытайте новое измерение зла»
Год выпуска: 2010
Мировая премьера: 2 сентября 2010
Российская премьера: 10 сентября 2010, «WDSSPR»
Дата выхода DVD: 14 октября 2010, «Columbia/Sony»
Дата выхода Blu-Ray: 27 января 2011, «Columbia/Sony»
Производство: Германия, Франция, Великобритания
Жанр: ужасы, фантастика, боевик, приключения
Продолжительность: 01:36:52
Перевод: Профессиональный (полное дублирование) [Лицензия]
Оригинальный аудиопоток: Английский
Режиссер: Пол У. С. Андерсон / Paul W.S. Anderson
В ролях: Милла Йовович, Эли Лартер, Ким Коутс, Шоун Робертс, Серджо Перис-Менчета, Спенсер Лок, Борис Коджо, Вентворт Миллер, Сиенна Гиллори, Кейси Барнфилд
Описание: Элис продолжает свой путь в мире, поражённом вирусной инфекцией, превращающей людей в нежить. Героиня ищет оставшихся в живых, чтобы вывести их в безопасное место. Её смертельная битва с корпорацией Амбрелла выходит на новый уровень…-Сэмпл | IMDB | КиноПоиск-Источник/Качество: BDRip
Формат: AVI
Видео кодек: XviD
Аудио кодек: AC3
Видео: 720x304 (2.37:1), 23.976 fps, XviD build 50, 2010 kbps avg, 0.38 bit/pixel
Аудио: 48 kHz, AC3 Dolby Digital, 3/2 (L,C,R,l,r) + LFE ch, 448 kbps | Русский
Аудио 2: 48 kHz, AC3 Dolby Digital, 3/2 (L,C,R,l,r) + LFE ch, 384 kbps | Украинский дубляж
Аудио 3: 48 kHz, AC3 Dolby Digital, 3/2 (L,C,R,l,r) + LFE ch, 384 kbps | Английский
Общее
Полное имя : D:\pirat.ca\Obitel.Zla.1-4.BDRip.XviD.AC3.-HELLYWOOD\Obitel.Zla.IV.Zhizn.Posle.Smerti.2010.DUA.BDRip.XviD.AC3.-HELLYWOOD\Obitel.Zla.IV.Zhizn.Posle.Smerti.2010.DUA.BDRip.XviD.AC3.-HELLYWOOD.avi
Формат : AVI
Формат/Информация : Audio Video Interleave
Профиль формата : OpenDML
Размер файла : 2,19 Гбайт
Продолжительность : 1 ч. 36 м.
Общий поток : 3234 Кбит/сек
Программа кодирования : VirtualDubMod 1.5.10.2 (build 2540/release)
Библиотека кодирования : VirtualDubMod build 2540/release
Видео
Идентификатор : 0
Формат : MPEG-4 Visual
Профиль формата : Advanced [email protected]
Параметр BVOP формата : 1
Параметр QPel формата : Нет
Параметр GMC формата : Без точки перехода
Параметр матрицы формата : Выборочная
Идентификатор кодека : XVID
Идентификатор кодека/Подсказка : XviD
Продолжительность : 1 ч. 36 м.
Битрейт : 1994 Кбит/сек
Ширина : 720 пикселей
Высота : 304 пикселя
Соотношение сторон : 2,35:1
Частота кадров : 23,976 кадра/сек
Цветовое пространство : YUV
Субдискретизация насыщенности : 4:2:0
Битовая глубина : 8 бит
Тип развёртки : Прогрессивная
Метод сжатия : С потерями
Бит/(Пиксели*Кадры) : 0.380
Размер потока : 1,35 Гбайт (62%)
Библиотека кодирования : XviD 1.2.1 (UTC 2008-12-04)
Аудио #1
Идентификатор : 1
Формат : AC-3
Формат/Информация : Audio Coding 3
Расширение режима : CM (complete main)
Идентификатор кодека : 2000
Продолжительность : 1 ч. 36 м.
Вид битрейта : Постоянный
Битрейт : 448 Кбит/сек
Каналы : 6 каналов
Расположение каналов : Front: L C R, Side: L R, LFE
Частота : 48,0 КГц
Битовая глубина : 16 бит
Метод сжатия : С потерями
Размер потока : 310 Мбайт (14%)
Выравнивание : Разделение по промежуткам
Продолжительность промежутка : 42 мс. (1,00 видеокадр)
Время предзагрузки промежутка : 500 мс.
Аудио #2
Идентификатор : 2
Формат : AC-3
Формат/Информация : Audio Coding 3
Расширение режима : CM (complete main)
Идентификатор кодека : 2000
Продолжительность : 1 ч. 36 м.
Вид битрейта : Постоянный
Битрейт : 384 Кбит/сек
Каналы : 6 каналов
Расположение каналов : Front: L C R, Side: L R, LFE
Частота : 48,0 КГц
Битовая глубина : 16 бит
Метод сжатия : С потерями
Размер потока : 266 Мбайт (12%)
Выравнивание : Разделение по промежуткам
Продолжительность промежутка : 42 мс. (1,00 видеокадр)
Время предзагрузки промежутка : 500 мс.
Аудио #3
Идентификатор : 3
Формат : AC-3
Формат/Информация : Audio Coding 3
Расширение режима : CM (complete main)
Идентификатор кодека : 2000
Продолжительность : 1 ч. 36 м.
Вид битрейта : Постоянный
Битрейт : 384 Кбит/сек
Каналы : 6 каналов
Расположение каналов : Front: L C R, Side: L R, LFE
Частота : 48,0 КГц
Битовая глубина : 16 бит
Метод сжатия : С потерями
Размер потока : 266 Мбайт (12%)
Выравнивание : Разделение по промежуткам
Продолжительность промежутка : 42 мс. (1,00 видеокадр)
Время предзагрузки промежутка : 500 мс.



Download / Скачать

Хотите скачать бесплатно? Зарегистрируйтесь на сайте (ссылка на регистрацию). Pirat.ca - самый быстрый торрент трекер в рунете!

Как скачивать  ·   Что такое торрент  ·   Рейтинг и ограничения

Пост 08-Ноя-2011 23:32 (спустя 40 минут)

Топик был перенесен из форума Художественные фильмы (Зарубежное кино) в форум Зарубежное Кино

Чужая
 

kisu

Гроза морей

Пост 10-Ноя-2011 13:48 (спустя 1 день 14 часов)

[Q] 

спасибо!
[Профиль]  [ЛС] 

Wishmaster

Морской Волк

Пост 10-Ноя-2011 17:31 (спустя 3 часа)

[Q] 

Обитель зла 4: Жизнь после смерти 3D
Тут не в 3D! Тут обычный
[Профиль]  [ЛС] 

theWanderer

Корсар

1014

Пост 27-Ноя-2011 12:58 (спустя 16 дней)

[Q] 

отличная квадрология, качество звука и видео на высоте.
единственное - в 4й части уж слишком много Милы Йовович в самом начале...силился их посчитать, но на 3й минуте сбился :D

_________________
Время раздачи: с 19-00 до 8-30
[Профиль]  [ЛС] 

kurn1ck

Штурман

Пост 18-Дек-2011 10:36 (спустя 20 дней)

[Q] 

Спасибо!
[Профиль]  [ЛС] 

Haron

Шкипер

Пост 08-Янв-2012 12:26 (спустя 21 день)

[Q] 

Автор, респект
[Профиль]  [ЛС] 

AleХ

Морской Волк

Пост 18-Янв-2012 13:47 (спустя 10 дней)

[Q] 

Большое спасибо
[Профиль]  [ЛС] 

Psix

Лоцман

Пост 14-Фев-2012 13:06 (спустя 26 дней)

[Q] 

Большое спасибо!
[Профиль]  [ЛС] 

crazylamer

Штурман

Пост 03-Мар-2012 23:34 (спустя 18 дней)

[Q] 

Большое Спасибо!!!
[Профиль]  [ЛС] 

CycJler

Морской Волк

Пост 08-Мар-2012 19:56 (спустя 4 дня)

[Q] 

как говорится вспомнить всё перед выходом новой части
[Профиль]  [ЛС] 

Gvozdochet

Корсар

Пост 06-Апр-2012 02:17 (спустя 28 дней)

[Q] 

[Профиль]  [ЛС] 

Jigsaw

Пост 23-Июн-2012 22:37 (спустя 2 месяца 17 дней)

[Q] 

старый обитель зла ну ладно посмотрим качество видео звука ну лан спс за раздачу
 

okorm

889

Пост 11-Авг-2012 14:22 (спустя 1 месяц 17 дней)

[Q] 

[Профиль]  [ЛС] 

XAPOH

Гроза морей

Пост 06-Сен-2012 23:16 (спустя 26 дней)

[Q] 

Бочонок прилагается.

_________________

<<<Dolus an virtus quis in hoste requirat?>>>
Intel Core i7 2600, 16Gb Ram, GTX 670, SSD.
PS4.
[Профиль]  [ЛС] 

gall87

Корсар

495

Пост 10-Ноя-2012 22:54 (спустя 2 месяца 3 дня)

[Q] 


_________________
[Профиль]  [ЛС] 

Alex-dix

Флибустьер

Пост 18-Ноя-2012 18:20 (спустя 7 дней)

[Q] 

[Профиль]  [ЛС] 

vovec79

Шкипер

Пост 18-Ноя-2012 19:18 (спустя 58 минут)

[Q] 

[Профиль]  [ЛС] 

eddyApsua

Штурман

Пост 05-Янв-2013 19:44 (спустя 1 месяц 17 дней)

[Q] 

класс
[Профиль]  [ЛС] 

svetla05

Шкипер

Пост 08-Янв-2013 16:12 (спустя 2 дня 20 часов)

[Q] 

Большое Спасибо за раздачу!!!
[Профиль]  [ЛС] 

Fettel

Морской Волк

Пост 29-Апр-2013 18:05 (спустя 3 месяца 21 день)

[Q] 

[Профиль]  [ЛС] 

vodoleii

Шкипер

Пост 25-Май-2013 19:18 (спустя 26 дней)

[Q] 

[Профиль]  [ЛС] 

гришасемечкин

Корсар

1175

Пост 30-Май-2013 18:11 (спустя 4 дня)

[Q] 

СПАСИБО! За раздачу.
[Профиль]  [ЛС] 

kosolapov_dmitry

Лоцман

Пост 15-Июл-2013 08:12 (спустя 1 месяц 15 дней)

[Q] 

Дайте побольше скорости)) Перед отправлением поезда хочу успеть скачать))) спасибо!!!
[Профиль]  [ЛС] 

Dominik

Морской Волк

68

Пост 18-Апр-2014 08:55 (спустя 9 месяцев 3 дня)

[Q] 

Спасибо!!!
Лови бочку

_________________
Раньше удивляло хамство, теперь удивляет вежливость!
[Профиль]  [ЛС] 
Показать сообщения:    
Ответить на тему

Текущее время: Сегодня 08:05

Часовой пояс: GMT + 4



Вы не можете начинать темы
Вы не можете отвечать на сообщения
Вы не можете редактировать свои сообщения
Вы не можете удалять свои сообщения
Вы не можете голосовать в опросах
Вы не можете прикреплять файлы к сообщениям
Вы не можете скачивать файлы

▼ Вниз