ML
     
  Уважаемый Гость!
Вы можете поддержать проект и зарегистрироваться у наших партнеров - онлайн-стратегия MyLands. При регистрации в игре Вы получите код, который сможете активировать после регистрации на pirat.ca и получить 1000 дублонов.

Ваш код:
5af7de75d3db09b6a37bc8bab71b0e87ccde73d6
 
     

Американский пирог 1-7 / American Pie 1-7 (Пол Вайц / PAUL WEITZ) [1999 - 2009 г.г., комедия, DVDRip]

Ответить на тему

Добавить в раздачу еще фильмы (похожие на американский пирог)?

Да   61%  61%  [ 70 ]
Нет   25%  25%  [ 29 ]
И на том спасибо...   12%  12%  [ 14 ]

Всего проголосовало : 113

 
Автор
Сообщение

Пост 17-Ноя-2011 18:17

[Q] 

Aleha6346

Морской Волк

Американский пирог 1-7 / American Pie 1-7
Годы выпуска: 1999 г., 2001 г., 2003 г., 2005 г., 2006 г., 2007 г., 2009 г.
Производство: США, Universal
Жанр: комедия
Продолжительность: 7 x 96 мин
Описание: Американский пирог – больше чем очередная комедия от Голливудских режиссеров. Американский пирог стал настоящей историей комедийного кинематографа. Про него нельзя сказать, что он опередил свое время, но то, что этим фильмом он зацепил сердца многих – это факт. Фильм заинтересовал все поколения людей, старшее поколение негодовало от пошлости и невежества, люди среднего возраста иногда улыбались, но отмечали, что половина юмора не для них, молодые люди смеялись от «американских лузеров», грустили от схожести проблем и замечали сходство с реальной жизнью и, по большому счету, надуманности юношеских проблем. Показ американского пирога на больших экранах кинотеатров собирал полные залы парней и девушек и стал символом своего поколения. Если Вы по какой-то причине не посмотрели этот культовый фильм, то советую Вам обязательно посмотреть его.
Год выпуска: 1999
Производство: США, Universal
Жанр: комедия
Продолжительность: 96 мин
Перевод:Полное дублирование
Режиссер: Пол Вайц, Крис Вайц
В ролях:Джейсон Биггз, Крис Клейн, Томас Йен Николас, Элисон Хэннигэн, Шеннон Элизабет, Тара Рейд, Эдди Кэй Томас, Шонн Уильям Скотт, Юджин Леви, Наташа Лионне, Мена Сувари, Дженнифер Кулидж, Крис Оуэн, Молли Чик, Лоуренс Прессман, Клайд Кусатсу, Кристина Милиан, Вуди Шульц, Casey Erklin, Анника Хэйс ...
Описание: В центре сюжета комедии — четыре выпускника школы, заключившие договор о помощи друг другу в потере девственности и их последующих приключениях. Название ленты происходит от одной из шуток фильма: «третья база» (см. Бейсбол), по словам одного из героев, очень напоминает «тёплый яблочный пирог».
Одно из значений слова «pie» — хаос, ералаш. Так же название — это отсылка к известной поговорке «As American as apple pie», означающей «Настолько же американский, как яблочный пирог», что подчёркивает некоторый национальный колорит во всём происходящем.
Источник/Качество: DVDRip
Видео: AVI, XVID, 688 x 384, 955 kbps, 24 fps, 0.151 Bits/(Pixel*Frame)
Аудио: MP3, LAME, 128 kbps CBR, 48 KHz, stereo (Русский )
Формат : AVI
Формат/Информация : Audio Video Interleave
Размер файла : 747 Мбайт
Продолжительность : 1 ч. 35 м.
Общий поток : 1092 Кбит/сек
Программа кодирования : VirtualDubMod 1.5.10.2 (build 2540/release)
Библиотека кодирования : VirtualDubMod build 2540/release
Видео
Идентификатор : 0
Формат : MPEG-4 Visual
Профиль формата : Advanced [email protected]
Параметр BVOP формата : 1
Параметр QPel формата : Нет
Параметр GMC формата : Без точки перехода
Параметр матрицы формата : Выборочная
Идентификатор кодека : XVID
Идентификатор кодека/Подсказка : XviD
Продолжительность : 1 ч. 35 м.
Битрейт : 955 Кбит/сек
Ширина : 688 пикселей
Высота : 384 пикселя
Соотношение сторон : 16:9
Частота кадров : 24,000 кадра/сек
Цветовое пространство : YUV
Субдискретизация насыщенности : 4:2:0
Битовая глубина : 8 бит
Тип развёртки : Прогрессивная
Метод сжатия : С потерями
Бит/(Пиксели*Кадры) : 0.151
Размер потока : 653 Мбайт (87%)
Библиотека кодирования : XviD 1.2.1 (UTC 2008-12-04)
Аудио
Идентификатор : 1
Формат : MPEG Audio
Версия формата : Version 1
Профиль формата : Layer 3
Идентификатор кодека : 55
Идентификатор кодека/Подсказка : MP3
Продолжительность : 1 ч. 35 м.
Вид битрейта : Постоянный
Битрейт : 128 Кбит/сек
Каналы : 2 канала
Частота : 48,0 КГц
Метод сжатия : С потерями
Размер потока : 87,5 Мбайт (12%)
Выравнивание : Соединение по промежуткам
Продолжительность промежутка : 42 мс. (1,00 видеокадр)
Время предзагрузки промежутка : 504 мс.
Библиотека кодирования : LAME3.98r
Настройки программы : -m s -V 4 -q 2 -lowpass 17 -b 128


Год выпуска: 2001
Производство: США, Universal
Жанр: комедия
Продолжительность: 108 мин
Перевод:Многоголосый, закадровый
Режиссер: Джеймс Роджерс
В ролях:Джейсон Биггз, Шеннон Элизабет, Элисон Хэннигэн, Крис Клейн, Томас Йен Николас, Наташа Лионне, Тара Рейд, Шонн Уильям Скотт, Мена Сувари, Эдди Кэй Томас, Крис Оуэн, Юджин Леви, Молли Чик, Денис Фэй, Лиза Артуро, Джон Чо, Джастин Исфельд, Эли Мариентал, Кэйси Аффлек
Описание: Закончив первый курс в колледже, пятеро друзей — Кевин, Джим, Оз, Финч и Стифлер, решили на летние каникулы арендовать дом на берегу озера Мичиган. Это их первый взрослый отдых, где они смогут заниматься всем чем захотят на протяжении всех каникул! Брат Кевина рассказывает как было здорово в его времена, когда он с друзьями поехал так же на первые свои каникулы. Вдохновленные пятеро друзей мечтают провести свои каникулы не хуже. Ну а какой же отдых без девушек? Джим узнает, что в конце лета его навестит Надя, которая специально приедет в гости к Джиму. Джим сходит с ума от безысходной ситуации, предчувствуя, что снова опозорится! Он вспоминает ту с которой у него был первый секс, Мишель, и решает что она сможет ему помочь! Он отправляется к ней. Весь фильм Мишель учит Джима как правильно обращаться с девушками, обучает всем тонкостям любовных ласк. Вики заметно повзрослела и похорошела, теперь у нее новый парень, Кевину она предлагает остаться просто друзьями. Кевин, несмотря на то, что уже не общается с Вики, ревнует ее… Хезер и Оз испытывают друг к другу настоящие светлые чувства, они хранят верность друг другу на протяжении всего фильма. Финч продолжает грезить о маме Стифлера и на любое оскорбление со стороны Стифлера козыряет этим, чем злит Стифлера. Стифлер охотится за парой лесбиянок, которые проживают в соседнем доме и однажды пробирается в их дом… В конце фильма нас ждет романтическая развязка второго пирога. Джим снова понимает, что секс это не главное. Важно то как ты ощущаешь себя с тем или иным человек, важно как легко ты можешь общаться с одним и как ты будешь притворяться тем, кем ты не являешься с другим! Джим понимает, что Надя… Концовка второго американского пирога, послужила основанием для сценария фильма «Американский пирог: Свадьба». Фильм наполнен типичными, веселыми шутками, аналогичными первому пирогу, в которых друзья попадают в забавные истории из-за их безудержного стремления к сексу. Достойное продолжение первого фильма!
Источник/Качество: DVDRip
Видео: AVI, XVID, 720 x 384, 1378 kbps, 23,976 fps, 0.208 Bits/(Pixel*Frame)
Аудио: AC-3, 384 kbps CBR, 48 KHz, 6 ch (Русский )
Формат : AVI
Формат/Информация : Audio Video Interleave
Размер файла : 1,37 Гбайт
Продолжительность : 1 ч. 50 м.
Общий поток : 1769 Кбит/сек
Программа кодирования : VirtualDubMod 1.5.4.1 (build 2178/release)
Библиотека кодирования : VirtualDubMod build 2178/release
Видео
Идентификатор : 0
Формат : MPEG-4 Visual
Профиль формата : Advanced [email protected]
Параметр BVOP формата : 1
Параметр QPel формата : Нет
Параметр GMC формата : Без точки перехода
Параметр матрицы формата : Выборочная
Идентификатор кодека : XVID
Идентификатор кодека/Подсказка : XviD
Продолжительность : 1 ч. 50 м.
Битрейт : 1378 Кбит/сек
Ширина : 720 пикселей
Высота : 384 пикселя
Соотношение сторон : 1,875
Частота кадров : 23,976 кадра/сек
Цветовое пространство : YUV
Субдискретизация насыщенности : 4:2:0
Битовая глубина : 8 бит
Тип развёртки : Прогрессивная
Метод сжатия : С потерями
Бит/(Пиксели*Кадры) : 0.208
Размер потока : 1,07 Гбайт (78%)
Библиотека кодирования : XviD 1.2.0.dev47 (UTC 2006-11-01)
Аудио
Идентификатор : 1
Формат : AC-3
Формат/Информация : Audio Coding 3
Расширение режима : CM (complete main)
Идентификатор кодека : 2000
Продолжительность : 1 ч. 50 м.
Вид битрейта : Постоянный
Битрейт : 384 Кбит/сек
Каналы : 6 каналов
Расположение каналов : Front: L C R, Side: L R, LFE
Частота : 48,0 КГц
Битовая глубина : 16 бит
Метод сжатия : С потерями
Размер потока : 304 Мбайт (22%)
Выравнивание : Разделение по промежуткам
Продолжительность промежутка : 96 мс. (2,30 видеокадра)
Время предзагрузки промежутка : 96 мс.
Язык : Russian


Год выпуска: 2003
Производство: Германия, США
Жанр: комедия
Продолжительность: 96 мин
Перевод: Полное дублирование
Режиссер: Джесси Дилан
В ролях: Джейсон Биггз, Шонн Уильям Скотт, Элисон Хэннигэн, Эдди Кэй Томас, Томас Иэн Николас, Дженьюэри Джонс, Юджин Леви, Молли Чик, Дебора Раш, Фред Уиллард, Анджела Пэтон, Эрик Аллан Крамер, Аманда Свистен, Никки Шилер Зиринг, Лоуренс Прессман, Antoinette Spolar, Алексис Торпе, Рейнальдо Галлегос, Кейт Хендирксон, Роб Нэгл
Описание: Школа далеко позади, дети превратилась в молодых взрослых, готовых принести еще одну жертву: Джим и Мишелль женятся! Стифлер планирует быть подружкой невесты (!), и, что более важно, быть организатором мальчишника с участием стриптизерш. Финч все еще загоняется по различным ритуалам, но в этот раз он уже не гоняется за мамой Стифлера, а охотится за младшей сестрой Мишелль, Кэденс, являющейся очень сексуальной красоткой. И в это время, как всегда, папа Джима раздает направо-налево никому не нужные советы, которые никто не хочет слышать, тем более во время подготовки к одному из лучших дней жизни его сына...
Источник/Качество: DVDRip
Видео: AVI, XVID, 720 x 304, 1715 kbps, 25 fps, 0. 313 Bits/(Pixel*Frame)
Аудио: AC-3, 384 kbps CBR, 48 KHz, 6 ch (Русский )
Формат : AVI
Формат/Информация : Audio Video Interleave
Размер файла : 1,46 Гбайт
Продолжительность : 1 ч. 39 м.
Общий поток : 2106 Кбит/сек
Программа кодирования : VirtualDubMod 1.5.4.1 (build 2178/release)
Библиотека кодирования : VirtualDubMod build 2178/release
Видео
Идентификатор : 0
Формат : MPEG-4 Visual
Профиль формата : Advanced [email protected]
Параметр BVOP формата : 1
Параметр QPel формата : Нет
Параметр GMC формата : Без точки перехода
Параметр матрицы формата : Выборочная
Идентификатор кодека : XVID
Идентификатор кодека/Подсказка : XviD
Продолжительность : 1 ч. 39 м.
Битрейт : 1715 Кбит/сек
Ширина : 720 пикселей
Высота : 304 пикселя
Соотношение сторон : 2,35:1
Частота кадров : 25,000 кадров/сек
Цветовое пространство : YUV
Субдискретизация насыщенности : 4:2:0
Битовая глубина : 8 бит
Тип развёртки : Прогрессивная
Метод сжатия : С потерями
Бит/(Пиксели*Кадры) : 0.313
Размер потока : 1,19 Гбайт (81%)
Библиотека кодирования : XviD 1.2.0.dev47 (UTC 2006-11-01)
Аудио
Идентификатор : 1
Формат : AC-3
Формат/Информация : Audio Coding 3
Расширение режима : CM (complete main)
Идентификатор кодека : 2000
Продолжительность : 1 ч. 39 м.
Вид битрейта : Постоянный
Битрейт : 384 Кбит/сек
Каналы : 6 каналов
Расположение каналов : Front: L C R, Side: L R, LFE
Частота : 48,0 КГц
Битовая глубина : 16 бит
Метод сжатия : С потерями
Размер потока : 272 Мбайт (18%)
Выравнивание : Разделение по промежуткам
Продолжительность промежутка : 96 мс. (2,40 видеокадра)
Время предзагрузки промежутка : 96 мс.
Язык : Russian


Год выпуска: 2005
Производство: США
Жанр: комедия
Продолжительность: 87 мин
Перевод: Полное дублирование
Режиссер: Майк Эллиот
В ролях: Юджин Леви, Тэд Хилдженбринк, Ариэль Кеббел, Джейсон Ерлс, Кристл Лайтнинг, Джан Хи Ли, Мэтт Барр, Крис Оуэн, Лоурен С. Мэйхью, Анджела Литтл, Рэйчел Велтри, Тимоти Стэк, Джинджер Линн Аллен, Расселл Ховард, Карла Алапонте, Лили Марийе, Мэтт Бэйкер, Dossett March, Джим Джекман, Тара Киллиан
Описание: После вопиющей выходки на выпускном вечере Мэтта Стифлера, младшего брата Стива Стифлера из предыдущих частей Американского пирога, отправляют в летний музыкальный лагерь. Однако неунывающий шалопай и в ссылке знает, как поразвлечься, тем более, что о зажигательных оргиях в лагере он наслышан. Мэтт, которому не дают покоя лавры старшего брата, прославившегося в индустрии кино для взрослых, вооружается арсеналом замаскированных камер, чтобы снять сногсшибательный фильм о сексе, наркотиках и вечеринках - обо всем, что составляет подлинную жизнь внешне благопристойного лагеря. Помимо сложностей, встающих на пути к кино-Олимпу, юному Стифлеру не дает покоя томительное влечение к прелестной Элизе - сексуальной барабанщице местного оркестра. Супер-опасности, чумовые происшествия, несуразные ляпы, умопрачительные приколы в фирменном стиле Американского пирога - он готов преодолеть все ради вожделенного видеоматериала и очаровательной Элизы!
Источник/Качество: DVDRip
Видео: AVI, XVID, 704 x 384, 1461 kbps, 25 fps, 0. 216 Bits/(Pixel*Frame)
Аудио: AC-3, 384 kbps CBR, 48 KHz, 6 ch (Русский )
Аудио2: AC-3, 384 kbps CBR, 48 KHz, 6 ch (Оригинал )
Формат : AVI
Формат/Информация : Audio Video Interleave
Размер файла : 1,37 Гбайт
Продолжительность : 1 ч. 27 м.
Общий поток : 2243 Кбит/сек
Программа кодирования : VirtualDubMod 1.5.10.2 (build 2540/release)
Библиотека кодирования : VirtualDubMod build 2540/release
Правообладатель : DVDRiP (c) 2007 by -= aVitaliy =-
Видео
Идентификатор : 0
Формат : MPEG-4 Visual
Профиль формата : Advanced [email protected]
Параметр BVOP формата : 2
Параметр QPel формата : Нет
Параметр GMC формата : Без точки перехода
Параметр матрицы формата : Default (MPEG)
Режим смешивания : Сжатый битовый поток
Идентификатор кодека : XVID
Идентификатор кодека/Подсказка : XviD
Продолжительность : 1 ч. 27 м.
Битрейт : 1461 Кбит/сек
Ширина : 704 пикселя
Высота : 384 пикселя
Соотношение сторон : 16:9
Частота кадров : 25,000 кадров/сек
Цветовое пространство : YUV
Субдискретизация насыщенности : 4:2:0
Битовая глубина : 8 бит
Тип развёртки : Прогрессивная
Метод сжатия : С потерями
Бит/(Пиксели*Кадры) : 0.216
Размер потока : 912 Мбайт (65%)
Библиотека кодирования : XviD 1.1.2 (UTC 2006-11-01)
Аудио #1
Идентификатор : 1
Формат : AC-3
Формат/Информация : Audio Coding 3
Расширение режима : CM (complete main)
Идентификатор кодека : 2000
Продолжительность : 1 ч. 27 м.
Вид битрейта : Постоянный
Битрейт : 384 Кбит/сек
Каналы : 6 каналов
Расположение каналов : Front: L C R, Side: L R, LFE
Частота : 48,0 КГц
Битовая глубина : 16 бит
Метод сжатия : С потерями
Размер потока : 240 Мбайт (17%)
Выравнивание : Разделение по промежуткам
Продолжительность промежутка : 40 мс. (1,00 видеокадр)
Время предзагрузки промежутка : 500 мс.
Аудио #2
Идентификатор : 2
Формат : AC-3
Формат/Информация : Audio Coding 3
Расширение режима : CM (complete main)
Идентификатор кодека : 2000
Продолжительность : 1 ч. 27 м.
Вид битрейта : Постоянный
Битрейт : 384 Кбит/сек
Каналы : 6 каналов
Расположение каналов : Front: L C R, Side: L R, LFE
Частота : 48,0 КГц
Битовая глубина : 16 бит
Метод сжатия : С потерями
Размер потока : 240 Мбайт (17%)
Выравнивание : Разделение по промежуткам
Продолжительность промежутка : 40 мс. (1,00 видеокадр)
Время предзагрузки промежутка : 500 мс.


Год выпуска: 2006
Производство: США, Канада
Жанр: комедия
Продолжительность: 97 мин
Перевод: Многоголосый, закадровый
Режиссер: Джо Нуссбаум
В ролях: Джо Уайт, Джесси Шрэм, Стив Талли, Кристофер МакДональд, Юджин Леви, Росс Томас, Джэйк Сигел, Джордан Прентис, Мария Рикосса, Кендес Крослак, Мика Уинклер, Жаклин А, Энджел Льюис, Джо Бостик, Джессика Букер, Мишель Кормье, Стефани Секстон, Билли Тернбулл
Описание: Когда Эрик Стифлер осознает, что он единственный из семьи Стифлеров, кто закончит высшую школу девственником, он принимает решение соответствовать уготованному наследию.
После нескольких хороших советов от отца Джима, Эрик готов испытать шанс в ежегодном, пользующемся дурной славой забеге «Голая Миля», в то время как его преданные друзья и несколько самых раскрепощенных девушек колледжа позаботятся о самом скандальном уикенде за всю историю колледжа.
Источник/Качество: DVDRip
Видео: AVI, XVID, 720 x 384, 1854 kbps, 25 fps, 0. 268 Bits/(Pixel*Frame)
Аудио: Mp-3, 320 kbps CBR, 48 KHz, stereo (Русский )
Формат : AVI
Формат/Информация : Audio Video Interleave
Размер файла : 1,49 Гбайт
Продолжительность : 1 ч. 37 м.
Общий поток : 2184 Кбит/сек
Программа кодирования : VirtualDubModRus 1.5.10.2 (build 2540/release)
Библиотека кодирования : VirtualDubMod build 2540/release
Видео
Идентификатор : 0
Формат : MPEG-4 Visual
Профиль формата : Advanced [email protected]
Параметр BVOP формата : 1
Параметр QPel формата : Нет
Параметр GMC формата : Без точки перехода
Параметр матрицы формата : Выборочная
Идентификатор кодека : XVID
Идентификатор кодека/Подсказка : XviD
Продолжительность : 1 ч. 37 м.
Битрейт : 1854 Кбит/сек
Ширина : 720 пикселей
Высота : 384 пикселя
Соотношение сторон : 1,875
Частота кадров : 25,000 кадров/сек
Цветовое пространство : YUV
Субдискретизация насыщенности : 4:2:0
Битовая глубина : 8 бит
Тип развёртки : Прогрессивная
Метод сжатия : С потерями
Бит/(Пиксели*Кадры) : 0.268
Размер потока : 1,26 Гбайт (85%)
Библиотека кодирования : XviD 1.1.2 (UTC 2006-11-01)
Аудио
Идентификатор : 1
Формат : MPEG Audio
Версия формата : Version 1
Профиль формата : Layer 3
Идентификатор кодека : 55
Идентификатор кодека/Подсказка : MP3
Продолжительность : 1 ч. 37 м.
Вид битрейта : Постоянный
Битрейт : 320 Кбит/сек
Каналы : 2 канала
Частота : 48,0 КГц
Метод сжатия : С потерями
Задержка видео : 24 мс.
Размер потока : 223 Мбайт (15%)
Выравнивание : Соединение по промежуткам
Продолжительность промежутка : 40 мс. (1,00 видеокадр)
Время предзагрузки промежутка : 504 мс.
Библиотека кодирования : LAME3.93


Год выпуска: 2007
Производство: США, Канада
Жанр: комедия
Продолжительность: 88 мин
Перевод: Многоголосый, закадровый
Режиссер: Эндрю Уоллес
В ролях: Джо Уайт, Кристофер МакДональд, Джэйк Сигел, Александрия Галанте, Меган Хэфферн, Дэн Петронижевич, Ник Нак, Кристин Барджер, Стив Талли, Италиа Риччи, Мошана Хелберт, Сара Пауэр, Васант Саранга, Джо Эйго, Тайрон Сэвадж
Описание: Новоиспеченные студенты Эрик, Райан и Куз вступают в самое крутое братство на кампусе — Бета Хаус под президентством легендарного Дуайта Стифлера. Но благородному делу дуракаваляния решило помешать вражеское братство зубрил и Бетам приходится вступить в борьбу за право на хороший сабантуйчик.
Источник/Качество: DVDRip
Видео: AVI, XVID, 640 x 352, 1868 kbps, 25 fps, 0. 332 Bits/(Pixel*Frame)
Аудио: AC-3, 384 kbps CBR, 48 KHz, 6 ch (Русский )
Формат : AVI
Формат/Информация : Audio Video Interleave
Размер файла : 1,36 Гбайт
Продолжительность : 1 ч. 26 м.
Общий поток : 2255 Кбит/сек
Программа кодирования : VirtualDubMod 1.5.10.2 (build 2542/release)
Библиотека кодирования : VirtualDubMod build 2542/release
Видео
Идентификатор : 0
Формат : MPEG-4 Visual
Профиль формата : Advanced [email protected]
Параметр BVOP формата : 2
Параметр QPel формата : Нет
Параметр GMC формата : Без точки перехода
Параметр матрицы формата : Default (MPEG)
Режим смешивания : Сжатый битовый поток
Идентификатор кодека : XVID
Идентификатор кодека/Подсказка : XviD
Продолжительность : 1 ч. 26 м.
Битрейт : 1868 Кбит/сек
Ширина : 640 пикселей
Высота : 352 пикселя
Соотношение сторон : 16:9
Частота кадров : 25,000 кадров/сек
Цветовое пространство : YUV
Субдискретизация насыщенности : 4:2:0
Битовая глубина : 8 бит
Тип развёртки : Прогрессивная
Метод сжатия : С потерями
Бит/(Пиксели*Кадры) : 0.332
Размер потока : 1,13 Гбайт (83%)
Библиотека кодирования : XviD 1.2.0.dev47 (UTC 2006-11-01)
Аудио
Идентификатор : 1
Формат : AC-3
Формат/Информация : Audio Coding 3
Расширение режима : CM (complete main)
Идентификатор кодека : 2000
Продолжительность : 1 ч. 25 м.
Вид битрейта : Постоянный
Битрейт : 384 Кбит/сек
Каналы : 6 каналов
Расположение каналов : Front: L C R, Side: L R, LFE
Частота : 48,0 КГц
Битовая глубина : 16 бит
Метод сжатия : С потерями
Размер потока : 234 Мбайт (17%)
Выравнивание : Разделение по промежуткам
Продолжительность промежутка : 41 мс. (1,02 видеокадр)
Время предзагрузки промежутка : 500 мс.


Год выпуска: 2009
Производство: США
Жанр: комедия
Продолжительность: 93 мин
Перевод: Многоголосый, закадровый (Elektri4ka)
Режиссер: Джон Путч
В ролях: Юджин Леви, Баг Холл, Кевин М. Хортон, Brandon Hardesty, Beth Behrs, Мелани Папалиа, Дженнифер Холлэнд, Джон Патрик Джордан, Синди Басби, Наоми Хьюер, Эдриэнн Картер, Кевин Федерлайн, Louisa Lytton, Эдвин Перез, Тэрин Мария, Кэрри Киган, Нико МакЭун, Джесика Дрэйк
Описание: Спустя десять лет после первого американского Пирога, три новых несчастных девственника обнаруживают «Книгу Любви», скрытую в школьной библиотеке. К сожалению для них, книга «разрушена», и в связи с этим Библия Секса принуждает героев отправиться в веселую поездку, где они и потеряют свою девственность.
Источник/Качество: DVDRip
Видео: AVI, XVID, 720 x 400, 1700 kbps, 25 fps, 0. 236 Bits/(Pixel*Frame)
Аудио: AC-3, 384 kbps CBR, 48 KHz, 6 ch (Русский )
Формат : AVI
Формат/Информация : Audio Video Interleave
Размер файла : 1,37 Гбайт
Продолжительность : 1 ч. 33 м.
Общий поток : 2094 Кбит/сек
Название фильма : American Pie Presents: The Book of Love (2009)
Режиссёр : ELEKTRI4KA
Программа кодирования : VirtualDubMod 1.5.4.1 (build 2178/release)
Библиотека кодирования : VirtualDubMod build 2178/release
Правообладатель : http://uniongang.ru/
Видео
Идентификатор : 0
Формат : MPEG-4 Visual
Профиль формата : Advanced [email protected]
Параметр BVOP формата : 3
Параметр QPel формата : Нет
Параметр GMC формата : Без точки перехода
Параметр матрицы формата : Выборочная
Идентификатор кодека : XVID
Идентификатор кодека/Подсказка : XviD
Продолжительность : 1 ч. 33 м.
Битрейт : 1700 Кбит/сек
Ширина : 720 пикселей
Высота : 400 пикселей
Соотношение сторон : 16:9
Частота кадров : 25,000 кадров/сек
Цветовое пространство : YUV
Субдискретизация насыщенности : 4:2:0
Битовая глубина : 8 бит
Тип развёртки : Прогрессивная
Метод сжатия : С потерями
Бит/(Пиксели*Кадры) : 0.236
Размер потока : 1,11 Гбайт (81%)
Заголовок : American Pie Presents: The Book of Love (2009)
Библиотека кодирования : XviD 1.2.1 (UTC 2008-12-04)
Аудио
Идентификатор : 1
Формат : AC-3
Формат/Информация : Audio Coding 3
Расширение режима : CM (complete main)
Идентификатор кодека : 2000
Продолжительность : 1 ч. 33 м.
Вид битрейта : Постоянный
Битрейт : 384 Кбит/сек
Каналы : 6 каналов
Расположение каналов : Front: L C R, Side: L R, LFE
Частота : 48,0 КГц
Битовая глубина : 16 бит
Метод сжатия : С потерями
Размер потока : 257 Мбайт (18%)
Выравнивание : Разделение по промежуткам
Продолжительность промежутка : 40 мс. (1,00 видеокадр)
Время предзагрузки промежутка : 500 мс.


Download / Скачать

Хотите скачать бесплатно? Зарегистрируйтесь на сайте (ссылка на регистрацию). Pirat.ca - самый быстрый торрент трекер в рунете!

Как скачивать  ·   Что такое торрент  ·   Рейтинг и ограничения



Последний раз редактировалось: Aleha6346 (2011-11-17 21:11), всего редактировалось 6 раз(а)

Пост 17-Ноя-2011 22:51 (спустя 4 часа)

Топик был перенесен из форума Художественные фильмы (Зарубежное кино) в форум Зарубежное Кино

Skinwalker
 

artyomka01

Лоцман

Пост 27-Мар-2012 18:03 (спустя 4 месяца 9 дней)

[Q] 

поддайте скорости пожалуйста, не качается нифига...
[Профиль]  [ЛС] 

Castiel

Штурман

Пост 08-Апр-2012 16:31 (спустя 11 дней)

[Q] 

[Профиль]  [ЛС] 

Smail

Корсар

5969

Пост 15-Апр-2012 02:13 (спустя 6 дней)

[Q] 

ay

_________________
[Профиль]  [ЛС] 

Castiel

Штурман

Пост 13-Май-2012 11:24 (спустя 28 дней)

[Q] 

раздача будет или нет?
[Профиль]  [ЛС] 

Castiel

Штурман

Пост 13-Май-2012 11:25 (спустя 1 минута)

[Q] 

даёшь нормальную раздачу!
[Профиль]  [ЛС] 

Jigsaw

Пост 23-Май-2012 06:43 (спустя 9 дней)

[Q] 

 

Tirli

Пост 08-Июн-2012 12:51 (спустя 16 дней)

[Q] 

Я просто обожаю яблочный пирог.
[Профиль]  [ЛС] 

Nightwalker

Гроза морей

Пост 07-Окт-2012 00:52 (спустя 3 месяца 28 дней)

[Q] 

Отлично. Спасибо!

_________________
Хотя и сладостен азарт, по сразу двум идти дорогам, нельзя одной колодой карт, играть и с Дьяволом и Богом.
[Профиль]  [ЛС] 

Bile

4188

Пост 31-Дек-2012 15:40 (спустя 2 месяца 24 дня)

[Q] 

[Профиль]  [ЛС] 

tlife

Штурман

Пост 04-Янв-2013 16:51 (спустя 4 дня)

[Q] 

Ну блин, дайте докачать пожалуйста, пирыыы где же Вы ((((((((((((((((((( давно коллекцию найти хотел :(
[Профиль]  [ЛС] 

tlife

Штурман

Пост 04-Янв-2013 17:55 (спустя 1 час 3 минуты)

[Q] 

ну дайте докачать пожалуйста (((
[Профиль]  [ЛС] 

radiotehnik

Шкипер

Пост 04-Мар-2013 19:19 (спустя 2 месяца)

[Q] 

дайте скорости
[Профиль]  [ЛС] 

Dema18

Лоцман

Пост 15-Май-2013 14:53 (спустя 2 месяца 10 дней)

[Q] 

Пожалуйста встаньте на раздачу,люди добрые!)
[Профиль]  [ЛС] 

Dj NIKI

Флибустьер

3041

Пост 03-Июн-2013 10:38 (спустя 18 дней)

[Q] 

Автору спасибо! Ром в трюме!

_________________
[Профиль]  [ЛС] 

kycboy

Лоцман

Пост 10-Июн-2013 14:19 (спустя 7 дней)

[Q] 

Скорости :(((
[Профиль]  [ЛС] 
Показать сообщения:    
Ответить на тему

Текущее время: Сегодня 14:11

Часовой пояс: GMT + 4



Вы не можете начинать темы
Вы не можете отвечать на сообщения
Вы не можете редактировать свои сообщения
Вы не можете удалять свои сообщения
Вы не можете голосовать в опросах
Вы не можете прикреплять файлы к сообщениям
Вы не можете скачивать файлы

▼ Вниз