ML
     
  Уважаемый Гость!
Вы можете поддержать проект и зарегистрироваться у наших партнеров - онлайн-стратегия MyLands. При регистрации в игре Вы получите код, который сможете активировать после регистрации на pirat.ca и получить 1000 дублонов.

Ваш код:
5af7de75d3db09b6a37bc8bab71b0e87ccde73d6
 
     

Пятница 13 / Friday the 13th (Шон С. Каннингэм / Sean S. Cunningham...) [1980 - 2003 г., ужасы, триллер, детектив] (MVO)

Ответить на тему
 
Автор
Сообщение

Пост 18-Ноя-2011 07:50

[Q] 

stellrat

Шкипер

Пятница 13-ое полная коллекция (11 фильмов) Годы выпуска: 1980, 1981, 1982, 1984, 1985, 1986, 1988, 1989, 1993, 2001, 2003
Производство: США,
Жанр: Ужасы, триллер, фэнтези, мистика
Продолжительность: 16:33:15
Перевод 1: Профессиональный (многоголосый, закадровый) 1, 2, 3, 4, 5, 6, 7, 8, 9, 10 части
Перевод 2: Профессиональный (дублированный) - Фредди против Джейсона
Оригинальный аудиопоток: лежит в отдельной папке
Русские субтитры: нет
Пятница 13-ое / Friday the 13th (1980)
Год выпуска: 1980
Страна: США
Жанр: Ужасы, Триллер
Продолжительность: 01:35:27
Перевод: Профессиональный (многоголосый)
Субтитры: нет
Режиссер: Шон С. Каннингэм /Sean S. Cunningham/
В ролях: Бетси Палмер /Betsy Palmer/, Кевин Бэйкон /Kevin Bacon/, Эдриенн Кинг /Adrienne King/, Хэрри Кросби /Harry Crosby/, Лори Бартрэм /Laurie Bartram/, Марк Нелсон /Mark Nelson/
Описание: Их предупреждали... Их прокляли... В пятницу, 13-ого... их уже ничего не спасет... Уютный лагерь "Хрустальное озеро" открывается! Вожатые ожидают летнюю смену, приготовив для юных гостей увлекательные мероприятия и забавные игры. Но заняты они больше любовью и развлечениями чем детьми. И один из отдыхающих, мальчонка по имени Джейсон тонет в озере. Но Джейсон восстает из мертвых и возвращается в лагерь чтобы начать новую игру. Игру, о которой вожатые еще не знают: она будет пользоваться большой популярностью в этом сезоне. Игра называется - "Убей вожатого!".
Качество: HDRip -- семпл
Формат: AVI
Видео кодек: XviD
Аудио кодек: AC3
Видео: 704x400 (1.76:1), 23.976 fps, XviD build 50 ~1984 kbps avg, 0.29 bit/pixel
Аудио: (рус) 48 kHz, AC3 Dolby Digital, 2/0 (L,R) ch, ~192.00 kbps avg
Audio: (англ.) 48 kHz, AC3 Dolby Digital, 2/0 (L,R) ch, ~192.00 kbps avg (отдельно)
,
Видео
Идентификатор : 0
Формат : MPEG-4 Visual
Профиль формата : Advanced [email protected]
Параметр BVOP формата : 2
Параметр QPel формата : Нет
Параметр GMC формата : Без точки перехода
Параметр матрицы формата : Выборочная
Идентификатор кодека : XVID
Идентификатор кодека/Подсказка : XviD
Продолжительность : 1 ч. 35 м.
Битрейт : 1984 Кбит/сек
Ширина : 704 пикселя
Высота : 400 пикселей
Соотношение сторон : 16:9
Частота кадров : 23,976 кадра/сек
Цветовое пространство : YUV
Субдискретизация насыщенности : 4:2:0
Битовая глубина : 8 бит
Тип развёртки : Прогрессивная
Метод сжатия : С потерями
Бит/(Пиксели*Кадры) : 0.294
Размер потока : 1,32 Гбайт (91%)
Библиотека кодирования : XviD 1.2.1 (UTC 2008-12-04)
Аудио
Идентификатор : 1
Формат : AC-3
Формат/Информация : Audio Coding 3
Расширение режима : CM (complete main)
Идентификатор кодека : 2000
Продолжительность : 1 ч. 35 м.
Вид битрейта : Постоянный
Битрейт : 192 Кбит/сек
Каналы : 2 канала
Расположение каналов : Front: L R
Частота : 48,0 КГц
Битовая глубина : 16 бит
Метод сжатия : С потерями
Размер потока : 131 Мбайт (9%)
Выравнивание : Разделение по промежуткам
Продолжительность промежутка : 42 мс. (1,00 видеокадр)
Время предзагрузки промежутка : 500 мс.
  • В сцене, когда безжизненное тело Бренды влетает в окно дома, в качестве каскадёра снимался сам постановщик спецэффектов Том Савини.
  • Летний лагерь, использовавшийся для съёмок фильма, расположен в Нью-Джерси и называется Camp Nobebosco.
  • Всего в фильме убито 10 человек.



Пятница 13-ое - часть 2 / Friday the 13th Part 2 (1981)
Год выпуска: 1981
Страна: США
Жанр: Ужасы, Триллер
Продолжительность: 01:26:59
Перевод: Профессиональный (многоголосый)
Субтитры: нет
Режиссер: Стив Майнер /Steve Miner/
В ролях: Эми Стил /Amy Steel/, Джон Фьюри /John Furey/, Эдриенн Кинг /Adrienne King/, Керстен Бэйкер /Kirsten Baker/, Бетси Палмер /Betsy Palmer/, Стю Чарно /Stu Charno/
Описание: После дикой кровавой бани, случившейся в «Хрустальном Озере», — лагерь закрыли, а зловещий Джейсон Вурхиз стал жуткой легендой, страшной историей, которую ночами рассказывают у костра.
Но вот, пять лет спустя, в летнем лагере, неподалёку от печально знаменитого «Хрустального озера», компанию беспечных молодых людей ждёт новая, «незабываемая» встреча с Джейсоном. Он страстно хочет поучаствовать в следующем раунде «увлекательной» игры «Убей вожатого!». Для каждой из своих жертв Джейсон приготовил изощрённую и мучительную смерть.
Качество: HDRip -- семпл
Формат: AVI
Видео кодек: XviD
Аудио кодек: AC3
Видео: 704x400 (1.76:1), 23.976 fps, XviD build 50 ~2196 kbps avg, 0.33 bit/pixel
Аудио: (рус) 48 kHz, AC3 Dolby Digital, 2/0 (L,R) ch, ~192.00 kbps avg
Audio: (англ.) 48 kHz, AC3 Dolby Digital, 2/0 (L,R) ch, ~192.00 kbps avg (отдельно)
,
Видео
Идентификатор : 0
Формат : MPEG-4 Visual
Профиль формата : Advanced [email protected]
Параметр BVOP формата : 2
Параметр QPel формата : Нет
Параметр GMC формата : Без точки перехода
Параметр матрицы формата : Выборочная
Идентификатор кодека : XVID
Идентификатор кодека/Подсказка : XviD
Продолжительность : 1 ч. 26 м.
Битрейт : 2197 Кбит/сек
Ширина : 704 пикселя
Высота : 400 пикселей
Соотношение сторон : 16:9
Частота кадров : 23,976 кадра/сек
Цветовое пространство : YUV
Субдискретизация насыщенности : 4:2:0
Битовая глубина : 8 бит
Тип развёртки : Прогрессивная
Метод сжатия : С потерями
Бит/(Пиксели*Кадры) : 0.325
Размер потока : 1,33 Гбайт (92%)
Библиотека кодирования : XviD 1.2.1 (UTC 2008-12-04)
Аудио
Идентификатор : 1
Формат : AC-3
Формат/Информация : Audio Coding 3
Расширение режима : CM (complete main)
Идентификатор кодека : 2000
Продолжительность : 1 ч. 26 м.
Вид битрейта : Постоянный
Битрейт : 192 Кбит/сек
Каналы : 2 канала
Расположение каналов : Front: L R
Частота : 48,0 КГц
Битовая глубина : 16 бит
Метод сжатия : С потерями
Размер потока : 119 Мбайт (8%)
Выравнивание : Разделение по промежуткам
Продолжительность промежутка : 42 мс. (1,00 видеокадр)
Время предзагрузки промежутка : 500 мс.
  • Картина имела самое длинное вступление в истории кино: до титров с именами создателей картины и актеров с начала картины проходит около 12 минут.
  • Убийца в фильме выглядит точь-в-точь, как в картине «Город, который боялся заката» (1976).
  • Для работы над спецэффектами изначально приглашали Тома Савини, работавшего над первой частью «Пятницы», но тот отказался, предпочтя ленту «Сожжение» (The Burning) Тони Мэйлэма. Вместо Савини художником по спецэффектам стал Карл Фуллертон - тот самый, который впоследствии получит премию Сатурн за аналогичную работу в «Молчании ягнят».
  • По опросу американского журнала ужасов «Fangoria» вторая часть «Пятницы, 13-е» была названа худшим фильмом ужасов 1981 года.
  • Со своим мешком на голове Джейсон Вурхис выглядел копией Джона Меррика из «Человека-слона» Дэвида Линча, что явилось дополнительной причиной для негативных критических отзывов.



Пятница 13 - Часть 3 / Friday the 13th Part III (1982)
Год выпуска: 1982
Страна: США
Жанр: Ужасы, Триллер
Продолжительность: 01:35:14
Перевод: Профессиональный (многоголосый)
Субтитры: нет
Режиссер: Стив Майнер /Steve Miner/
В ролях: Дана Киммелл /Dana Kimmell/, Пол Кратка /Paul Kratka/, Ричард Брукер /Richard Brooker/, Ник Сэвэдж /Nick Savage/, Рэйчел Ховард /Rachel Howard/, Ларри Зернер /Larry Zerner/
Описание: Кристальное озеро впору переименовать в кровавое море! Резня продолжается. Джейсон - непобедимый, примеривший в этом фильме хоккейную маску с дырочками для облегчения дыхания, и с тех пор ее не снимающий и не предполагает что спустя каких-то 20 лет ему предстоит сражаться с Фредди Крюгером. Но сейчас это его территория. Он король, а значит ни один подросток не смеет радоваться и оголяться в районе озера без его участия!
Качество: HDRip -- семпл
Формат: AVI
Видео кодек: XviD
Аудио кодек: AC3
Видео: 720x304 (2.37:1), 23.976 fps, XviD build 50 ~1989 kbps avg, 0.38 bit/pixel
Аудио: (рус) 48 kHz, AC3 Dolby Digital, 2/0 (L,R) ch, ~192.00 kbps avg
Audio: (англ.) 48 kHz, AC3 Dolby Digital, 2/0 (L,R) ch, ~192.00 kbps avg (отдельно)
Видео
Идентификатор : 0
Формат : MPEG-4 Visual
Профиль формата : Advanced [email protected]
Параметр BVOP формата : 2
Параметр QPel формата : Нет
Параметр GMC формата : Без точки перехода
Параметр матрицы формата : Выборочная
Идентификатор кодека : XVID
Идентификатор кодека/Подсказка : XviD
Продолжительность : 1 ч. 35 м.
Битрейт : 1989 Кбит/сек
Ширина : 720 пикселей
Высота : 304 пикселя
Соотношение сторон : 2,35:1
Частота кадров : 23,976 кадра/сек
Цветовое пространство : YUV
Субдискретизация насыщенности : 4:2:0
Битовая глубина : 8 бит
Тип развёртки : Прогрессивная
Метод сжатия : С потерями
Бит/(Пиксели*Кадры) : 0.379
Размер потока : 1,32 Гбайт (91%)
Библиотека кодирования : XviD 1.2.1 (UTC 2008-12-04)
Аудио
Идентификатор : 1
Формат : AC-3
Формат/Информация : Audio Coding 3
Расширение режима : CM (complete main)
Идентификатор кодека : 2000
Продолжительность : 1 ч. 35 м.
Вид битрейта : Постоянный
Битрейт : 192 Кбит/сек
Каналы : 2 канала
Расположение каналов : Front: L R
Частота : 48,0 КГц
Битовая глубина : 16 бит
Метод сжатия : С потерями
Размер потока : 131 Мбайт (9%)
Выравнивание : Разделение по промежуткам
Продолжительность промежутка : 42 мс. (1,00 видеокадр)
Время предзагрузки промежутка : 500 мс.

  • Среди всех 3D-фильмов, выпускавшихся в начале 80-х годов, эта лента оказалась наиболее успешной в плане кассовых сборов.

  • В третьей «Пятнице» Джейсон окончательно оформился в плане «прикида» - хоккейная маска, оливкового цвета рубашка и брюки хаки практически не менялись на протяжении следующих семи частей.

  • После третьей серии Джейсон Вурхис появился на книжных прилавках - на этом сценарии были основаны книги сначала Майкла Аваллона (Michael Avallone), а позже и Саймона Хоука (Simon Hawk), который новеллизировал первые четыре части «Пятницы»).



Пятница 13 - Часть 4: Последняя глава / Friday the 13th: The Final Chapter (1984)
Год выпуска: 1984
Страна: США
Жанр: Ужасы, Триллер
Продолжительность: 01:27:33
Перевод: Профессиональный (многоголосый)
Субтитры: нет
Режиссер: Джозеф Зито /Joseph Zito/
В ролях: Криспин Гловер /Crispin Glover/, Кимберли Бек /Kimberley Beck/, Барбара Хауард /Barbara Howard/, Эрих Андерсон /Erich Anderson/, Кори Фелдмэн /Corey Feldman/, Тед Уайт /Ted White/
Описание: На этот раз Джейсон очнулся в темном тесном холодильнике морга и это ему конечно не понравилось. А кому бы понравилось? А тем временем шестеро подростков снимают летний домик в лесу, неподалеку от печально известного озера, в котором и утонул в детстве чертенок Джейсон. Решили значит ребята погудеть, покричать, побегать от маньяка, вернувшегося с того света. Погудели, покричали. От убийцы в хоккейной маске убежали не все...
Качество: HDTVRip -- семпл
Формат: AVI
Видео кодек: XviD
Аудио кодек: AC3
Видео: 704x400 (1.76:1), 25 fps, XviD build 50 ~2181 kbps avg, 0.31 bit/pixel
Аудио: (рус) 48 kHz, AC3 Dolby Digital, 2/0 (L,R) ch, ~192.00 kbps avg
Видео
Идентификатор : 0
Формат : MPEG-4 Visual
Профиль формата : Advanced [email protected]
Параметр BVOP формата : 2
Параметр QPel формата : Нет
Параметр GMC формата : Без точки перехода
Параметр матрицы формата : Выборочная
Идентификатор кодека : XVID
Идентификатор кодека/Подсказка : XviD
Продолжительность : 1 ч. 27 м.
Битрейт : 2182 Кбит/сек
Ширина : 704 пикселя
Высота : 400 пикселей
Соотношение сторон : 16:9
Частота кадров : 25,000 кадров/сек
Цветовое пространство : YUV
Субдискретизация насыщенности : 4:2:0
Битовая глубина : 8 бит
Тип развёртки : Прогрессивная
Метод сжатия : С потерями
Бит/(Пиксели*Кадры) : 0.310
Размер потока : 1,33 Гбайт (92%)
Библиотека кодирования : XviD 1.2.1 (UTC 2008-12-04)
Аудио
Идентификатор : 1
Формат : AC-3
Формат/Информация : Audio Coding 3
Расширение режима : CM (complete main)
Идентификатор кодека : 2000
Продолжительность : 1 ч. 27 м.
Вид битрейта : Постоянный
Битрейт : 192 Кбит/сек
Каналы : 2 канала
Расположение каналов : Front: L R
Частота : 48,0 КГц
Битовая глубина : 16 бит
Метод сжатия : С потерями
Размер потока : 120 Мбайт (8%)
Выравнивание : Разделение по промежуткам
Продолжительность промежутка : 40 мс. (1,00 видеокадр)
Время предзагрузки промежутка : 500 мс.

  • В фильме ровно 13 трупов.

  • Актер Тед Уайт, игравший Джейсона, отказывался общаться с другими актерами на съемочной площадке. По его мнению, это уменьшило бы их страх перед Джейсоном. Кроме этого, он отказался быть упомянутым в титрах, так как первоначально стыдился этой роли, а согласился сыграть ее только за хорошие деньги.
  • Четвёртая «Пятница» стала наиболее успешной частью сериала в коммерческом плане.
    Для работы над «Последней главой» в сериал вернулся Том Савини - оригинальный художник по спецэффектам первой «Пятницы».
  • В первоначальной версии сценария в финале персонаж Кори Фельдмана должен был обезглавить Джейсона, но Тому Савини удалось «отстоять» голову главного «героя», обеспечив тем самым последующие продолжения.
  • Только в четвёртой серии создатели фильма, наконец, раскрыли имя матери Джейсона - до этого персонаж Бетси Палмер упоминался просто как «миссис Вурхис».
  • Первое убийство в этом фильме происходит как раз на 13-ой минуте.



Пятница 13 - Часть 5: Новое начало / Friday the 13th: A New Beginning (1985)
Год выпуска: 1985
Страна: США
Жанр: Ужасы, Триллер
Продолжительность: 01:28:23
Перевод: Профессиональный (многоголосый)
Субтитры: нет
Режиссер: Дэнни Стейнманн /Danny Steinmann/
В ролях: Джон Шепард /John Shepard/, Мелани Киннамэн /Melanie Kinnaman/, Шавар Росс /Shavar Ross/, Ричард Янг /Richard Young/, Кэрол Лакателл /Carol Locatell/, Джульетт Камминз /Juliette Cummins/
Описание: Томми Джарвис - новичок в летнем лагере для трудных умалишенных. Потягавшись в 12-ти летнем возрасте с убийцей в маске в игру в догонялки он до сих пор не пришел в себя. Но и здесь ужас, преследующий его сквозь годы прошедшие со времени памятной ночи из четвертой части, нагнал беглеца. В лагере начинают исчезать ребята и Томми не без основания подозревает, что на том свете нет покоя Джейсону Вурхису, и все начинается заново...
Качество: HDTVRip -- семпл
Формат: AVI
Видео кодек: XviD
Аудио кодек: AC3
Видео: 704x400 (1.76:1), 25 fps, XviD build 50 ~2158 kbps avg, 0.31 bit/pixel
Аудио: (рус.) 48 kHz, AC3 Dolby Digital, 2/0 (L,R) ch, ~192.00 kbps avg
Audio: (англ.) 48 kHz, AC3 Dolby Digital, 2/0 (L,R) ch, ~192.00 kbps avg (отдельно)
Видео
Идентификатор : 0
Формат : MPEG-4 Visual
Профиль формата : Advanced [email protected]
Параметр BVOP формата : 2
Параметр QPel формата : Нет
Параметр GMC формата : Без точки перехода
Параметр матрицы формата : Выборочная
Идентификатор кодека : XVID
Идентификатор кодека/Подсказка : XviD
Продолжительность : 1 ч. 28 м.
Битрейт : 2159 Кбит/сек
Ширина : 704 пикселя
Высота : 400 пикселей
Соотношение сторон : 16:9
Частота кадров : 25,000 кадров/сек
Цветовое пространство : YUV
Субдискретизация насыщенности : 4:2:0
Битовая глубина : 8 бит
Тип развёртки : Прогрессивная
Метод сжатия : С потерями
Бит/(Пиксели*Кадры) : 0.307
Размер потока : 1,33 Гбайт (91%)
Библиотека кодирования : XviD 1.2.1 (UTC 2008-12-04)
Аудио
Идентификатор : 1
Формат : AC-3
Формат/Информация : Audio Coding 3
Расширение режима : CM (complete main)
Идентификатор кодека : 2000
Продолжительность : 1 ч. 28 м.
Вид битрейта : Постоянный
Битрейт : 192 Кбит/сек
Каналы : 2 канала
Расположение каналов : Front: L R
Частота : 48,0 КГц
Битовая глубина : 16 бит
Метод сжатия : С потерями
Задержка видео : 800 мс.
Размер потока : 121 Мбайт (8%)
Выравнивание : Разделение по промежуткам
Продолжительность промежутка : 40 мс. (1,00 видеокадр)
Время предзагрузки промежутка : 500 мс.
  • Актрису, игравшую роль Тины, зовут Дэби Сью Вурхис (Debi Sue Voorhees). Пока это единственный случай, когда у Джейсона на съёмочной площадке появился «однофамилец».



Пятница 13 - Часть 6: Джейсон жив! / Jason Lives: Friday the 13th Part VI (1986)
Год выпуска: 1986
Страна: США
Жанр: Ужасы, Триллер
Продолжительность: 01:23:00
Перевод: Профессиональный (многоголосый)
Субтитры: нет
Режиссер: Том МакЛафлин /Tom McLoughlin/
В ролях: Том Мэтьюз /Thom Mathews/, Дженнифер Кук /Jennifer Cook/, Дэвид Кэйгэн /David Kagen/, Рене Джонс /Renee Jones/, Керри Нунэн /Kerry Noonan/, Си Джей Грэхэм /C.J. Graham/
Описание: Пара недоумков раскопали могилу Джейсона, потревожив и разозлив его не на шутку. Жуткий убийца вновь восстал из могилы... На счастье Джейсона летний лагерь Форест Грин вовсе не пустует. Толпы проказников-бойскаутов уже наводнили лагерные корпуса, отовсюду слышатся веселые детские крики. Начать пришлось с вожатых, которые так и норовили встать на пути у Джейсона...
Качество:HDTVRip -- семпл
Формат: AVI
Видео кодек: XviD
Аудио кодек: AC3
Видео: 704x400 (1.76:1), 25 fps, XviD build 50 ~2310 kbps avg, 0.33 bit/pixel
Аудио: (англ.) 48 kHz, AC3 Dolby Digital, 2/0 (L,R) ch, ~192.00 kbps avg
Audio: (англ.) 48 kHz, AC3 Dolby Digital, 2/0 (L,R) ch, ~192.00 kbps avg (отдельно)
Видео
Идентификатор : 0
Формат : MPEG-4 Visual
Профиль формата : Advanced [email protected]
Параметр BVOP формата : 2
Параметр QPel формата : Нет
Параметр GMC формата : Без точки перехода
Параметр матрицы формата : Выборочная
Идентификатор кодека : XVID
Идентификатор кодека/Подсказка : XviD
Продолжительность : 1 ч. 23 м.
Битрейт : 2311 Кбит/сек
Ширина : 704 пикселя
Высота : 400 пикселей
Соотношение сторон : 16:9
Частота кадров : 25,000 кадров/сек
Цветовое пространство : YUV
Субдискретизация насыщенности : 4:2:0
Битовая глубина : 8 бит
Тип развёртки : Прогрессивная
Метод сжатия : С потерями
Бит/(Пиксели*Кадры) : 0.328
Размер потока : 1,34 Гбайт (92%)
Библиотека кодирования : XviD 1.2.1 (UTC 2008-12-04)
Аудио
Идентификатор : 1
Формат : AC-3
Формат/Информация : Audio Coding 3
Расширение режима : CM (complete main)
Идентификатор кодека : 2000
Продолжительность : 1 ч. 23 м.
Вид битрейта : Постоянный
Битрейт : 192 Кбит/сек
Каналы : 2 канала
Расположение каналов : Front: L R
Частота : 48,0 КГц
Битовая глубина : 16 бит
Метод сжатия : С потерями
Размер потока : 114 Мбайт (8%)
Выравнивание : Разделение по промежуткам
Продолжительность промежутка : 40 мс. (1,00 видеокадр)
Время предзагрузки промежутка : 500 мс.

  • Три песни для фильма написал Элис Купер: «Teenage Frankenstein», «Hard Rock Summer» и «Man Behind The Mask».
  • В картине насчитывается всего восемнадцать трупов.
  • Начальные титры шестой «Пятницы» стилизованы под начальные титры ранних фильмов о Джеймсе Бонде.
  • Си Джей Грэхем, игравший Джейсона, был не актёром, а менеджером ночного клуба, где он и был случайно замечен кем-то из съёмочной группы и приглашён на роль Вурхиса. Фильм стал для него актёрским дебютом.
  • В первичном варианте сценария имелась сцена с отцом Джейсона, навещающим могилы жены и сына. В фильм этот поворот сюжета не вошёл, зато появился в «книжном» варианте сериала.
  • По сценарию городской совет переименовал озеро и лагерь Crystal Lake в Forest Green, но создатели последующих фильмов упорно игнорировали этот факт и возвращали и озеру, и лагерю «оригинальное» название.
  • Магазин, от которого Томми звонит Меган называется Karloff's General Store - так создатели фильма выразили своё уважение легендарному актёру жанра ужаса и триллера Борису Карлоффу.



Пятница 13 - Часть 7: Новая кровь / Friday the 13th Part VII: The New Blood (1988) Год выпуска: 1988
Страна: США
Жанр: Ужасы, Триллер
Продолжительность: 01:24:36
Перевод: Профессиональный (многоголосый)
Субтитры: нет
Режиссер: Джон Карл Бюхлер /John Carl Buechler/
В ролях: Кэйн Ходдер /Kane Hodder/, Лар Парк Линколн /Lar Park Lincoln/, Кевин Блэр /Kevin Blair/, Терри Кайзер /Terry Kiser/, Сьюзэн Блу /Susan Blu/, Сьюзэн Дженнифер Салливэн /Susan Jennifer Sullivan/
Описание: Джейсон Вурхиз - не совсем обычный убийца... На его счету сотни невинных жертв, но отправить на тот свет его самого - практически невозможно. Одному из счастливчиков удалось приковать Джейсона на дне Хрустального озера, где он и скучал в одиночестве... Тина Шеперд - не совсем обычная девушка. Она может предвидеть будущее и передвигать предметы на расстоянии. Ее непредсказуемый дар освободил Джейсона из его подводной тюрьмы, и кошмар начинается снова...
Качество:HDTVRip -- семпл
Формат: AVI
Видео кодек: XviD
Аудио кодек: AC3
Видео: 704x400 (1.76:1), 25 fps, XviD build 50 ~2009 kbps avg, 0.29 bit/pixel
Аудио:(рус.) 48 kHz, AC3 Dolby Digital, 3/2 (L,C,R,l,r) + LFE ch, ~448.00 kbps avg
Audio: (англ.) 48 kHz, AC3 Dolby Digital, 2/0 (L,R) ch, ~192.00 kbps avg (отдельно)
Видео
Идентификатор : 0
Формат : MPEG-4 Visual
Профиль формата : Advanced [email protected]
Параметр BVOP формата : 2
Параметр QPel формата : Нет
Параметр GMC формата : Без точки перехода
Параметр матрицы формата : Выборочная
Идентификатор кодека : XVID
Идентификатор кодека/Подсказка : XviD
Продолжительность : 1 ч. 24 м.
Битрейт : 2010 Кбит/сек
Ширина : 704 пикселя
Высота : 400 пикселей
Соотношение сторон : 16:9
Частота кадров : 25,000 кадров/сек
Цветовое пространство : YUV
Субдискретизация насыщенности : 4:2:0
Битовая глубина : 8 бит
Тип развёртки : Прогрессивная
Метод сжатия : С потерями
Бит/(Пиксели*Кадры) : 0.285
Размер потока : 1,19 Гбайт (81%)
Библиотека кодирования : XviD 1.2.1 (UTC 2008-12-04)
Аудио
Идентификатор : 1
Формат : AC-3
Формат/Информация : Audio Coding 3
Расширение режима : CM (complete main)
Идентификатор кодека : 2000
Продолжительность : 1 ч. 24 м.
Вид битрейта : Постоянный
Битрейт : 448 Кбит/сек
Каналы : 6 каналов
Расположение каналов : Front: L C R, Side: L R, LFE
Частота : 48,0 КГц
Битовая глубина : 16 бит
Метод сжатия : С потерями
Размер потока : 271 Мбайт (18%)
Выравнивание : Разделение по промежуткам
Продолжительность промежутка : 40 мс. (1,00 видеокадр)
Время предзагрузки промежутка : 500 мс.

  • Это первый фильм, в котором в главной роли появился актёр и каскадёр Кэйн Ходдер, впоследствии сыгравший Джейсона ещё в трёх сериях.
  • Рабочими названиями картины были «Jason`s Last Rites» и «Birthday Bash» (последнее подразумевает «несчастливый» день рождения одного из персонажей).
  • В образе пожарного, который в конце фильма поднимает с земли обломки маски Джейсона, засветился сам режиссёр Джон Карл Бюхлер.
  • В итоговый вариант фильма не вошла сцена, в которой Джейсон в финале утаскивает под воду случайного рыбака. Этот момент забраковали за схожесть с аналогичной сценой в финале первой «Пятницы».



Год выпуска: 1989
Страна: США
Жанр: Ужасы, Триллер
Продолжительность: 01:36:16
Перевод: Профессиональный (многоголосый)
Субтитры: нет
Режиссер: Роб Хедден /Rob Hedden/
В ролях: Дженсен Даггетт /Jensen Duggett/, Кэйн Ходдер /Kane Hodder/, Питер Марк Ричмэн /Peter Mark Richman/, Скотт Ривз /Scott Reeves/, Барбара Бингэм /Barbara Bingham/, В. К. Дюпре /V. C. Dupree/
Описание: Веселой компанией, закончив школу, девчонки и мальчишки отправились на корабле на увеселительную прогулку в Нью-Йорк. На их беду незакрепленным якорем расковыряло прикованного к своей подводной могиле Джейсона, и тот превратил их праздник в ужасный кошмар. Убив большую часть народа, он отправился за теми, кому удалось спастись на шлюпке. И вновь начинается беготня да суета, на сей раз по ночным закоулкам Нью-Йорка...
Качество: HDTVRip -- семпл
Формат: AVI
Видео кодек: XviD
Аудио кодек: AC3
Видео: 704x400 (1.76:1), 25 fps, XviD build 50 ~1966 kbps avg, 0.28 bit/pixel
Аудио: (рус.) 48 kHz, AC3 Dolby Digital, 2/0 (L,R) ch, ~192.00 kbps avg
Audio: (англ.) 48 kHz, AC3 Dolby Digital, 2/0 (L,R) ch, ~192.00 kbps avg (отдельно)
Видео
Идентификатор : 0
Формат : MPEG-4 Visual
Профиль формата : Advanced [email protected]
Параметр BVOP формата : 2
Параметр QPel формата : Нет
Параметр GMC формата : Без точки перехода
Параметр матрицы формата : Выборочная
Идентификатор кодека : XVID
Идентификатор кодека/Подсказка : XviD
Продолжительность : 1 ч. 36 м.
Битрейт : 1967 Кбит/сек
Ширина : 704 пикселя
Высота : 400 пикселей
Соотношение сторон : 16:9
Частота кадров : 25,000 кадров/сек
Цветовое пространство : YUV
Субдискретизация насыщенности : 4:2:0
Битовая глубина : 8 бит
Тип развёртки : Прогрессивная
Метод сжатия : С потерями
Бит/(Пиксели*Кадры) : 0.279
Размер потока : 1,32 Гбайт (91%)
Библиотека кодирования : XviD 1.2.1 (UTC 2008-12-04)
Аудио
Идентификатор : 1
Формат : AC-3
Формат/Информация : Audio Coding 3
Расширение режима : CM (complete main)
Идентификатор кодека : 2000
Продолжительность : 1 ч. 36 м.
Вид битрейта : Постоянный
Битрейт : 192 Кбит/сек
Каналы : 2 канала
Расположение каналов : Front: L R
Частота : 48,0 КГц
Битовая глубина : 16 бит
Метод сжатия : С потерями
Размер потока : 132 Мбайт (9%)
Выравнивание : Разделение по промежуткам
Продолжительность промежутка : 40 мс. (1,00 видеокадр)
Время предзагрузки промежутка : 500 мс.

  • Съёмки картины проходили в Ванкувере.
  • У режиссёра и автора сценария Роба Хеддена изначально было две разных идеи для фильма - «Джейсон на корабле» или «Джейсон в большом городе». Компания Paramount предложила ему не выбирать, а просто объединить их в одно целое.
  • Актриса Дженсен Даггетт, игравшая Ренни, позднее проходила кастинг в один из фильмов Оливера Стоуна. Просмотрев её резюме, Стоун переспросил: «Вы действительно снимались в «Пятнице, 13-е?» после чего в роли ей было отказано.
  • В эпизодах с маленьким Джейсоном снимали сына Стивена Джея Мирковича - монтажёра фильма.
  • Восьмая «Пятница» - единственная часть сериала, музыку для которой писал не Гарри Манфредини, а Фред Муллен («фирменный» мотивчик Джейсона звучит только в финальных титрах).
  • Первоначальный вариант постера изображал Джейсона, который пропарывал своим мачете плакат с надписью «I LOVE NEW YORK». Однако нью-йоркский комитет по туризму воспротивился, и этот проект был отвергнут.
  • В коммерческом отношении фильм стал наименее успешной частью саги.
  • Элизабет Бёркли и Диди Пфайфер пробовались на роль Ренни.



Джейсон отправляется в ад: Последняя пятница / Jason Goes to Hell: The Final Friday (1993) Год выпуска: 1993
Страна: США
Жанр: Ужасы, Триллер
Продолжительность: 01:30:43
Перевод: Профессиональный (двухголосый) + одноголосый (вставки) * отсюда
* В местах вырезанных в ТВ-версии вставки из одноголоски (Юрий Живов)
Субтитры: нет
Режиссер: Эдам Маркус /Adam Marcus/
В ролях: Джон Д. Ле Мэй /Jon D. Le May/, Кэри Киган /Kari Keegan/, Эллисон Смит, Стивен Калп /Steven Culp/, Билли "Грин" Буш /Billy "Green" Bush/, Эрин Грэй /Erin Gray/, Стивен Уильямс /Steven Williams/
Описание: Убийца-зомби Джейсон Ворхес разнесен на куски боевиками из ФБР. Используя тела своих новых жертв, он выбирается из анатомички и спешит домой, на Хрустальное озеро, чтобы вновь возродится в прежнем облике. Напряженное действие, горы трупов, моря крови - словом, все то, за что мы любим этот сериал!
Качество: DVDRip -- семпл
Формат: AVI
Видео кодек: XviD
Аудио кодек: AC3
Видео: 704x384 (1.83:1), 23.976 fps, XviD build 56 ~2156 kbps avg, 0.33 bit/pixel
Аудио: (рус) 48 kHz, MPEG Layer 3, 2 ch, ~128.00 kbps avg
Audio: (англ.) 48 kHz, AC3 Dolby Digital, 2/0 (L,R) ch, ~192.00 kbps avg (отдельно)
Видео
Идентификатор : 0
Формат : MPEG-4 Visual
Профиль формата : Advanced [email protected]
Параметр BVOP формата : 2
Параметр QPel формата : Нет
Параметр GMC формата : Без точки перехода
Параметр матрицы формата : Выборочная
Идентификатор кодека : XVID
Идентификатор кодека/Подсказка : XviD
Продолжительность : 1 ч. 30 м.
Битрейт : 2157 Кбит/сек
Ширина : 704 пикселя
Высота : 384 пикселя
Соотношение сторон : 16:9
Частота кадров : 23,976 кадра/сек
Цветовое пространство : YUV
Субдискретизация насыщенности : 4:2:0
Битовая глубина : 8 бит
Тип развёртки : Прогрессивная
Метод сжатия : С потерями
Бит/(Пиксели*Кадры) : 0.333
Размер потока : 1,37 Гбайт (94%)
Библиотека кодирования : XviD 56
Аудио
Идентификатор : 1
Формат : MPEG Audio
Версия формата : Version 1
Профиль формата : Layer 3
Режим : Joint stereo
Расширение режима : MS Stereo
Идентификатор кодека : 55
Идентификатор кодека/Подсказка : MP3
Продолжительность : 1 ч. 30 м.
Вид битрейта : Постоянный
Битрейт : 128 Кбит/сек
Каналы : 2 канала
Частота : 48,0 КГц
Метод сжатия : С потерями
Размер потока : 83,1 Мбайт (6%)
Выравнивание : Соединение по промежуткам
Продолжительность промежутка : 42 мс. (1,00 видеокадр)
Время предзагрузки промежутка : 504 мс.

  • Всего в девяти картинах погиб 141 человек.
  • Бетси Палмер (матери Джейсона) предложили в этой картине небольшую роль, но она отказалась.
  • Спустя тринадцать лет к созданию картины приложил руку основатель сериала Шон Каннингэм.
  • В оригинале сценария в качестве убийцы фигурировал брат Джейсона - Элайес. Эта сюжетная линия была забракована, но имя Элайес было присвоено отцу Джейсона.
  • Дата премьеры фильма (пятница 13-ого августа 1993 года) была выбрана не случайно - в тот день исполнялось ровно 13 лет с момента выхода на экран первой части эпопеи.
  • В первый же уик-энд картина вышла на второе место по кассовым сборам (уступив только «Восходящему солнцу» с Шоном Коннери). В итоге фильм стал самым кассовым американским фильмом ужасов 1993 года.
  • Режиссёр фильма Адам Маркус в 12-летнем возрасте работал «на побегушках» у Шона Каннингэма на съёмках самой первой «Пятницы, 13-е».



Год выпуска: 2001
Страна: США
Жанр: ужасы, фантастика
Продолжительность: 01:27:49
Перевод: Профессиональный (многоголосый, закадровый)
Русские субтитры: нет
Режиссер: Джеймс Исаак/James Isaac
В ролях: Кейн Ходдер /Kane Hodder/, Лекса Дойг /Lexa Doig/, Лиза Райдер /Lisa Ryder/, Чак Кемпбелл /Chuck Campbell/, Джонатан Поттс /Jonathan Potts/, Питер Мэнса /Peter Mensah/
Описание: Если вам не хватает ужаса - значит, вы нашли то, надо. В далеком 2455 году человечество прекратило свое существование на Земле. Небольшие колонии представителей человеческой расы колесят по бескрайним космическим просторам. Одна из экспедиций находит на опустевшей Земле два замороженных с помощью криогенна трупа, один из которых оказывается, кем бы вы думали?.. Джейсоном Вурхисом, убившим более 200 людей в предыдущих фильмах знаменитой киноэпопеи "Пятница 13-ое". И теперь легендарный маньяк Хрустального Озера осваивает новое пространство, пополняя свой кровавый список новыми жертвами. "Джейсон Х" - напряженный фильм ужасов, наполненный зрелищными спецэффектами, супероружием и новыми изощренными способами убийства.
Обрадованная своей находкой команда забирает тела с собой. Одно их тел принадлежит серийному убийце Джейсону Вурхису. Студенты не подозревают, с какой смертельной опасностью им предстоит столкнуться, хотя дальнейшее развитие событий не трудно предугадать. Джейсон самостоятельно реанимируется прямо на корабле и, быстро расправившись с небольшим отрядом спецназа, начинает охоту на студентов…
Качество: DVDRip -- семпл
Формат: AVI
Видео кодек: XviD
Аудио кодек: AC3
Видео: 704x384 (1.83:1), 25 fps, XviD build 56 ~1914 kbps avg, 0.28 bit/pixel
Аудио: (рус) 48 kHz, AC3 Dolby Digital, 3/2 (L,C,R,l,r) + LFE ch, ~448.00 kbps avg
Audio: (англ.) 48 kHz, AC3 Dolby Digital, 2/0 (L,R) ch, ~192.00 kbps avg (отдельно)
Видео
Идентификатор : 0
Формат : MPEG-4 Visual
Профиль формата : Advanced [email protected]
Параметр BVOP формата : 2
Параметр QPel формата : Нет
Параметр GMC формата : Без точки перехода
Параметр матрицы формата : Выборочная
Идентификатор кодека : XVID
Идентификатор кодека/Подсказка : XviD
Продолжительность : 1 ч. 27 м.
Битрейт : 1915 Кбит/сек
Ширина : 704 пикселя
Высота : 384 пикселя
Соотношение сторон : 16:9
Частота кадров : 25,000 кадров/сек
Цветовое пространство : YUV
Субдискретизация насыщенности : 4:2:0
Битовая глубина : 8 бит
Тип развёртки : Прогрессивная
Метод сжатия : С потерями
Бит/(Пиксели*Кадры) : 0.283
Размер потока : 1,17 Гбайт (81%)
Библиотека кодирования : XviD 56
Аудио
Идентификатор : 1
Формат : AC-3
Формат/Информация : Audio Coding 3
Расширение режима : CM (complete main)
Идентификатор кодека : 2000
Продолжительность : 1 ч. 27 м.
Вид битрейта : Постоянный
Битрейт : 448 Кбит/сек
Каналы : 6 каналов
Расположение каналов : Front: L C R, Side: L R, LFE
Частота : 48,0 КГц
Битовая глубина : 16 бит
Метод сжатия : С потерями
Размер потока : 281 Мбайт (19%)
Выравнивание : Разделение по промежуткам
Продолжительность промежутка : 40 мс. (1,00 видеокадр)
Время предзагрузки промежутка : 500 мс.

  • В маленькой роли снялся Дэвид Кроненберг.
  • С Бетси Палмер велись переговоры на роль миссис Вурхис, но она отказалась.
  • Съёмки фильма проходили в период с 6 марта по 30 апреля 2000 года.



Фредди против Джейсона / Freddy vs. Jason (2003)

Внимание! Freddy vs. Jason, так же включен в сборник Крюгера

Год: 2003
Страна: США, Канада, Италия
Жанр: ужасы, боевик, триллер
Продолжительность: 01:37:15
Перевод: Профессиональный (полное дублирование)
Русские субтитры: есть
Режиссер: Ронни Ю / Ronny Yu
В ролях: Роберт Инглунд, Кен Кирзингер, Моника Кина, Джейсон Риттер, Келли Роулэнд, Крис Маркетт, Брендан Флетчер, Кэтрин Изабелль, Локлин Манро, Кайл Лэбин и другие
Описание: Фредди Крюгер доведен до отчаяния: он больше не может убивать. Лишь используя неуклюжего серийного убийцу Джейсона Вурхиса, Фредди удается истреблять детей с улицы Вязов. Но когда Джейсон начинает понимать, что им попросту манипулируют, планы Фредди готовы рухнуть.
Теперь дело за тинейджерами Уиллом, Лори и Кией. Каким-то образом им надо заставить Джейсона раз и навсегда убить Фредди Крюгера.
Качество: HDRip -- семпл
Формат: AVI
Видео кодек: XviD
Аудио кодек: AC3
Видео: 720x304 (2.37:1), 23.976 fps, XviD build 56 ~1493 kbps avg, 0.28 bit/pixel
Аудио: (русск.) 48 kHz, AC3 Dolby Digital, 3/2 (L,C,R,l,r) + LFE ch, ~448.00 kbps avg
Audio: (англ.) 48 kHz, AC3 Dolby Digital, 2/0 (L,R) ch, ~192.00 kbps avg
,
Видео
Идентификатор : 0
Формат : MPEG-4 Visual
Профиль формата : Advanced [email protected]
Параметр BVOP формата : 2
Параметр QPel формата : Нет
Параметр GMC формата : Без точки перехода
Параметр матрицы формата : Выборочная
Идентификатор кодека : XVID
Идентификатор кодека/Подсказка : XviD
Продолжительность : 1 ч. 37 м.
Битрейт : 1494 Кбит/сек
Ширина : 720 пикселей
Высота : 304 пикселя
Соотношение сторон : 2,35:1
Частота кадров : 23,976 кадра/сек
Цветовое пространство : YUV
Субдискретизация насыщенности : 4:2:0
Битовая глубина : 8 бит
Тип развёртки : Прогрессивная
Метод сжатия : С потерями
Бит/(Пиксели*Кадры) : 0.285
Размер потока : 1,02 Гбайт (70%)
Библиотека кодирования : XviD 56
Аудио #1
Идентификатор : 1
Формат : AC-3
Формат/Информация : Audio Coding 3
Расширение режима : CM (complete main)
Идентификатор кодека : 2000
Продолжительность : 1 ч. 37 м.
Вид битрейта : Постоянный
Битрейт : 448 Кбит/сек
Каналы : 6 каналов
Расположение каналов : Front: L C R, Side: L R, LFE
Частота : 48,0 КГц
Битовая глубина : 16 бит
Метод сжатия : С потерями
Задержка видео : 1 с. 993 мс.
Размер потока : 312 Мбайт (21%)
Выравнивание : Разделение по промежуткам
Продолжительность промежутка : 42 мс. (1,00 видеокадр)
Время предзагрузки промежутка : 500 мс.
Аудио #2
Идентификатор : 2
Формат : AC-3
Формат/Информация : Audio Coding 3
Расширение режима : CM (complete main)
Идентификатор кодека : 2000
Продолжительность : 1 ч. 37 м.
Вид битрейта : Постоянный
Битрейт : 192 Кбит/сек
Каналы : 2 канала
Расположение каналов : Front: L R
Частота : 48,0 КГц
Битовая глубина : 16 бит
Метод сжатия : С потерями
Размер потока : 134 Мбайт (9%)
Выравнивание : Разделение по промежуткам
Продолжительность промежутка : 42 мс. (1,00 видеокадр)
Время предзагрузки промежутка : 500 мс.

  • Кейн Ходдер хотел сыграть Джейсона, как это он делал в предыдущих четырёх сериях, но его кандидатуру отклонили.
  • Ронни Ю не хотел браться за работу, так как в сценарии не указывалось, кто вышел победителем. Он согласился только тогда, когда Роберт Шэй предложил ему самому выбрать маньяка, оставшегося в живых.
  • Первая попытка студии «New Line Cinema» сделать этот фильм была предпринята еще в 1987 году.
  • Герой Блейк назван в честь создателя сайта о сериале «Пятница, 13» Блейка Уошера.
  • Это первый фильм о Фредди, снятый не в Соединённых Штатах. Так что создателям пришлось искать дом, похожий на дом Фредди из первых семи серий.
  • Во время съёмок картины Кирзингер постоянно посещал дантиста, так как у него были проблемы с зубами. Но на снятие грима уходило очень много времени. Так что однажды актёр приехал в клинику в гриме Джейсона, но без маски.
  • По словам Кирзингера, самая сложная сцена фильма, когда Джейсон тонет в озере — сцена снималась в специальном бассейне. Вода в нём была очень хлорирована, чтобы больше походила на воду в озере. Ронни Ю хотел снять Джейсона крупным планом, тонущим с открытыми глазами. Попавшая в глаза хлорка вызывала раздражение и резкую боль. При этом актёр уходил на дно, задержав дыхание.
  • В этом фильме кровь Фредди и Джейсона красная и во сне и в реальности. Во всех предыдущих фильмах кровь Фредди была зелёного цвета, а кровь Джейсона — чёрного.
  • Бетси Палмер, постоянна исполнительница роли Памелы Вурхис в сериале, отказалась от съёмок в фильме из-за низкой зарплаты.
  • Во время тестовых и предпоказов зрителям не показывали концовку картины. Вместо неё на экране появлялась надпись '15 августа 2003 посмотрите последние 60 секунд, и узнайте, кто выжил... и что от него осталось'. Это прямая отсылка к слогану оригинальной «Техасской резни бензопилой»: «Кто выживет, и что от него останется?»
  • Робу Зомби предлагали занять режиссерское кресло, однако он отказался, так как был занят съемками картины «Дом 1000 трупов».



Размер каждого из файлов 1.46 GB -- все совместимы с бытовыми плеерами. Оригинальные звуковые дорожки лежат в отдельной папке, качаются при желании
Внимание! Freddy vs. Jason, так же включен в сборник Крюгера
Download / Скачать

Хотите скачать бесплатно? Зарегистрируйтесь на сайте (ссылка на регистрацию). Pirat.ca - самый быстрый торрент трекер в рунете!

Как скачивать  ·   Что такое торрент  ·   Рейтинг и ограничения



Последний раз редактировалось: stellrat (2011-11-19 13:57), всего редактировалось 5 раз(а)

Пост 18-Ноя-2011 08:55 (спустя 1 час 4 минуты)

Топик был перенесен из форума Художественные фильмы (Зарубежное кино) в форум Зарубежное Кино

Skinwalker
 

ghostgray

Лоцман

Пост 13-Дек-2011 13:20 (спустя 25 дней)

[Q] 

встаньте на раздачу плз
[Профиль]  [ЛС] 

jism

Корсар

103

Пост 21-Фев-2012 01:15 (спустя 2 месяца 7 дней)

[Q] 

помогу с раздачей

_________________
- SenileDementia production -
[Профиль]  [ЛС] 

stellrat ®

Шкипер

62

Пост 08-Апр-2012 01:58 (спустя 1 месяц 16 дней)

[Q] 

народ!!! не уходите с раздачи

_________________
[Профиль]  [ЛС] 

SBalykov

Корсар

1452

Пост 17-Июн-2012 07:05 (спустя 2 месяца 9 дней)

[Q] 

Ностальгия...
А смотрится как комедия...

_________________
Never put off till tomorrow what can be done after tomorrow...
S.Balykov
[Профиль]  [ЛС] 

Ilyaacab

Лоцман

Пост 09-Ноя-2012 20:21 (спустя 4 месяца 22 дня)

[Q] 

скорости ноль(((
[Профиль]  [ЛС] 

eddyApsua

Штурман

Пост 05-Янв-2013 19:45 (спустя 1 месяц 25 дней)

[Q] 

[Профиль]  [ЛС] 

Fettel

Морской Волк

Пост 29-Апр-2013 18:10 (спустя 3 месяца 23 дня)

[Q] 

[Профиль]  [ЛС] 

VIRGIN

Штурман

41

Пост 21-Май-2014 23:21 (спустя 1 год)

[Q] 

Вернитесь на раздачу-то кто-нибудь, плизз.... Стоит мёртво на 60,5% уже неделю...
SOS!!!

_________________
Рожденный в СССР...
[Профиль]  [ЛС] 

VIRGIN

Штурман

41

Пост 03-Июл-2014 23:36 (спустя 1 месяц 13 дней)

[Q] 

Ау-у-у..... Раздавать будем или как? Трафик потрачен зря! ???

_________________
Рожденный в СССР...
[Профиль]  [ЛС] 

The-PRinz:3

Шкипер

Пост 29-Июл-2014 11:53 (спустя 25 дней)

[Q] 

Спасибо!!! Спасибо!!! Thaks

_________________
[Профиль]  [ЛС] 

xzxscorpxzx

Флибустьер

Пост 14-Сен-2015 06:55 (спустя 1 год 1 месяц)

[Q] 

уже не страшно) bj
[Профиль]  [ЛС] 
Показать сообщения:    
Ответить на тему

Текущее время: Сегодня 14:09

Часовой пояс: GMT + 4



Вы не можете начинать темы
Вы не можете отвечать на сообщения
Вы не можете редактировать свои сообщения
Вы не можете удалять свои сообщения
Вы не можете голосовать в опросах
Вы не можете прикреплять файлы к сообщениям
Вы не можете скачивать файлы

▼ Вниз