ML
     
  Уважаемый Гость!
Вы можете поддержать проект и зарегистрироваться у наших партнеров - онлайн-стратегия MyLands. При регистрации в игре Вы получите код, который сможете активировать после регистрации на pirat.ca и получить 1000 дублонов.

Ваш код:
822959f93c00d34653763d5bbf9ee9a7134af98a
 
     

Ганнибал Лектер - Пенталогия / Hannibal Lecter – Pentalogy (Майкл Манн / Michael Mann, Джонатан Демми / Jonathan Demme, Ридли Скотт / Ridley Scott, Брэтт Ратнер / Brett Ratner) [1986 - 2007 г., триллер, BDRip]

Ответить на тему
 
Автор
Сообщение

Пост 28-Мар-2012 12:27

[Q] 

Kaper

Ганнибал Лектер - Пенталогия / Hannibal Lecter - Pentalogy
[align=center Охотник на людей / Manhunter«Теперь только Вы и я. Это спорт...»- Год выпуска: 1986
Страна: США
Жанр: триллер
Продолжительность: 02:00:05
Перевод: Профессиональный (многоголосый закадровый)-Режиссер:
Майкл Манн / Michael Mann
-В ролях:
Уильям Л. Питерсен
Ким Грайст
Джоан Аллен
Брайан Кокс
Деннис Фарина
Том Нунен
Стивен Лэнг
Дэвид Симан
Бенджамин Хендриксон
Майкл Толбот ...
-Описание:
«Охотник на людей» — это завораживающее преследование маньяка-убийцы, получившего прозвище «Зубная фея». Идущий по следам этого опаснейшего преступника агент ФБР вынужден использовать единственный способ поиска: сотрудничая с доктором Ганнибалом Лектером, заключенным в тюремную психбольницу, он должен «войти» в кошмарный внутренний мир убийцы...
- -Бюджет: $15 000 000
Сборы в США: $8 620 929-Премьера (мир): 15 августа 1986-Качество: BDRip
Формат: AVI
Видео: 720x304 (2.35:1), 23.976 fps, XviD, 2 143 Kbps
Аудио: AC3, 448 Kbps, 48.0 KHz, 6 ch

Complete name : Manhunter.1986.BDRip.avi
Format : AVI
Format/Info : Audio Video Interleave
Format profile : OpenDML
File size : 2.18 GiB
Duration : 2h 0mn
Overall bit rate : 2 602 Kbps
Writing application : VirtualDubModRus 1.5.10.2 (build 2542/release)
Writing library : VirtualDubMod build 2542/release
Video
ID : 0
Format : MPEG-4 Visual
Format profile : Advanced [email protected]
Format settings, BVOP : Yes
Format settings, QPel : No
Format settings, GMC : No warppoints
Format settings, Matrix : Custom
Codec ID : XVID
Codec ID/Hint : XviD
Duration : 2h 0mn
Bit rate : 2 143 Kbps
Width : 720 pixels
Height : 304 pixels
Display aspect ratio : 2.35:1
Frame rate : 23.976 fps
Color space : YUV
Chroma subsampling : 4:2:0
Bit depth : 8 bits
Scan type : Progressive
Bits/(Pixel*Frame) : 0.408
Stream size : 1.80 GiB (82%)
Writing library : XviD 1.2.1 (UTC 2008-12-04)
Audio
ID : 1
Format : AC-3
Format/Info : Audio Coding 3
Mode extension : CM (complete main)
Codec ID : 2000
Duration : 2h 0mn
Bit rate mode : Constant
Bit rate : 448 Kbps
Channel(s) : 6 channels
Channel positions : Front: L C R, Side: L R, LFE
Sampling rate : 48.0 KHz
Bit depth : 16 bits
Stream size : 385 MiB (17%)
Alignment : Split accross interleaves
Interleave, duration : 42 ms (1.00 video frame)
Interleave, preload duration : 500 ms
-

☺Изначально фильм должен был называться «Красный дракон», точно так же как и книга. Однако, после того как «Год дракона» (1985) провалился в прокате, Дино Де Лаурентис решил изменить название на «Охотник на людей».
☺ Фрэнки Фэйзон (Лейтенант Фиск) – единственный актер, сыгравший во всех фильмах о Ганнибале. В «Молчании ягнят» (1991), «Ганнибале» (2001) и «Красном драконе» (2002) он исполнил роль Барни.
☺ Во время съёмок данного фильма Энтони Хопкинс играл Короля Лира в «Национальном театре». Во время съёмок «Молчания ягнят» (1991) Брайан Кокс играл Короля Лира в «Национальном театре».
☺ По словам Тома Нунана (Доллархайд), он нарочно старался не контактировать с другими актерами, для того чтобы подчеркнуть одиночество и напряженность между его персонажем и остальными героями фильма.
☺ Гримерам потребовалось огромное количество времени, для того чтобы нанести на спину Тома Нунана (Доллархайд) временную татуировку с изображением картины Уильяма Блэйка «Великий красный дракон». Однако, Майкл Манн решил, что в фильме Доллархайд может обойтись без своей татуировки.
☺ «Охотник на людей» – единственный фильм о Ганнибале, в котором его фамилия пишется как Лектор (Lecktor), а не Лектер (Lecter).
☺ Брайан Деннехи, Джон Литгоу и Мэнди Пэтинкин могли исполнить роль Ганнибала Лектора.
☺ По словам Брайана Кокса, изображая Ганнибала Лектора, он старался сымитировать шотландского серийного убийцу Питера Мануэля.
☺ Изначально Дэвид Линч должен был поставить фильм. Уэлон Грин написал черновую версию сценария. Однако, впоследствии Линч покинул проект, а сценарий Грина был отвергнут.

Молчание ягнят / The Silence of the Lambs«From the terrifying best seller»- Год выпуска: 1991
Страна: США
Жанр: триллер
Продолжительность: 01:58:31
Перевод: Профессиональный (дублированный)-Режиссер:
Джонатан Демме / Jonathan Demme
-В ролях:
Джоди Фостер
Энтони Хопкинс
Скотт Гленн
Тед Левайн
Брук Смит
Энтони Хилд
Кейси Леммонс
Дайан Бэйкер
Фрэнки Фэйзон
Дэн Батлер ...
-Описание:
Психопат похищает и убивает молодых женщин по всему Среднему Западу Америки. ФБР, уверенное в том, что все преступления совершены одним и тем же человеком, поручает агенту Клариссе Стерлинг встретиться с заключенным-маньяком, который мог бы объяснить следствию психологические мотивы серийного убийцы и тем самым вывести на его след.
Заключенный, доктор психиатрии Ганнибал Лектер, отбывает наказание за убийства и каннибализм. Он согласен помочь Клариссе лишь в том случае, если она попотчует его больное воображение подробностями своей сложной личной жизни. Такие двусмысленные отношения не только порождают в душе Клариссы внутренний конфликт, но и сталкивают ее лицом к лицу с помешанным до гениальности убийцей. Воплощение дьявола настолько сильно, что ей может не хватить мужества и стойкости, чтобы остановить его...
- -Бюджет: $19 000 000
Сборы в США: $130 742 922
Сборы в мире: + $142 000 000 = $272 742 922-Премьера (мир): 30 января 1991
Релиз на DVD: 5 февраля 2009
Релиз на Blu-Ray: 23 апреля 2009-Качество: BDRip
Формат: AVI
Видео: 704x384 (16:9), 23.976 fps, XviD, 2 177 Kbps
Аудио: AC3, 448 Kbps, 48.0 KHz, 6 ch

Complete name : The Silence of the Lambs.1991.BDRip.avi
Format : AVI
Format/Info : Audio Video Interleave
Format profile : OpenDML
File size : 2.18 GiB
Duration : 1h 58mn
Overall bit rate : 2 637 Kbps
Writing application : VirtualDubModRus 1.5.10.2 (build 2542/release)
Writing library : VirtualDubMod build 2542/release
Video
ID : 0
Format : MPEG-4 Visual
Format profile : Advanced [email protected]
Format settings, BVOP : Yes
Format settings, QPel : No
Format settings, GMC : No warppoints
Format settings, Matrix : Custom
Codec ID : XVID
Codec ID/Hint : XviD
Duration : 1h 58mn
Bit rate : 2 177 Kbps
Width : 704 pixels
Height : 384 pixels
Display aspect ratio : 16:9
Frame rate : 23.976 fps
Color space : YUV
Chroma subsampling : 4:2:0
Bit depth : 8 bits
Scan type : Progressive
Bits/(Pixel*Frame) : 0.336
Stream size : 1.80 GiB (83%)
Writing library : XviD 1.2.1 (UTC 2008-12-04)
Audio
ID : 1
Format : AC-3
Format/Info : Audio Coding 3
Mode extension : CM (complete main)
Codec ID : 2000
Duration : 1h 58mn
Bit rate mode : Constant
Bit rate : 448 Kbps
Channel(s) : 6 channels
Channel positions : Front: L C R, Side: L R, LFE
Sampling rate : 48.0 KHz
Bit depth : 16 bits
Stream size : 380 MiB (17%)
Alignment : Split accross interleaves
Interleave, duration : 42 ms (1.00 video frame)
Interleave, preload duration : 500 ms
-

☺ Роль Ганнибала Лектора была предложена Джину Хекману, ему же предлагалось заняться и режиссурой. В то же время на роль Кларисы предлагались Мишель Пфайффер и Мег Райан.
☺ Помимо Хекмана на роль доктора Лектора претендовали Роберт Дюваль, Джереми Айронс и Брайан Кокс.
☺ Большая часть съемочного материала была подготовлена в Питтсбурге. Город идеально подходил для съемок ввиду огромного количества архитектурных сооружений и прочих красивых мест. Таким образом, участникам съемочной группы удалось создать иллюзию того, что съемки проходили в разных уголках страны.
☺ Данная картина стала третьей за всю историю проведения церемонии Оскар, которой удалось завоевать все 5 главных наград: «Лучшая картина», «Лучший режиссер», «Лучший актер», «Лучшая актриса» и «Лучший сценарий». До этого таких же почестей удостоились «Это случилось однажды ночью» (1934) и «Пролетая над гнездом кукушки» (1975).
☺ Энтони Хопкинс описывая голос, предоставленный своему персонажу Ганнибалу Лектору, назвал его «симбиозом Трумана Капота и Кетрин Хепберн».
☺ Если внимательно присмотреться к постеру, то можно увидеть изображение черепа на теле бабочки. А если присмотреться еще внимательнее, то можно разглядеть, что череп состоит как минимум из трех обнаженных девушек (есть такие варианты постеров, на которых можно насчитать аж до семи девушек).
☺ Маньяк по имени Баффало Билл стал эдаким собирательным образом трех реально существовавших серийных убийц. Итак, познакомьтесь с этими жуткими людьми, за плечами каждого из которых не менее полсотни жертв: Эд Гейн, любивший снимать кожу со своих жертв, красавчик Тед Банди, использующий фальшивую гипсовую повязку на руке для привлечения наивных женщин, и Гари Хейдник, любитель держать своих жертв в глубокой яме, где они, как правило, и умирали от голода.
☺ Во время первой встречи Клариссы и доктора Лектора последний намекнул, где же можно найти Баффало Билла. Он описал свой рисунок, сделанный на стене камеры-одиночки: «Она называется Дуомо — видел эту картину в итальянском Бельведере». Чуть позднее Старлинг узнает, что Баффало Билл проживает в Бельведере, штат Огайо.
☺ Во время съемок этой сцены, Энтони Хопкинс постарался смотреть прямо в камеру, мотивируя данный поступок тем, что при таком ракурсе у зрителя создастся впечатление, что его персонаж «знает абсолютно всё».
☺ Прототипом Ганнибала Лектора был серийный убийца Альберт Фиш. Этому недочеловеку больше всего по душе было подкарауливать маленьких девочек, долго-долго мучить их перед тем, как убить, а впоследствии поедать их изуродованные тела.
☺ По первоначальной задумке планировалось запустить картину в прокат осенью 1990 года. Однако Orion Pictures решила придержать выход картины до января 1991 года, дабы не создавать конкуренции другому своему хиту «Танцы с волками», также весьма успешно поучаствовавшему в оскароносной гонке.
☺ В ходе подготовки к исполнению своей роли, Энтони Хопкинс внимательно изучил досье на самых знаменитых серийных убийц современности. Также он побывал в тюрьмах, где содержались данные персоналии, и даже посетил парочку громких судебных процессов.
☺ Во время изучения видеоматериалов, Энтони заметил, что маньяк Чарльз Мэнсон никогда не моргал во время разговора, и незамедлительно перенес данное наблюдение на экран.
☺ Энтони Хопкинсу досталось всего лишь 16 минут экранного времени, что, впрочем, не помешало блистательному актеру завоевать Оскара в номинации «Лучшая мужская роль». В ближайшее время этот рекорд вряд ли будет кем-то побит.
☺ Автор сценария Тед Талли, создавая сценарий к картине, на месте агента Старлинг видел только Джоди Фостер. Однако, когда режиссерское кресло занял Джонатан Демме, он решил поменять выбор своих предшественников и пригласил в картину Мишель Пфайффер.
☺ Но Мишель отказалась, сославшись на то, что фильм получится весьма кровавым и жестоким. После данного конфуза Джонатан решился-таки позвать в проект Джоди Фостер и, как выяснилось, не прогадал.
☺ Основной мотив сюжетной линии имел параллели с событиями, происходившими на самом деле, каковыми стали взаимоотношения профессора Университета криминологии Роберта Кеппеля и маньяка Теда Банди.
☺ Тед, несмотря на все свои прегрешения, оказал содействие в раскрытии целой серии убийств. Тед был казнен 24 января 1989 года, а настоящего маньяка удалось найти лишь в 2001 году. Им стал Гэри Риджвэй, сознавшийся в 48-ми совершенных им преступлениях.
☺ В ходе подготовки к съемкам Джоди Фостер и Скотту Гленну были предоставлены аудиозаписи, сделанные маньяками в ходе совершенных ими убийств. Джоди наотрез отказалась прослушивать эти леденящие кровь записи, а вот Скотт на свою беду решился, вследствие чего на протяжении достаточно длительного периода времени его преследовали ночные кошмары.
☺ Брук Смит, играющая похищенную девушку Кэтрин, и Тед Ливайн, играющий Баффало Билла, были очень близки во время съемок картины.
☺ Человек в синей кепке в заключительной сцене фильма на тропическом острове - режиссер Джонатан Демме, исполнивший в своей картине эпизодическую роль-камео.

Ганнибал / Hannibal«May the silence be broken!»- Год выпуска: 2001
Страна: США, Великобритания
Жанр: триллер
Продолжительность: 02:11:20
Перевод: Профессиональный (дублированный)-Режиссер:
Ридли Скотт / Ridley Scott
-В ролях:
Энтони Хопкинс
Джулианна Мур
Гари Олдман
Рэй Лиотта
Фрэнки Фэйзон
Джанкарло Джаннини
Франческа Нери
Желько Иванек
Хазелль Гудман
Дэвид Эндрюс ...
-Описание:
По прошествии десяти лет тревожного молчания гениальный Ганнибал Лектер пишет письмо агенту ФБР Кларисе Старлинг, предлагая ей возобновить их прервавшуюся интеллектуальную дуэль.С помощью миллионера Мейсона Верджера, ставшего очередной жертвой безумного доктора и мечтающего теперь скормить Лектера стае прожорливых кабанов, Клариса выходит на след неуловимого маньяка и вскоре узнает о том, что за ним уже охотится инспектор флорентийской полиции Риналдо Пацци, рассчитывающий получить за его поимку щедрое вознаграждение.Но примитивные ловушки — слабая преграда для голодного каннибала, который все ближе подбирается к Кларисе, чтобы пригласить свою фаворитку на самую страшную трапезу в ее жизни...
- -Бюджет: $87 000 000
Сборы в США: $165 092 268
Сборы в мире: + $186 600 000 = $351 692 268-Премьера (мир): 9 февраля 2001
Премьера (РФ): 26 апреля 2001
Релиз на DVD: 30 июля 2009-Качество: BDRip
Формат: AVI
Видео: 704x384 (16:9), 24.000 fps, XviD, 1 920 Kbps
Аудио: AC3, 448 Kbps, 48.0 KHz, 6 ch

Complete name : Hannibal.2001. BDRip.avi
Format : AVI
Format/Info : Audio Video Interleave
Format profile : OpenDML
File size : 2.18 GiB
Duration : 2h 11mn
Overall bit rate : 2 380 Kbps
Writing application : VirtualDubModRus 1.5.10.2 (build 2542/release)
Writing library : VirtualDubMod build 2542/release
Video
ID : 0
Format : MPEG-4 Visual
Format profile : Advanced [email protected]
Format settings, BVOP : Yes
Format settings, QPel : No
Format settings, GMC : No warppoints
Format settings, Matrix : Custom
Codec ID : XVID
Codec ID/Hint : XviD
Duration : 2h 11mn
Bit rate : 1 920 Kbps
Width : 704 pixels
Height : 384 pixels
Display aspect ratio : 16:9
Frame rate : 24.000 fps
Color space : YUV
Chroma subsampling : 4:2:0
Bit depth : 8 bits
Scan type : Progressive
Bits/(Pixel*Frame) : 0.296
Stream size : 1.76 GiB (81%)
Writing library : XviD 1.2.1 (UTC 2008-12-04)
Audio
ID : 1
Format : AC-3
Format/Info : Audio Coding 3
Mode extension : CM (complete main)
Codec ID : 2000
Duration : 2h 11mn
Bit rate mode : Constant
Bit rate : 448 Kbps
Channel(s) : 6 channels
Channel positions : Front: L C R, Side: L R, LFE
Sampling rate : 48.0 KHz
Bit depth : 16 bits
Stream size : 421 MiB (19%)
Alignment : Split accross interleaves
Interleave, duration : 42 ms (1.00 video frame)
Interleave, preload duration : 500 ms
-

☺ Перед съемками сцены, в которой Ганнибал играет на фортепьяно, Энтони Хопкинс начал наигрывать одно из своих собственных сочинений. Режиссеру Ридли Скотту так полюбилась эта мелодия, что именно она вошла в окончательный вариант фильма. Однако Энтони Хопкинс отказался представлять данный материал на официальном саундтреке к фильму.
☺ Ридли Скотт после съемок в Италии сказал, что Джулианн Мур играет намного более эмоциональную Кларис Старлинг чем та, которую играла Джоди Фостер.
☺ MGM, отчаянно пытаясь создать суперхит, делала всё возможное и невозможное, чтобы продвинуть «Ганнибала». Студия распространила более чем 500 экземпляров миникассет в СМИ с жутким обращением от Энтони Хопкинса в роли доктора Лектера.
☺ Тед Тэлли, получивший Оскара за «Молчание ягнят», написал сценарий для «Ганнибала». Он не купился на роман между Кларисой Старлинг и доктором Лектером, который был в первоначальной версии книги, а также на то, что Клариса стала каннибалом.
☺ Джоди Фостер отказалась от съёмок в сиквеле по ряду причин, продюсер Дино Де Лаурентис заявлял, что все было из-за денег. «Я вызываю агента Джоди Фостер», — вспоминает Де Лаурентис. «Он говорит мне: «Я имею указание. Джоди не будет даже читать сценарий, если Вы не даете ей сумму в $20 миллионов и 15 процентов от кассовых сборов.» И я говорю ему: «При всем уважении к Джоди Фостер, до свидания. Это — безумное предложение.» Джулианна Мур подписала контракт на 3 миллиона $ и была вынуждена выбыть из прошлогоднего «Неуязвимого».

Красный Дракон / Red Dragon«Meet Hannibal Lecter For The First Time»- Год выпуска: 2002
Страна: США, Германия
Жанр: триллер
Продолжительность: 02:04:26
Перевод: Профессиональный (дублированный)-Режиссер:
Бретт Рэтнер / Brett Ratner
-В ролях:
Энтони Хопкинс
Эдвард Нортон
Рэйф Файнс
Харви Кейтель
Эмили Уотсон
Мэри-Луиз Паркер
Филип Сеймур Хоффман
Энтони Хилд
Кен Люн
Фрэнки Фэйзон ...
-Описание:
Действие этой ленты разворачивается до событий, описанных в «Молчании ягнят» и до появления Клариссы Старлинг. Мы знакомимся с человеком, поймавшим Ганнибала Лектера, — специальным агентом ФБР Уиллом Грэмом. После ареста Лектера, который едва не стоил Грэму жизни, Уилл уходит со службы в Бюро.Однако, появление нового жуткого серийного убийцы заставляет Грэма вернуться на службу. Этот безжалостный монстр, которого пресса уже окрестила «Зубной Феей», ночами вырезает целые семейства. Теперь Уиллу нужен совет от опытного специалиста по психическим аномалиям, и он обращается за помощью к своему старому знакомому... доктору «Ганнибалу-каннибалу» Лектеру!
- -Бюджет: $78 000 000
Сборы в США: $93 149 898
Сборы в мире: + $116 302 000 = $209 451 898
Сборы в России: $1 316 352-Премьера (мир): 30 сентября 2002
Премьера (РФ): 28 ноября 2002
Релиз на Blu-Ray: 25 января 2011-Качество: BDRip
Формат: AVI
Видео: 720x304 (2.35:1), 23.976 fps, XviD, 2 052 Kbps
Аудио: AC3, 448 Kbps, 48.0 KHz, 6 ch

Complete name : Red dragon.2002.BDRip.avi
Format : AVI
Format/Info : Audio Video Interleave
Format profile : OpenDML
File size : 2.18 GiB
Duration : 2h 4mn
Overall bit rate : 2 512 Kbps
Writing application : VirtualDubModRus 1.5.10.2 (build 2542/release)
Writing library : VirtualDubMod build 2542/release
Video
ID : 0
Format : MPEG-4 Visual
Format profile : Advanced [email protected]
Format settings, BVOP : Yes
Format settings, QPel : No
Format settings, GMC : No warppoints
Format settings, Matrix : Custom
Codec ID : XVID
Codec ID/Hint : XviD
Duration : 2h 4mn
Bit rate : 2 052 Kbps
Width : 720 pixels
Height : 304 pixels
Display aspect ratio : 2.35:1
Frame rate : 23.976 fps
Color space : YUV
Chroma subsampling : 4:2:0
Bit depth : 8 bits
Scan type : Progressive
Bits/(Pixel*Frame) : 0.391
Stream size : 1.78 GiB (82%)
Writing library : XviD 1.2.1 (UTC 2008-12-04)
Audio
ID : 1
Format : AC-3
Format/Info : Audio Coding 3
Mode extension : CM (complete main)
Codec ID : 2000
Duration : 2h 4mn
Bit rate mode : Constant
Bit rate : 448 Kbps
Channel(s) : 6 channels
Channel positions : Front: L C R, Side: L R, LFE
Sampling rate : 48.0 KHz
Bit depth : 16 bits
Stream size : 399 MiB (18%)
Alignment : Split accross interleaves
Interleave, duration : 42 ms (1.00 video frame)
Interleave, preload duration : 500 ms
-

☺ Харви Кейтель исполнил роль, сыгранную Деннисом Фариной в фильме Майкла Манна 1986 года «Охотник на людей». Интересно, что в картине «Достать коротышку» (1995) Кейтель играет самого себя, актера, создающего образ Рэя Борбони, в роли которого выступил Деннис Фарина.
☺ Оператор фильма Данте Спинотти также работал и на картине «Охотник на людей», которая была первой экранизацией романа Томаса Харриса «Красный дракон».
☺ В другом фильме Брета Рэтнера «Час-пик 2» фигурирует казино под названием «Красный дракон».
☺ На роль Долорхайда рассматривались кандидатуры Шона Пенна и Николаса Кейджа, но в итоге она досталась Ральфу Файнсу.
☺ Фрэнки Фэйсон — единственный актер, снявшийся во всех четырех экранизациях романов Томаса Харриса. Только в фильме «Охотник на людей» он сыграл лейтенанта Фиска, а в остальных трех лентах — Барни Мэтьюза.
☺ Татуировку на спину Ральфу Файнсу наносили в течение восьми часов.
☺ За основу образа Долорхайда был взят серийный убийца из города Уичито, Штат Канзас, который называл себя ВТК. Эта аббревиатура расшифровывается следующим образом: Bind (Свяжи), Torture (Пытай), Kill (Убей).
☺ Энтони Хопкинс сыграл в этом фильме через 10 лет после своего первого исполнения роли Ганнибала Лектера. Однако по сюжету и хронологии «Красный дракон» предшествует «Молчанию ягнят». Поэтому, чтобы сделать героя Хопкинса моложе, актеру на крупных планах удаляли цифровым способом старческие морщины.
☺ Первым претендентом на роль Уилла Грэма был Этан Хоук.
☺ Постановка одно время предлагалась Майклу Бэю.
☺ Джереми Пивен пробовался на роль Долорхайда.
☺ Первой кандидатурой Брета Рэтнера на роль Рэбы была Теа Леони.
☺ По словам Эдварда Нортона, весь гонорар, заработанный им на «Красном драконе», он вложил в производство «25-го часа» (2002).
☺ По словам Хопкинса, знаменитый вкрадчивый голос Ганнибала Лектера он изобрёл, скомбинировав механические интонации компьютера Хэла из «Космической одиссеи» с голосом Кэтрин Хэпберн.
☺ Китайский иероглиф, который в фильме переводят как «Красный дракон», на самом деле означает «центр».
☺ Начальная сцена, в которой общий план зала филармонии переходит к крупному плану Ганнибала - отсылка к фильму Романа Полански «Смерть и дева», где точно такой же план используется в финальной сцене.

Ганнибал: Восхождение / Hannibal Rising«Всё началось с желания отомстить»- Год выпуска: 2007
Страна: Франция, Великобритания, Италия, Чехия
Жанр: триллер
Продолжительность: 02:10:32
Перевод: Профессиональный (многоголосый закадровый)-Режиссер:
Питер Веббер / Peter Webber
-В ролях:
Аарон Томас
Гаспар Ульель
Гун Ли
Хелена Лиа Тачовска
Ричард Лиф
Доминик Уэст
Рис Иванс
Мишель Вэйд
Ричард Брэйк
Мартин Хьюб ...
-Описание:
Первая глава жизни самого знаменитого и хитроумного маньяка всех времен. Ему было шесть, когда на его глазах жестоко убили его семью. В двадцать, бежав во Францию, а затем в США, он получил блестящее образование психиатра. Впереди его ждала жизнь, полная привилегий. Но жажда мести за убийство семьи только разгоралась в нем...
- -Бюджет: $50 000 000
Сборы в США: $27 667 947
Сборы в мире: + $54 498 898 = $82 166 845
Сборы в России: $4 822 355-Премьера (мир): 7 февраля 2007
Премьера (РФ): 8 февраля 2007
Релиз на DVD: 17 февраля 2009-Качество: BDRip
Формат: AVI
Видео: 704x304 (2.35:1), 23.976 fps, XviD, 1 935 Kbps
Аудио: AC3, 448 Kbps, 48.0 KHz, 6 ch

Complete name : Hannibal - Rising.2007.BDRip.avi
Format : AVI
Format/Info : Audio Video Interleave
Format profile : OpenDML
File size : 2.18 GiB
Duration : 2h 10mn
Overall bit rate : 2 394 Kbps
Writing application : VirtualDubModRus 1.5.10.2 (build 2542/release)
Writing library : VirtualDubMod build 2542/release
Video
ID : 0
Format : MPEG-4 Visual
Format profile : Advanced [email protected]
Format settings, BVOP : Yes
Format settings, QPel : No
Format settings, GMC : No warppoints
Format settings, Matrix : Custom
Codec ID : XVID
Codec ID/Hint : XviD
Duration : 2h 10mn
Bit rate : 1 935 Kbps
Width : 704 pixels
Height : 304 pixels
Display aspect ratio : 2.35:1
Frame rate : 23.976 fps
Color space : YUV
Chroma subsampling : 4:2:0
Bit depth : 8 bits
Scan type : Progressive
Bits/(Pixel*Frame) : 0.377
Stream size : 1.76 GiB (81%)
Writing library : XviD 1.2.1 (UTC 2008-12-04)
Audio
ID : 1
Format : AC-3
Format/Info : Audio Coding 3
Mode extension : CM (complete main)
Codec ID : 2000
Duration : 2h 10mn
Bit rate mode : Constant
Bit rate : 448 Kbps
Channel(s) : 6 channels
Channel positions : Front: L C R, Side: L R, LFE
Sampling rate : 48.0 KHz
Bit depth : 16 bits
Stream size : 418 MiB (19%)
Alignment : Split accross interleaves
Interleave, duration : 42 ms (1.00 video frame)
Interleave, preload duration : 500 ms
-

☺ На роль молодого Ганнибала Лектера пробовались многие молодые актеры, среди которых были Хэйден Кристенсен, Маколей Калкин, Хью Дэнси, Руперт Френд, Доминик Купер, Том Стёрридж и Том Пэйн.
☺ В качестве композитора фильма рассматривался Томас Ньюман.
☺ На роль солдата, который съедает младшую сестру Ганнибала, режиссер Питер Уэббер хотел пригласить шведского актера Микаэля Персбрандта, но оказалось, что тот уже занят в новом проекте и снимается в Швеции.
☺ Со съемочной площадки были украдены бутафорская отрубленная голова и резиновый пенис.
☺ На протяжении фильма убивают 25 человек.
☺ Когда Ганнибал Лектер вводит себе тиопентал натрия, он играет знаменитые «Гольберг-вариации» Иоганна Себастьяна Баха - это та самая музыка, которая звучала в эпизоде побега Лектера в фильме «Молчание ягнят» (1991). Причем в этом фильме звучит запись исполнения пианиста Гленна Гулда 1955 года, в то время как в других фильмах о Ганнибале Лектере использовалась запись исполнения того же Гленна Гулда, но 1981 года.
☺ Актер Стивен Уолтерс (Зигмас Милко) в реальной жизни страдает клаустрофобией.
Download / Скачать

Хотите скачать бесплатно? Зарегистрируйтесь на сайте (ссылка на регистрацию). Pirat.ca - самый быстрый торрент трекер в рунете!

Как скачивать  ·   Что такое торрент  ·   Рейтинг и ограничения



Последний раз редактировалось: Kaper (2012-03-29 22:19), всего редактировалось 2 раз(а)

aleksey99

282445

Пост 28-Мар-2012 13:10 (спустя 43 минуты)

[Q] 


_________________

[Профиль]  [ЛС] 

logan0123

Штурман

Пост 28-Мар-2012 13:21 (спустя 11 минут)

[Q] 

аффтар скачать то даш? скорость ноль под килем :)

_________________
Люди я здесь где-то совесть потерял, нашедшему просьба не возвращать.
[Профиль]  [ЛС] 

Kaper ®

3485

Пост 28-Мар-2012 13:26 (спустя 4 минуты)

[Q] 

Народ, на скорость не жалуемся. Раздаю с работы. Вечерком приду домой - скорость наладится.

_________________
[Профиль]  [ЛС] 

goxakrauter

4540

Пост 28-Мар-2012 13:32 (спустя 6 минут)

[Q] 

Kaper, супер, спасибо! ay
[Профиль]  [ЛС] 

logan0123

Штурман

Пост 28-Мар-2012 13:48 (спустя 16 минут)

[Q] 

ждемс с нетерпением

_________________
Люди я здесь где-то совесть потерял, нашедшему просьба не возвращать.
[Профиль]  [ЛС] 

srade

Морской Волк

511

Пост 28-Мар-2012 18:20 (спустя 4 часа)

[Q] 

[Профиль]  [ЛС] 

Принц Датский

Корсар

Пост 28-Мар-2012 19:23 (спустя 1 час 2 минуты)

[Q] 

молодчина!!!

_________________
[Профиль]  [ЛС] 

Gekon86ru

Морской Волк

285

Пост 28-Мар-2012 20:26 (спустя 1 час 2 минуты)

[Q] 

пока с женои разговаривал - уже добавили af

_________________
Самый лучший игровой сервер это ЗЕМЛЯ. 6 млрд игроков, лагов и читеров нет, админ терпеливый.. но уж если забанит :)
[Профиль]  [ЛС] 

jumpersky

Легенда

Пост 28-Мар-2012 21:32 (спустя 1 час 6 минут)

[Q] 

[Профиль]  [ЛС] 

sta1ler

Корсар

3

Пост 09-Май-2012 21:17 (спустя 1 месяц 11 дней)

[Q] 

Огромное спасибо, как раз захотелось пересмотреть

_________________
[Профиль]  [ЛС] 

pavel1971

Штурман

Пост 30-Май-2012 23:07 (спустя 21 день)

[Q] 

скачать дайте скорость ноль ....заранее спасибо
[Профиль]  [ЛС] 

Popke

Штурман

18

Пост 29-Авг-2012 20:24 (спустя 2 месяца 29 дней)

[Q] 

Очень хочется посмотреть подайте жару братцы
[Профиль]  [ЛС] 

Прораб

Легенда

Пост 08-Сен-2012 18:26 (спустя 9 дней)

[Q] 


_________________
Config comp: CPU-i7-2600K/RAM-32Gb/GF580GTX-1536Mb/RAID0(2 SSD-480GB)+RAID5(8 HDD-20Tb)/Win7 64bit.
[Профиль]  [ЛС] 

edik32

Морской Волк

Пост 06-Янв-2013 00:05 (спустя 3 месяца 27 дней)

[Q] 

[Профиль]  [ЛС] 

Cronick

Шкипер

Пост 10-Мар-2013 23:38 (спустя 2 месяца 4 дня)

[Q] 

ay
[Профиль]  [ЛС] 

blastc4

Морской Волк

2

Пост 12-Мар-2013 11:51 (спустя 1 день 12 часов)

[Q] 

Автору, РЕСПЕКТ!!! Наконец-то нашел все части в одном месте!!!

_________________
[Профиль]  [ЛС] 

Derrik

Штурман

Пост 17-Июн-2014 22:20 (спустя 1 год 3 месяца)

[Q] 

Скорости бы...
[Профиль]  [ЛС] 

xzxscorpxzx

Флибустьер

Пост 14-Сен-2015 07:00 (спустя 1 год 2 месяца)

[Q] 

на любителя На любителя
[Профиль]  [ЛС] 

Прораб

Легенда

Пост 23-Окт-2015 21:51 (спустя 1 месяц 9 дней)

[Q] 

Оооо!!!
Слов нет!
Просто класс!!!
Спасибо!!!
------------
Спасибо!!!

_________________
Config comp: CPU-i7-2600K/RAM-32Gb/GF580GTX-1536Mb/RAID0(2 SSD-480GB)+RAID5(8 HDD-20Tb)/Win7 64bit.
[Профиль]  [ЛС] 

арт

Штурман

Пост 22-Дек-2015 23:47 (спустя 1 месяц 30 дней)

[Q] 

Автору респект!!! Лови бочку Захотелось по новой пересмотреть все сразу после сериала и сравнить!
[Профиль]  [ЛС] 
Показать сообщения:    
Ответить на тему

Текущее время: Сегодня 05:58

Часовой пояс: GMT + 4



Вы не можете начинать темы
Вы не можете отвечать на сообщения
Вы не можете редактировать свои сообщения
Вы не можете удалять свои сообщения
Вы не можете голосовать в опросах
Вы не можете прикреплять файлы к сообщениям
Вы не можете скачивать файлы

▼ Вниз