ML
     
  Уважаемый Гость!
Вы можете поддержать проект и зарегистрироваться у наших партнеров - онлайн-стратегия MyLands. При регистрации в игре Вы получите код, который сможете активировать после регистрации на pirat.ca и получить 1000 дублонов.

Ваш код:
a978488e62322cd72e113ab723b8a7fdc10eb9b9
 
     

Зловещие мертвецы - Трилогия / The Evil Dead - Trilogy (Сэм Рэйми / Sam Raimi) [1981,1987,1993 г., ужасы, BDRip] MVO

Ответить на тему
 
Автор
Сообщение

Пост 02-Апр-2012 13:05

[Q] 

Kaper


Зловещие мертвецы / The Evil Dead«The Ultimate Experience In Grueling Terror»- Год выпуска: 1981
Страна: США
Жанр: ужасы
Продолжительность: 01:25:26
Перевод: Профессиональный (многоголосый закадровый)-Режиссер:
Сэм Рэйми / Sam Raimi
-В ролях:
Брюс Кэмпбелл
Эллен Сэндвайсс
Ричард Де Мэннинкор
Бетси Бейкер
Тереза Тилли
Филип А. Гиллис
Дороти Тейперт
Шерил Гаттридж
Барбара Кэри
Дэвид Хортон ...
-Описание:
Молодые люди снимают на выходные загородный дом. Находится он в непролазной глуши, выглядит мрачно, а кругом — ни души. Аренда стоит копейки, но не потому, что он того и гляди развалится...
Раньше здесь жил археолог, после которого в подвале остались различные мистические артефакты. Например, книга мертвых, предметы неизвестных магических культов и магнитофон с записью заклинания на непонятном языке. Ребята запись прослушали... С наступлением темноты им предстоит встретиться с духами, которых они разбудили!
- -Бюджет: $350 000
Сборы в США: $2 400 000-Премьера (мир): 15 октября 1981-Качество: BDRip
Формат: AVI
Видео: 704x384 (16:9), 23.976 fps, XviD, 2 038 Kbps
Аудио: AC3, 384 Kbps, 48.0 KHz, 6 ch

Complete name : The Evil Dead I.1981.BDRip.avi
Format : AVI
Format/Info : Audio Video Interleave
File size : 1.45 GiB
Duration : 1h 25mn
Overall bit rate : 2 431 Kbps
Writing application : VirtualDubModRus 1.5.10.2 (build 2542/release)
Writing library : VirtualDubMod build 2542/release
Video
ID : 0
Format : MPEG-4 Visual
Format profile : Advanced [email protected]
Format settings, BVOP : Yes
Format settings, QPel : No
Format settings, GMC : No warppoints
Format settings, Matrix : Custom
Codec ID : XVID
Codec ID/Hint : XviD
Duration : 1h 25mn
Bit rate : 2 038 Kbps
Width : 704 pixels
Height : 384 pixels
Display aspect ratio : 16:9
Frame rate : 23.976 fps
Color space : YUV
Chroma subsampling : 4:2:0
Bit depth : 8 bits
Scan type : Progressive
Bits/(Pixel*Frame) : 0.314
Stream size : 1.22 GiB (84%)
Writing library : XviD 1.2.1 (UTC 2008-12-04)
Audio
ID : 1
Format : AC-3
Format/Info : Audio Coding 3
Mode extension : CM (complete main)
Codec ID : 2000
Duration : 1h 25mn
Bit rate mode : Constant
Bit rate : 384 Kbps
Channel(s) : 6 channels
Channel positions : Front: L C R, Side: L R, LFE
Sampling rate : 48.0 KHz
Bit depth : 16 bits
Stream size : 235 MiB (16%)
Alignment : Split accross interleaves
Interleave, duration : 42 ms (1.00 video frame)
Interleave, preload duration : 500 ms
-

☺ Голос на кассете принадлежит владельцу «American Movie Classic» Бобу Дориану.
☺ Картина была снята в настоящей заброшенной хижине, а не в студийных декорациях. Хижина загадочным образом сгорела пару лет спустя. В ней не было подвала, так что съемки проходили в гараже Сэма Рэйми.
☺ Первоначальным названием фильма было «Книга мертвых».
☺ Когда Скот и Эшли спускаются в подвал и находят загадачную книгу, на стене весит плакат фильма Уэса Крэйвена «И у холмов есть глаза».
☺ С момента написания сценария до выхода фильма на экраны прошло целых четыре года.
☺ «Зловещие мертвецы» основаны на короткометражке «In The Woods», которую Сэм Рэйми снял с целью найти инвесторов для полнометражного фильма.
☺ После того, как зимой 1979-1980 годов были закончены основные съёмки, многие актёры покинули проект. Окончание съёмок проходило без них, вследствие чего во второй половине фильма героя Брюса Кэмпбелла в кадре окружают совсем другие люди (в финальных титрах они указаны как «fake shemps»). Например, ноги убитого Скотта «играют» ноги Теда Рэйми - брата режиссёра.
☺ Оригинальный сценарий предписывал, что во время прослушивания записи на магнитофоне все персонажи были должны курить марихуану. Актёры решили использовать в кадре настоящую «траву», но из-за хаоса, возникшего на съёмочной площадке, эту сцену потом пришлось переснимать «на трезвую голову»
☺ Среди слов «заклинания», звучащего с магнтной ленты, довольно чётко слышатся слова «Sam and Rob das ist hikers dan dee roadsa», то есть «Sam and Rob are the hikers on the road» («Сэм и Роб голосуют на дороге»). Сэм и Роб - это соответственно Сэм Рэйми и Роб Таперт, которые засветились в самом начале фильма в роли рыбаков-автостопщиков.
☺ Увеличительное стекло на цепочке (подарок Эша Линде) в первоначальной версии сценария должно было сфокусировать солнечные лучи, чтобы сжечь Книгу Мёртвых в финале фильма. Однако, впоследствии данная идея показалась создателям фильма глупой, и от неё отказались. Кстати, в сцене, когда Эш и Линда разглядывают эту цепочку, на руке Линды заметны следы свежей краски - оригинальная золотая цепочка для съёмок была перекрашена в серебряный цвет из распылителя.
☺ В качестве крови в фильме использовалась смесь из сиропа «Karo», молочного порошка и красного пищевого красителя, а в качестве внутренностей демонов - залитая зелёной краской кукуруза.
☺ В сцене возвращения героев в лачугу (после того, как выясняется, что мост разрушен) Скотт (персонаж Ричарда Де Манинкора) как будто собирается что-то сказать, но затем останавливается, запрокидывает голову назад и выходит из кадра. В этот момент актёр просто забыл свой текст.
☺ «После того, как Скотт говорит фразу «They know, they're never gonna let us go», он вскрикивает высоким, не характерным для себя голосом - при озвучке на крик Скотта Сэм Рэйми наложил свой вопль.
☺ Бутафорское бревно, которым в фильме Эш лупит свою подружку, заимствовано из реквизита раннего фильма Сэма Рэйми «It`s Murder!» (1977).
☺ Во время съёмок в лесу Брюс Кэмпбелл зацепился ногой за корень и вывихнул лодыжку. Из-за этого в некоторых сценах он заметно прихрамывает.
☺ Предыстория появления постера «У Холмов есть глаза» следующая: В тот свой фильм Уэс Крэйвен поместил рваный постер фильма «Челюсти», мотивируя это тем, что его «Холмы» гораздо страшнее спилберговских «Челюстей». По аналогии с этим Сэм Рэйми посчитал нужным вставить в своих «Зловещих мертвецов» рваный постер крэйвеновских «Холмов».
☺ Хотя на протяжении всей трилогии фамилия Эша не разглашалась, Рэйми и Кэмпбелл заявляли, что главного героя зовут или «Эшли Джей Вильямс», или «Эш Холт».
☺ Сцену, где одержимая Линда пыталась ударить Эша ножом, актриса Бетси Бэйкер играла в прямом смысле вслепую - сказывались «демонические» толстые белые контактные линзы на глазах.
☺ Название «The Evil Dead» было предложено продюсером картины Ирвином Шапиро. От режиссёрского варианта («Книга Мёртвых») Шапиро отказался, поскольку решил, что такой «литературный» подтекст может «отпугнуть» от фильма детскую аудиторию.
☺ В Германии фильм называется «Dance Of The Devil» и до сих пор запрещён к показу в кинотеатрах.
☺ После того, как использовавшаяся для съёмок хижина у Морристауна (штат Теннесси) сгорела, оставшуюся от неё кирпичную печку фанаты фильма полностью растащили «на сувениры».

Зловещие мертвецы 2 / Evil Dead II«The Sequel To The Ultimate Experience In Grueling Terror»- Год выпуска: 1987
Страна: США
Жанр: ужасы
Продолжительность: 01:24:14
Перевод: Профессиональный (многоголосый закадровый)-Режиссер:
Сэм Рэйми / Sam Raimi
-В ролях:
Брюс Кэмпбелл
Сара Берри
Дэн Хикс
Кэсси ДеПайва
Тед Рейми
Дениз Бикслер
Ричард Домайер
Джон Пикс
Лу ХэнкокСноуи Уинтерс ...

Описание:
Эш возвращается в дом в лесу. Его подружка одержима демонами и больше не принадлежит себе. Эш в одиночку вынужден опять сражаться со злом.
- -Бюджет: $3 500 000
Сборы в США: $5 923 044-Премьера (мир): 13 марта 1987, ...-Качество: BDRip
Формат: AVI
Видео: 704x384 (16:9), 23.976 fps, XviD, 2 073 Kbps
Аудио: AC3, 384 Kbps, 48.0 KHz, 6 ch

Complete name : The Evil Dead II.1987.BDRip.avi
Format : AVI
Format/Info : Audio Video Interleave
File size : 1.45 GiB
Duration : 1h 24mn
Overall bit rate : 2 466 Kbps
Writing application : VirtualDubModRus 1.5.10.2 (build 2542/release)
Writing library : VirtualDubMod build 2542/release
Video
ID : 0
Format : MPEG-4 Visual
Format profile : Advanced [email protected]
Format settings, BVOP : Yes
Format settings, QPel : No
Format settings, GMC : No warppoints
Format settings, Matrix : Custom
Codec ID : XVID
Codec ID/Hint : XviD
Duration : 1h 24mn
Bit rate : 2 073 Kbps
Width : 704 pixels
Height : 384 pixels
Display aspect ratio : 16:9
Frame rate : 23.976 fps
Color space : YUV
Chroma subsampling : 4:2:0
Bit depth : 8 bits
Scan type : Progressive
Bits/(Pixel*Frame) : 0.320
Stream size : 1.22 GiB (84%)
Writing library : XviD 1.2.1 (UTC 2008-12-04)
Audio
ID : 1
Format : AC-3
Format/Info : Audio Coding 3
Mode extension : CM (complete main)
Codec ID : 2000
Duration : 1h 24mn
Bit rate mode : Constant
Bit rate : 384 Kbps
Channel(s) : 6 channels
Channel positions : Front: L C R, Side: L R, LFE
Sampling rate : 48.0 KHz
Bit depth : 16 bits
Stream size : 231 MiB (16%)
Alignment : Split accross interleaves
Interleave, duration : 42 ms (1.00 video frame)
Interleave, preload duration : 500 ms
-

☺ Сэм Рэйми сделал кровь зеленой, чтобы пройти цензуру.
☺ Висящая перчатка, принадлежащая Фредди Крюгеру, видна в одной из сцен в подвале. Это ответ режиссера на использование фрагментов из первой картины в фильме «Кошмар на улице Вязов» (1985).
☺ В эпизоде в подвале снялся младший брат Рэйми - Тед. Он играет Генриетту, которой овладели демоны.
☺ Некоторые нестыковки между финалом «Evil Dead» и началом «Evil Dead II» объясняются тем, что компания, обладавшая правами на первую часть, не разрешила режиссёру использовать кадры из оригинала для создания его краткой предыстории в сиквеле, вследствие чего Рэйми пришлось переснимать эти куски заново, из героев имея в наличии только Эша и Линду.
☺ Сэм Рэйми собирался «перебросить» Эша в средние века уже в начале второй части, но из-за временных и бюджетных ограничений, это было отложено до третьего фильма.
☺ Поскольку лесная хибара из первой части сгорела, для съёмок сиквела её интерьер был воссоздан на территории школы в городе Вадесборо, штат Северная Каролина. Причём, чтобы обеспечить всевозможные ракурсы для операторов, лачугу «подняли» над землёй на 2 фута.
☺ По цензурным соображениям из фильма было вырезано множество сцен, в частности сцена, где «Злой» Эш поедает пойманную в лесу белку.
☺ Идея «ожившей» руки была позаимствована Сэмом Рэйми из короткометражки Скотта Шпигеля «Attack Of The Helping Hand!», в которой он сам снимался.
☺ Сцена со злым Эшем почти покадрово повторяет аналогичный эпизод в дебютной короткометражной картине Рейми «В лесу» 1978 года.

Зловещие мертвецы 3: Армия тьмы / Army of Darkness«Trapped in time. Surrounded by evil. Low on gas»- Год выпуска: 1992
Страна: США
Жанр: ужасы
Продолжительность: 01:20:46
Перевод: Профессиональный (многоголосый закадровый)-Режиссер:
Сэм Рэйми / Sam Raimi
-В ролях:
Брюс Кэмпбелл
Эмбет Дэвидц
Маркус Гилберт
Йен Эберкромби
Ричард Гроув
Тимоти Патрик Куилл
Майкл Эрл Рейд
Бриджит Фонда
Патриция Таллман
Тед Рейми ...
-Описание:
По воле случая Эш переносится в далекое прошлое. Вместе со своим автомобилем и двухстволкой он оказывается в 13 веке. В этом мрачном средневековье люди страдают от сил тьмы. Бедняга Эш был пойман добропорядочными гражданами и помещен в местную тюрьму. Он с трудом смог убедить судью, в том, что он вовсе не шпион из враждебного королевства. Он решает помочь людям в битве с врагами.Чтобы победить, он должен восстановить Некрономикон, старинную магическую книгу, которая поможет ему вернуться в свое время. По неосторожности Эш выпустил на волю Армию тьмы. Как победить живых мертвецов?
- -Бюджет: $13 000 000
Сборы в США: $11 502 976-Премьера (мир): 9 октября 1992
Релиз на DVD: 14 мая 2009.-Качество: BDRip
Формат: AVI
Видео: 704x384 (16:9), 23.976 fps, XviD, 2 342 Kbps
Аудио: AC3, 224 Kbps, 48.0 KHz, 2 ch

Complete name : The Evil Dead III.1993.BDRip.avi
Format : AVI
Format/Info : Audio Video Interleave
File size : 1.45 GiB
Duration : 1h 20mn
Overall bit rate : 2 575 Kbps
Writing application : VirtualDubModRus 1.5.10.2 (build 2542/release)
Writing library : VirtualDubMod build 2542/release
Video
ID : 0
Format : MPEG-4 Visual
Format profile : Advanced [email protected]
Format settings, BVOP : Yes
Format settings, QPel : No
Format settings, GMC : No warppoints
Format settings, Matrix : Custom
Codec ID : XVID
Codec ID/Hint : XviD
Duration : 1h 20mn
Bit rate : 2 342 Kbps
Width : 704 pixels
Height : 384 pixels
Display aspect ratio : 16:9
Frame rate : 23.976 fps
Color space : YUV
Chroma subsampling : 4:2:0
Bit depth : 8 bits
Scan type : Progressive
Bits/(Pixel*Frame) : 0.361
Stream size : 1.32 GiB (91%)
Writing library : XviD 1.2.1 (UTC 2008-12-04)
Audio
ID : 1
Format : AC-3
Format/Info : Audio Coding 3
Mode extension : CM (complete main)
Codec ID : 2000
Duration : 1h 20mn
Bit rate mode : Constant
Bit rate : 224 Kbps
Channel(s) : 2 channels
Channel positions : Front: L R
Sampling rate : 48.0 KHz
Bit depth : 16 bits
Stream size : 129 MiB (9%)
Alignment : Split accross interleaves
Interleave, duration : 42 ms (1.00 video frame)
Interleave, preload duration : 500 ms
-

☺ Слова, которые должен был произнести Эш, перед тем как взять «Книгу мертвых», — «Clatto Verata Nicto». Это намек на фразу «Klaatu, Barada, Nikto», с помощью которой можно было установить контроль над роботом Гортом в фильме «The Day the Earth Stood Still» (1951).
☺ В багажнике автомобиля Эша можно заметить журнал «Fangoria».
☺ Бриджит Фонда исполнила роль-камео: она сыграла Линду.
☺ Тед Рэйми сыграл, по меньшей мере, четырех персонажей: трусливый воин, который не хочет умирать; человек, говорящий Эшу: «Можешь рассчитывать на мою сталь»; рыцарь с повязкой на глазе; клерк в магазине S-mart.
☺ Автомобиль Эша на самом деле принадлежит Сэму Рэйми (режиссер фильма). Сэм использовал этот автомобиль во всех своих ранних работах, причем с каждым фильмом внешний вид машины заметно ухудшался. Различные предметы, которые лежат в багажнике автомобиля, не являются продакт плейсментом. Во время съёмок, точно такие же предметы лежали в багажнике машины Рэйми.
☺ Уильям Лустиг (режиссер фильмов «Маньяк» (1980), «Маньяк-полицейский» (1988), «Дядя Сэм» (1997) исполнил в фильме роль-камео.
☺ Существуют две разные концовки фильма. В изначальной концовке Эш выпивал семь капель снадобья вместо шести, и просыпался в 2100 году: пост-апокалипсическом мире, в котором произошла атомная война. Зрители на тест-просмотрах посчитали данную концовку слишком пессимистической, и финал картины был переснят. Другая концовка (наиболее распространенная) — Эш возвращается в наше время, и рассказывает клерку в магазине S-Mart о своих приключениях в Средневековье. Клерк спрашивает его — правильно ли он произнес заклинание? Эш отвечает — да… вроде бы. После чего, в магазине появляется ведьма, и Эш, схватив ремингтон, отправляет её обратно в загробный мир.
☺ Согласно первоначальному варианту сценария Эш должен был лишиться глаза.
☺ Оригинальный сценарий состоял всего из 43 страниц.
☺ Фраза Эша: «Какая разница Хороший, Плохой? Главный тот, у кого ружье!» - намек на фильм «Хороший, плохой, злой».
☺ В качестве названия для картины также рассматривались варианты «Evil Dead 1300AD» и «MediEVAL Dead».
Download / Скачать

Хотите скачать бесплатно? Зарегистрируйтесь на сайте (ссылка на регистрацию). Pirat.ca - самый быстрый торрент трекер в рунете!

Как скачивать  ·   Что такое торрент  ·   Рейтинг и ограничения

Пост 02-Апр-2012 13:57 (спустя 51 минута)

Топик был перенесен из форума Художественные фильмы (Зарубежное кино) в форум Зарубежное Кино

ara1205
 

Принц Датский

Корсар

Пост 02-Апр-2012 14:38 (спустя 1 час 33 минуты)

[Q] 

aa Спасибо большое!А нет у Вас "Повелителя зверей"в таком качестве?

_________________
[Профиль]  [ЛС] 

Valf66

Морской Волк

Пост 02-Апр-2012 17:18 (спустя 2 часа 39 минут)

[Q] 

[Профиль]  [ЛС] 

wirtual

Гроза морей

Пост 02-Апр-2012 18:35 (спустя 1 час 17 минут)

[Q] 

мегохит, особенно 3 часть !!!

_________________
не будешь делиться - останешься одноклеточным
[Профиль]  [ЛС] 

Kaper ®

3485

Пост 02-Апр-2012 19:06 (спустя 30 минут)

[Q] 

aa Спасибо большое!А нет у Вас "Повелителя зверей"в таком качестве?
Первая часть "Повелителя" есть только на ДВД (к сожалению). Можно сделать рип, но качество будет не очень, т.к. сам ДВД не может похвастаться хорошей картинкой. Да и перевод там одноголосый (Марченко, Дохалов), а битрейт аудио вообще "заоблачный" - всего 192 Kbps. Вторая и третья части в России на двд не издавались. Поэтому в инете "гуляют" VHS рипы ужасного качества. Есть рипы, записанные с телеканалов, но картинка там тоже плохая. Где то наткнулся на двд-рип (сначала даже обрадовался), но как оказалось, это тот же SATRip, только чуть лучшего качества, чем все остальные. Вот как то так. Если Вам нужно, могу заняться первой частью. Но за качество не ручаюсь.

_________________
[Профиль]  [ЛС] 

Принц Датский

Корсар

Пост 02-Апр-2012 20:35 (спустя 1 час 29 минут)

[Q] 

жаль!в таком виде у меня есть.спасибо ещё раз!!!

_________________
[Профиль]  [ЛС] 

Kaper ®

3485

Пост 02-Апр-2012 21:10 (спустя 34 минуты)

[Q] 

Будем надеяться, что когда нибудь будет блюрик. Хотя бы первой части и с нормальным звуком...

_________________
[Профиль]  [ЛС] 

Алёха

Флибустьер

Пост 03-Апр-2012 00:07 (спустя 2 часа 57 минут)

[Q] 

СПАСИБО!
[Профиль]  [ЛС] 

XAPOH

Гроза морей

Пост 02-Июл-2012 21:30 (спустя 2 месяца 29 дней)

[Q] 

Качаем. Бочка на палубе.

_________________

<<<Dolus an virtus quis in hoste requirat?>>>
Intel Core i7 2600, 16Gb Ram, GTX 670, SSD.
PS4.
[Профиль]  [ЛС] 

Lana38

Корсар

Пост 13-Ноя-2012 13:27 (спустя 4 месяца 10 дней)

[Q] 

Спасибо раздающему )
Только вот скорости совсем нет ((
[Профиль]  [ЛС] 

Lint

Штурман

Пост 03-Янв-2013 21:35 (спустя 1 месяц 20 дней)

[Q] 

Шикарно!
[Профиль]  [ЛС] 

sky88

Морской Волк

5

Пост 30-Мар-2013 17:36 (спустя 2 месяца 26 дней)

[Q] 

во респект) посмотрим
[Профиль]  [ЛС] 

Lille

Штурман

Пост 11-Апр-2013 04:21 (спустя 11 дней)

[Q] 

Огромное спасибо!
[Профиль]  [ЛС] 

BiOHAZARD

Корсар

503

Пост 11-Апр-2013 06:17 (спустя 1 час 55 минут)

[Q] 

СПАСИБО!!!
[Профиль]  [ЛС] 

Master84god

Лоцман

Пост 05-Июл-2013 22:47 (спустя 2 месяца 24 дня)

[Q] 

Совсем беда со скоростью:(уже два дня качаю,за это время успела скачать три фильма и кучу книг....вся в предвкушении посмотреть,но терпение уже кончается...((((
[Профиль]  [ЛС] 

AndrewSparrow

Юнга

Пост 02-Апр-2014 03:53 (спустя 8 месяцев 27 дней)

[Q] 

Фильмы детства Спасибо!!!
[Профиль]  [ЛС] 

beldi

Корсар

Пост 14-Апр-2014 14:36 (спустя 12 дней)

[Q] 

Спасибо, отличный фильм.
[Профиль]  [ЛС] 

rai

296

Пост 12-Май-2014 09:56 (спустя 27 дней)

[Q] 

Спасибо!!! Лови бочку Поддержу раздачу!
[Профиль]  [ЛС] 

xzxscorpxzx

Флибустьер

Пост 14-Сен-2015 06:59 (спустя 1 год 4 месяца)

[Q] 

страсти мордасти) На любителя
[Профиль]  [ЛС] 
Показать сообщения:    
Ответить на тему

Текущее время: Сегодня 22:08

Часовой пояс: GMT + 4



Вы не можете начинать темы
Вы не можете отвечать на сообщения
Вы не можете редактировать свои сообщения
Вы не можете удалять свои сообщения
Вы не можете голосовать в опросах
Вы не можете прикреплять файлы к сообщениям
Вы не можете скачивать файлы

▼ Вниз