ML
     
  Уважаемый Гость!
Вы можете поддержать проект и зарегистрироваться у наших партнеров - онлайн-стратегия MyLands. При регистрации в игре Вы получите код, который сможете активировать после регистрации на pirat.ca и получить 1000 дублонов.

Ваш код:
5af7de75d3db09b6a37bc8bab71b0e87ccde73d6
 
     

Люди Икс - Антология / X-Men - Antology (Брайан Сингер / Bryan Singer, Бретт Рэтнер / Brett Ratner, Гэвин Худ / Gavin Hood, Мэттью Вон / Matthew Vaughn) [2000 - 2011 г., фантастика, боевик, BDRip]

Ответить на тему
 
Автор
Сообщение

Пост 12-Апр-2012 10:45

[Q] 

Kaper

Люди Икс – Антология / X-Men - Antology

Люди Икс / X-Men«Будущее здесь.»- Год выпуска: 2000
Страна: США
Жанр: фантастика, боевик
Продолжительность: 01:44:20
Перевод: Профессиональный (дублированный)-Режиссер:
Брайан Сингер / Bryan Singer
-В ролях:
Хью Джекман
Патрик Стюарт
Иэн МакКеллен
Фамке Янссен
Джеймс Марсден
Холли Берри
Анна Пэкуин
Тайлер Мэйн
Рэй Парк
Ребекка Ромин ...
-Описание:
Они — дети атомного века, сверх люди, новое звено в цепи эволюции. Каждый из них был рождён в результате уникальной генетической мутации, наделившей их с детства необыкновенными способностями. В мире, где царят ненависть и предрассудки, мутанты — причуда науки и каприз природы. Этих изгоев ненавидят и боятся, те кто не способен понять и принять их индивидуальность. И всё же, несмотря на невежество и агрессивность масс, тысячи мутантов выживают.Под руководством профессора Чарльза Ксавьера (Патрик Стюарт), телепата с мировым именем, одарённые ученики научились контролировать и управлять своими удивительными способностями в интересах человечества.Но не все мутанты разделяют взгляды профессора: могущественный мутант Магнето, которому подвластны все металлы, собрал команду единомышленников. Он не верит, что люди и мутанты когда-либо смогут мирно сосуществовать. Они разработали план, чтобы осуществить захват власти над миром, и тогда, только ученики профессора Ксавьера смогут защитить этот мир...
- -Бюджет: $75 000 000
Сборы в США: $157 299 717
Сборы в мире: + $138 950 336 = $296 250 053
Сборы в России: $1 140 000-Премьера (мир): 13 июля 2000
Премьера (РФ): 18 октября 2000
Релиз на DVD: 9 октября 2008
Релиз на Blu-Ray: 21 мая 2009-Качество: BDRip
Формат: AVI
Видео: 720x304 (2.35:1), 23.976 fps, XviD, 2 534 Kbps
Аудио: AC3, 448 Kbps, 48.0 KHz, 6 ch

Complete name : X-Men.2000.BDRip.avi
Format : AVI
Format/Info : Audio Video Interleave
Format profile : OpenDML
File size : 2.18 GiB
Duration : 1h 44mn
Overall bit rate : 2 994 Kbps
Writing application : VirtualDubModRus 1.5.10.2 (build 2542/release)
Writing library : VirtualDubMod build 2542/release
Video
ID : 0
Format : MPEG-4 Visual
Format profile : Advanced [email protected]
Format settings, BVOP : Yes
Format settings, QPel : No
Format settings, GMC : No warppoints
Format settings, Matrix : Custom
Codec ID : XVID
Codec ID/Hint : XviD
Duration : 1h 44mn
Bit rate : 2 534 Kbps
Width : 720 pixels
Height : 304 pixels
Display aspect ratio : 2.35:1
Frame rate : 23.976 fps
Color space : YUV
Chroma subsampling : 4:2:0
Bit depth : 8 bits
Scan type : Progressive
Bits/(Pixel*Frame) : 0.483
Stream size : 1.85 GiB (85%)
Writing library : XviD 1.2.1 (UTC 2008-12-04)
Audio
ID : 1
Format : AC-3
Format/Info : Audio Coding 3
Mode extension : CM (complete main)
Codec ID : 2000
Duration : 1h 44mn
Bit rate mode : Constant
Bit rate : 448 Kbps
Channel(s) : 6 channels
Channel positions : Front: L C R, Side: L R, LFE
Sampling rate : 48.0 KHz
Bit depth : 16 bits
Stream size : 334 MiB (15%)
Alignment : Split accross interleaves
Interleave, duration : 42 ms (1.00 video frame)
Interleave, preload duration : 500 ms
-

☺ Изначально Дугрей Скотт был утвержден на роль Росомахи. Но ему пришлось покинуть проект из-за затянувшихся съёмок фильма «Миссия невыполнима 2» (2000).
☺ Было создано три типа когтей Росомахи: пластиковые, деревянные и стальные.
☺ Большинство эффектов, связанных с изменением цвета глаз того или иного персонажа, было создано с помощью контактных линз. Ребекка Ромин могла носить линзы не более часа, при этом её зрение ухудшалось на 90%. В один из съёмочных дней, Тайлер Мэйн слишком долго не снимал линзы, что привело к временной потери зрения.
☺ Десять костюмов Росомахи были сделаны из толстой кожи и поливинилхлорида. Все они пришли в негодность во время съёмок.
☺ Хью Джекман прошел курс специальных тренировок по рукопашному бою, для того чтобы научиться управляться с когтями Росомахи.
☺ Штурвал для пилотирования самолета Людей Икс представляет собой компьютерный джойстик «Flightstick Pro».
☺ Джеймс Марсден носил специальные туфли на платформе, для того чтобы быть выше ростом, чем Хью Джекман.
☺ Столкнув Шторм в шахту лифта, Жаба (Рэй Парк) сбивает планку, которая держит двери лифта, хватает её, поворачивает над своей головой и затем держит её в точно такой же стойке, как Дарт Мол в фильме «Звездные войны: Эпизод I – Призрачная угроза» (1999).
☺ Многие персонажи из вселенной Людей Икс появились в данном фильме в эпизодических ролях: например, Китти Прайд, Колосс, Айсмен, Пиро.
☺ Джордж Буза, сыгравший водителя грузовика, озвучивал Зверя в анимационном сериале «Люди Икс» (1992).
☺ Когда Росомаха жалуется на неудобный костюм, Циклоп спрашивает его, предпочел ли он желтый спандекс. В комиксах, по которым снят фильм, Росомаха как раз облачен в желтый спандекс.
☺ Увидев Шторм, Жаба восклицает: «Когда же ты сдохнешь?» Примечательно, что практически все персонажи данного фильма «умирали» хотя бы раз, но затем снова возвращались на страницы комикса.
☺ Джон Бирн, художник комиксов, назвал Китти Прайд по имени девушки, с которой он был знаком в Калгари, Канада.
☺ Стэна Ли, создателя комиксов о Людях Икс, можно заметить возле палатки по продаже хот-догов на пляже, когда сенатор Келли выходит из воды.
☺ Майклу Чабону предлагали написать сценарий фильма.
☺ Речь сенатора Келли в начале фильма о создании списка мутантов, живущих среди людей, напоминает известную речь сенатора Джозефа МакКарти о создании списка коммунистов, работающих в США.
☺ С согласия «Гильдии сценаристов» несколько авторов решили не упоминать своё имя в титрах, поэтому в графе «Сценарий» значится только Дэвид Хэйтер. Остальные авторы, принимавшие участие в написании сценария: Эд Соломон, Кристофер МакКуорри, Джосс Уэдон, Джеймс Шамус и Джон Логан.
☺ Роль Саблезубого была предложена Кевину Нэшу, но он отказался от участия в фильме из-за занятости на других проектах.
☺ После завершения съёмок, кресло профессора Ксавье было продано на аукционе адвокату Патрика Стюарта.
☺ Фраза Росомахи: «А тебя как зовут, Колеса?» является импровизацией Хью Джекмана. По сценарию он должен был сказать: «А тебя как зовут, Лысина?»
☺ Джеймс Мэрсден отказался от роли в «Бессмертных душах» (2001), для того чтобы сыграть в данном фильме.
☺ Сцены в баре снимались на той же пивоварне, что и сцены в концентрационном лагере.
☺ Ни Патрик Стюарт, ни Йен МакКеллен не умеют играть в шахматы.
☺ Анджела Бассетт отклонила предложение сыграть Шторм.
☺ Кандидатуры Аарона Экхарта и Вигго Мортенсена рассматривались на роль Росомахи.
☺ Кандидатура Сары Мишель Геллар рассматривалась на роль Роуг.
☺ Брайан Сингер специально включил в фильм диалог между Росомахой и Циклопом о желтом спандаксе, для того чтобы подколоть фанатов, жаловавшихся об изменении оригинальных костюмов Людей Икс.
☺ При съёмках сцен на железнодорожной станции охрана приняла Брайана Сингера за одного из зрителей и не пропускала на съёмочную площадку в течение определенного времени.
☺ Последние сцены, снятые для фильма, - сенатор Келли выходит из воды. Сцены были сняты в начале мая, а фильм вышел в прокат в конце июля.
☺ Особняк, использовавшийся для школы Ксавье, также можно увидеть в «Билли Мэдисоне» (1995).
☺ Джосс Уидон написал одну из версий сценария фильма.
☺ Кандидатуры Мэла Гибсона, Рассела Кроу, Эдварда Нортона и Кеану Ривза рассматривались на роль Росомахи.
☺ Во время разговора между Роуг и Бобби можно заметить, что у Айсмена идет пар изо рта. Фанаты комиксов заметили данную деталь и похвалили Брайана Сингера за достоверность в изображении персонажа. Однако на самом деле данный факт стал простым стечением обстоятельств, и никогда намеренно не предполагался в фильме.
☺ Сенатор Келли спрашивает у Магнето, что он сделал с Генри, на что Магнето отвечает: «Мистер Гайрич уже давно мертв». В мультсериале и комиксах, Генри Гайрич является членом нескольких агентств по национальной безопасности, а также ответственен за то, что Шторм потеряла свои способности. Также именно он приказал разработать одну из моделей Часовых.
☺ Первая сцена, снятая для фильма, - на мировом саммите главы государств здороваются друг с другом.
☺ Внимательный зритель может заметить, что Хью Джекман находится в разной физической форме в различных сценах фильма. Он был утвержден на роль Росомахи, после того как съёмки уже шли полтора месяца. Поэтому он продолжал интенсивно качаться во время съёмок.
☺ Патрик Стюарт был первым актером, утвержденным на роль мутанта.
☺ В фильме должны были присутствовать сцены, рассказывающие о детстве Шторм и Циклопа. К ним уже были готовы раскадровки, но они так и не были сняты. Во время съёмок «Людей Икс 2» создатели хотели доснять данные сцены и включить их в специальное издание «Людей Икс» на DVD, однако идея так и не была реализована.
☺ В начале 1990-х проект разрабатывался на студии «Carolco Pictures». Джеймс Камерон должен был спродюсировать фильм. Однако после того как Джеймс переключился на «Человека-Паука», а «Carolco» разорилась, права на экранизацию были выкуплены студией «20th Century Fox».
☺ Натали Портман отклонила предложение сыграть Роуг.
☺ Брюс Дэвисон стал первым актером, утвержденным на роль в фильме.
☺ В тизер-трейлере играет композиция «Chinese Burn» группы «Curve».
☺ В первом фильме у Холли Берри африканский акцент, однако во втором фильме она решила от него отказаться.
☺ Изначально Джеймс Кэвизел должен был сыграть Циклопа, однако в самый последний момент он отказался от роли.
☺ Было написано 28 черновых версий сценария, причем чуть ли не каждый раз сценаристы заново переписывали сюжет.
☺ Джери Райан могла исполнить роль Мистик.
☺ Кандидатура Марии Белло рассматривалась на роль Джин Грей.
☺ По словам Брайана Сингера, изначально Джон Уильямс должен был написать музыку к фильму, однако он не смог этого сделать из-за занятости на других проектах.
☺ Сцена на вокзале, где мальчик улыбается, смотря на Циклопа, отсутствовала в сценарии. Мальчик был большим фанатом комиксов о Людях Икс, и Циклоп был его любимым персонажем. Изначально в данной сцене Циклоп должен был смотреть на расписание поездов. Однако, по словам Брайана Сингера, мальчик пялился на Джеймса Мэрсдена, сыгравшего Циклопа. В конце концов, во время одного из дублей Джеймс посмотрел на мальчика и улыбнулся. Данная сцена так понравилась Брайану, что он решил оставить её в фильме.
☺ Будучи не уверенными в финансовом успехе первого фильма в предполагаемом франчайзе, боссы студии «20th Century Fox» выделили на постановку фильма $75 миллионов, что намного меньше бюджета среднестатистического летнего блокбастера, в большинстве случаев заметно превышающего планку в $100 миллионов.

Люди Икс 2 / X2«Сплотиться сегодня, чтобы наступило завтра»- Год выпуска: 2003
Страна: США, Канада
Жанр: фантастика, боевик
Продолжительность: 02:13:47
Перевод: Профессиональный (дублированный)-Режиссер:
Брайан Сингер / Bryan Singer
-В ролях:
Патрик Стюарт
Хью Джекман
Иэн МакКеллен
Холли Берри
Фамке Янссен
Джеймс Марсден
Анна Пэкуин
Ребекка Ромин
Брайан Кокс
Алан Камминг ...
-Описание:
Мутанты продолжают борьбу против общества, которое страшит их, и которому они не доверяют. Их положение становится еще более отчаянным, когда они подвергаются мощной атаке неизвестного противника, обладающего экстраординарными способностями.
Внезапное нападение снова становится причиной политического и общественного резонанса по поводу введения повсеместной регистрации мутантов и причиной образования движения против мутантов, возглавляемого Уильямом Страйкером, бывшим военным, который, по слухам, проводил опыты над мутантами.
Работа Страйкера была каким-то образом связана с таинственным прошлым Логана, которое он не помнит. Как только Росомаха начинает пытаться разгадать свое прошлое, Страйкер активирует свою программу, направленную против мутантов, т. е. организует штурм на дом профессора Ксавье.
Сбежавший из пластиковой тюрьмы Магнето предлагает Людям Икс объединиться и сражаться вместе против их общего устрашающего врага Страйкера. На этот раз Люди ИКС сталкиваются с самой серьезной задачей, которая когда-либо стояла перед ними: сейчас в их руках судьбы не только всех мутантов, но и всего человечества.
- -Бюджет: $110 000 000
Сборы в США: $214 949 694
Сборы в мире: + $192 607 919 = $407 557 613
Сборы в России: $3 650 616-Премьера (мир): 24 апреля 2003
Премьера (РФ): 7 мая 2003
Релиз на DVD: 30 октября 2008
Релиз на Blu-Ray: 21 мая 2009-Качество: BDRip
Формат: AVI
Видео: 720x304 (2.35:1), 23.976 fps, XviD, 1 877 Kbps
Аудио: AC3, 448 Kbps, 48.0 KHz, 6 ch

Complete name : X2.2003.BDRip.avi
Format : AVI
Format/Info : Audio Video Interleave
Format profile : OpenDML
File size : 2.18 GiB
Duration : 2h 13mn
Overall bit rate : 2 337 Kbps
Writing application : VirtualDubModRus 1.5.10.2 (build 2542/release)
Writing library : VirtualDubMod build 2542/release
Video
ID : 0
Format : MPEG-4 Visual
Format profile : Advanced [email protected]
Format settings, BVOP : Yes
Format settings, QPel : No
Format settings, GMC : No warppoints
Format settings, Matrix : Custom
Codec ID : XVID
Codec ID/Hint : XviD
Duration : 2h 13mn
Bit rate : 1 877 Kbps
Width : 720 pixels
Height : 304 pixels
Display aspect ratio : 2.35:1
Frame rate : 23.976 fps
Color space : YUV
Chroma subsampling : 4:2:0
Bit depth : 8 bits
Scan type : Progressive
Bits/(Pixel*Frame) : 0.358
Stream size : 1.75 GiB (80%)
Writing library : XviD 1.2.1 (UTC 2008-12-04)
Audio
ID : 1
Format : AC-3
Format/Info : Audio Coding 3
Mode extension : CM (complete main)
Codec ID : 2000
Duration : 2h 13mn
Bit rate mode : Constant
Bit rate : 448 Kbps
Channel(s) : 6 channels
Channel positions : Front: L C R, Side: L R, LFE
Sampling rate : 48.0 KHz
Bit depth : 16 bits
Stream size : 429 MiB (19%)
Alignment : Split accross interleaves
Interleave, duration : 42 ms (1.00 video frame)
Interleave, preload duration : 500 ms
-

☺ Заключительный монолог Джин Грей слово в слово повторяет вступительный монолог Профессора Икс в «Людях Икс» (2000).
☺ Хью Джекман тренировался под руководством того же тренера, что и Анджелина Джоли для «Лары Крофт: Расхитительнице гробниц» (2001).
☺ В баре, по телевизору идет дискуссия о ситуации с мутантами. Один из выступающих – доктор Хэнк МакКой a.k.a. Зверь. Другого участника дискуссия мы не видим, но узнаем его имя – доктор Шоу. Скорее всего, это – доктор Себастьян Шоу, лидер «Hellfire Club».
☺ Наложение грима для Алана Камминга для сцен в церкви занимало около 10 часов.
☺ Когти Юрико крепились на ногти Келли Ху. Поэтому ей пришлось немного отрастить ногти, для того чтобы стало возможно закрепить когти.
☺ Для роли в данном фильме Хью Джекман набрал 20 фунтов (9 килограммов) мышечной массы.
☺ Наложение грима для Ребекки Ромин занимало около 5 часов.
☺ Съёмки сцены-драки между Росомахой и Юрико продолжались 3 недели.
☺ Большинство актеров в сцене в музее были мимами, для которых не представляло особой сложности не двигаться на протяжении некоторого времени. Также мимы были использованы в финальной сцене в Овальном кабинете.
☺ Келли Ху произносит лишь одну фразу по ходу действия фильма.
☺ В отличие от первого фильма Ребекка Ромин не носила контактные линзы, и эффекты изменения цвета её глаз на этот раз были созданы на компьютере.
☺ Съёмочная площадка для базы Страйкера была настолько большой, что съёмочная группа передвигалась по ней на велосипедах. Это была самая большая съёмочная площадка в Северной Америке.
☺ Было написано 27 черновых версий сценария.
☺ Сначала были отсняты все сцены внутри «Церебро» Профессора Икс, после чего съёмочную площадку переоборудовали для версии «Церебро» Страйкера.
☺ Шрам на шее Циклопа, означающий, что он находился под контролем Страйкера, был добавлен на стадии пост-продакшна с помощью компьютерных спецэффектов.
☺ Второй по величине съёмочной площадкой стала декорация зала с турбинами на старой дамбе.
☺ Брайан Сингер настоятельно требовал от сценаристов детального исследования того, что случится, если произойдет прорыв дамбы. Они нашли ответы на большинство вопросов в Интернете.
☺ Согласно мерам безопасности, лопасти вертолета не должны двигаться, когда внутри машины находятся актеры (в данном случае – Ребекка Ромин и Йен МакКеллен). Поэтому вращающиеся лопасти вертолета были добавлены на стадии пост-продакшна с помощью компьютерных спецэффектов.
☺ Изначально Джин Грей должна была ослепнуть на определенное время после воссоединения с Циклопом. Именно так и были сняты сцены, однако позже было решено отказаться от данной идеи.
☺ Декорация Овального кабинета была настолько детальной, что её строительство заняло 2 месяца.
☺ Несколько декораций, специально построенных для фильма, так и не были использованы. Среди них – «Danger Room» и несколько помещений на базе Страйкера. В одной из комнат на базе Страйкера должен был состояться бой между Попрыгуном и Жабой.
☺ На видеомониторах в музее идет «Почему человек творит?» (1968).
☺ По словам Брайана Сингера, в основе сценария фильма лежит графическая новелла «God Loves, Man Kills».
☺ Машина Циклопа, на которой убегают Росомаха, Роуг, Айсмен и Пиро, - «Mazda RX-8».
☺ Незадолго до покушения на президента, в самом начале фильма, можно заметить портреты президентов США, которые были убиты, - Авраам Линкольн, Джон Ф. Кеннеди и Уильям МакКинли.
☺ Когда Мистик просматривает файлы в компьютере Страйкера, она выводит на экран фотографии охранников в тюрьме, где находится Магнето. На третьей фотографии с конца изображен Брайан Сингер в форме охранника. Под фотографией стоит имя – Сингер, Б.
☺ Особняк, использованный для школы, также можно увидеть в «Smallville» (2001).
☺ Существует расширенная сцена драки между Циклопом и Юрико, которая была снята, но так и не появилась ни в театральной версии, ни в удаленных сценах на DVD.
☺ Личный номер Росомахи - 458-25-243.
☺ Декорация туалета, где Мистик делает инъекцию охраннику, - это неиспользованная декорация для «Людей Икс» (2000).
☺ Когда Джин и Шторм ищут Попрыгуна в церкви, Джин одета в куртку с фениксом на спине. В комиксах, как и позднее в третьем фильме франчайза, Джин станет Темным Фениксом.
☺ По слухам, Этан Эмбри мог исполнить роль Попрыгуна.
☺ Дэвид Кэй, озвучивавший Профессора Икс в «X-Men: Evolution» (2000), исполнил небольшую роль в фильме.
☺ Когда Пиро уничтожает полицейские машины, был использован визг свиньи как один из элементов в звуковом миксе для создания эффекта взрыва.
☺ Большинство кадров, где мы видим внешний вид особняка Ксавье, были позаимствованы из первого фильма.
☺ Последняя сцена в особняке Ксавье с Циклопом, Росомахой и Профессор Икс была снята на студии «Shepperton Studios» в Лондоне, потому что на тот момент Хью Джекман уже снимался в «Ван Хелсинге» (2004), и продюсеры отпустили его на один день, для того чтобы завершить съёмки в фильме Брайана Сингера.
☺ Разница в возрасте между Брюсом Дэвинсоном (сенатор Келли) и Брайаном Коксом (Уильям Страйкер) составляет 27 дней, однако Страйкер говорит, что Келли младше его, по меньшей мере, на 20 лет.
☺ Когда Росомаха заходит в комнату с адамантиумом на базе Страйкера, то на одной из стен можно заметить множество рентгеновских снимков. На самом правом из них изображено нечто, напоминающее левое крыло. Согласно комментариям на DVD, это – намек на Ангела. В комиксах крылья Ангела были заменены металлическими, и он стал Архангелом.
☺ В комиксах так и не было раскрыто настоящее имя Роуг. Однако в фильме её зовут Мари Д’Анканто.
☺ Йен МакКеллен специально попросил сценаристов переписать сцену, в которой Бобби признается своим родителям, что он мутант, таким образом, чтобы она стала похожа на сцену, где он говорит, что он гей.
☺ По словам Брайана Сингера, вдохновением для сцены, где сенатор Келли превращается в Мистик, ему послужил эпизод «The Howling Man» сериала «Сумеречная зона».
☺ В заключительной сцене фильма Профессор Ксавье говорит о книге Т. Г. Уайта «Король бывший и будущий». Ту же самую книгу читал Магнето перед приходом Страйкера.
☺ Декорации Овального Кабинета являются точной копией, однако коридоры, ведущие к нему, были намеренно сделаны шире, чем на самом деле, для того чтобы предоставить больше пространства для боевых сцен.
☺ Изначально Зверь и Гамбит должны были стать новыми персонажами, однако впоследствии было решено ввести в сюжет Попрыгуна.
☺ На зажигалке Пиро нарисовано акула, что является ссылкой на «Челюсти» (1975).
☺ Декорация Овального Кабинета впоследствии была использована для нескольких эпизодов сериала «Звездные врата» (1997).
☺ Ледяная стена, разделяющая Росомаху и Страйкера, во время их «первой» встречи на самом деле была сделана изо льда. Её вес составил 3500 фунтов (1587 килограммов).
☺ Нил Патрик Харрис проходил пробы на роль Попрыгуна.
☺ Фраза Магнето «Когда же эти люди научатся летать?» является ссылкой на некоторых персонажей комикса (например, Джин Грей), которые могут летать, но не пользуются данными способностями в фильме.
☺ Когда Мистик просматривает компьютерные файлы, чтобы узнать, где находится Магнето, на экране появляются несколько имен, являющихся ссылками на членов съёмочной группы: ДеСанто, Т. (Том ДеСанто, исполнительный продюсер), Догерти, М. (Майкл Догерти, сценарист), Доннер, Л. (Лоурен Шулер Доннер, продюсер), Янг, Р.Д. (скорее всего, Роб Янг, один из звукооператоров), Харрис, Д. (Дэн Харрис, сценарист), Сингер, Б. (Брайан Сингер, режиссер).
☺ Музыка, играющая в начальной сцене фильма, - «Dies Irae» из реквиема Моцарта.
☺ Изначально во время сцены, где пытаются убить всех мутантов, используя «Церебро», Брайан Сингер намеревался показать воздействие «Церебро» не только на мутантов, находящихся на базе Страйкера, но также и на мутантов во всем мире. В сцене должны были появиться Зверь и Гамбит. Сцена была снята, но не вошла в картину.
☺ Изначально в фильме должна была присутствовать сцена в «Danger Room», однако из-за сокращения бюджета с $125 до $110 миллионов было решено от неё отказаться.
☺ По словам Брайана Сингера, во время съёмок фильма он рассказал Фамке Янссен, что намеревается убить Джин Грей в концовке фильма, чтобы воскресить её в третьей части в образе Тёмного Феникса. Фамке без всяких возражений согласилась на такое развитие сюжета.

Люди Икс: Последняя битва / X-Men: The Last Stand«На чьей стороне будешь ты?»- Год выпуска: 2006
Страна: США, Канада, Великобритания
Жанр: фантастика, боевик
Продолжительность: 01:44:05
Перевод: Профессиональный (дублированный)-Режиссер:
Бретт Рэтнер / Brett Ratner
-В ролях:
Хью Джекман
Холли Берри
Иэн МакКеллен
Патрик Стюарт
Фамке Янссен
Анна Пэкуин
Келси Грэммер
Джеймс Марсден
Ребекка Ромин
Шон Эшмор ...
-Описание:
Людям Икс, во главе с профессором Чарльзом Ксавьером, приходится вступить в битву с самой эволюцией в лице их воскресшего товарища по команде... Джин Грэй, возрожденная в облике Темного Феникса, представляет опасность не только для самой себя, но и для мутантов и для всей человеческой расы.А когда наконец найдено возможное лекарство — то, что может предотвратить генетические мутации — наступает время решающей битвы между Людьми Икс, Братством Магнето и человечеством.
- -Бюджет: $210 000 000
Сборы в США: $234 362 462
Сборы в мире: + $224 893 546 = $459 256 008
Сборы в России: $6 071 371-Премьера (мир): 22 мая 2006
Премьера (РФ): 25 мая 2006
Релиз на DVD: 8 июля 2010
Релиз на Blu-Ray: 21 мая 2009-Качество: BDRip
Формат: AVI
Видео: 720x304 (2.35:1), 23.976 fps, XviD, 2 542 Kbps
Аудио: AC3, 448 Kbps, 48.0 KHz, 6 ch

Complete name : X-Men.The Last Stand.2006.BDRip.avi
Format : AVI
Format/Info : Audio Video Interleave
Format profile : OpenDML
File size : 2.18 GiB
Duration : 1h 44mn
Overall bit rate : 3 001 Kbps
Writing application : VirtualDubModRus 1.5.10.2 (build 2542/release)
Writing library : VirtualDubMod build 2542/release
Video
ID : 0
Format : MPEG-4 Visual
Format profile : Advanced [email protected]
Format settings, BVOP : Yes
Format settings, QPel : No
Format settings, GMC : No warppoints
Format settings, Matrix : Custom
Codec ID : XVID
Codec ID/Hint : XviD
Duration : 1h 44mn
Bit rate : 2 542 Kbps
Width : 720 pixels
Height : 304 pixels
Display aspect ratio : 2.35:1
Frame rate : 23.976 fps
Color space : YUV
Chroma subsampling : 4:2:0
Bit depth : 8 bits
Scan type : Progressive
Bits/(Pixel*Frame) : 0.484
Stream size : 1.85 GiB (85%)
Writing library : XviD 1.2.1 (UTC 2008-12-04)
Audio
ID : 1
Format : AC-3
Format/Info : Audio Coding 3
Mode extension : CM (complete main)
Codec ID : 2000
Duration : 1h 44mn
Bit rate mode : Constant
Bit rate : 448 Kbps
Channel(s) : 6 channels
Channel positions : Front: L C R, Side: L R, LFE
Sampling rate : 48.0 KHz
Bit depth : 16 bits
Stream size : 334 MiB (15%)
Alignment : Split accross interleaves
Interleave, duration : 42 ms (1.00 video frame)
Interleave, preload duration : 500 ms
-

☺ Изначально режиссером картины должен был стать Брайан Сингер. Однако он предпочел возглавить постановку многострадального «Супермэна». Эстафетную палочку передал ему никто иной как Брэтт Рэттнер. Брайан ушел из проекта по-королевски, прихватив с собой большую часть съемочной бригады во главе с композитором Джоном Оттманом и сценаристами Майком Догерти и Дэном Харрисом.
☺ Интересно, что Сингер заявил, что с удовольствием бы поработал над триквелом, если бы руководство студии «20th Century Fox» согласилось бы перенести дату релиза, но студия просто предпочла найти другую кандидатуру. Этим человеком должен был стать Мэттью Вон. Однако последний покинул проект спустя 9 недель по семейным обстоятельствам.
☺ Тогда режиссерское кресло предложили относительно свободному Брэтту Рэттнеру. Брэтт, претендовавший на получение вакансии режиссера еще в рамках дебютной картины френчайза, с радостью согласился.
☺ Мэгги Грэйс вела переговоры насчет получения роли Китти Прайд, однако впоследствии выяснилось, что график съемок картины совпадает с графиком съемок второго сезона сериала «Остаться в живых». Пригрозив расправиться с персонажем Мэгги, продюсеры сериала сумели отговорить актрису от участия в проекте.
☺ После того, как Мэгги покинула проект, продюсерам пришлось в срочном порядке искать замену. В конечном итоге роль досталась актрисе Эллен Пейдж.
☺ Роль Архангела мог получить Майк Фогель. Ему пришлось выбирать между двумя картинами: «Люди Икс 3» и «Посейдон». Майк выбрал последнее.
☺ Кроме Майка на эту роль в разное время претендовали Джед Бернард и Ник Сталь.
☺ Для одной из экшн-сцен была изготовлена точная копия моста «Golden Gate Bridge» протяженностью в 2,500 футов.
☺ Филипп Русселот был оператором фильма, когда Мэттью Вон числился режиссером, а также небольшой промежуток времени, после того как Бретт Рэтнер сел в режиссерское кресло. Впоследствии Филипп покинул проект, заявив, что он совершил самую большую ошибку в своей жизни, подписав контракт на съёмки данного фильма. После его ухода был нанят Данте Спинотти. Однако и он должен был покинуть проект за неделю до окончания съёмок. Джеймс Муро завершал съёмки.
☺ Изначальные ангельские крылья были слишком тяжелы для Бена Фостера, поэтому их переделали из пены.
☺ «Омолаживание» Патрика Стюарта в начальной сцене фильма было сделано на основе различных фотографий, посвященных выходу первого сезона «Star Trek: The Next Generation» (1987).
☺ Изначально Холли Берри не собиралась сниматься в фильме из-за довольно напряженных отношений с Брайаном Сингером, а также из-за второстепенной роли своего персонажа. Однако после того как Сингер покинул проект, а «Женщина-кошка» (2004) с треском провалилась в прокате, Берри согласилась сыграть в фильме, но только при значительном увеличении экранного времени своего персонажа.
☺ «Последняя битва» стала первым фильмом, где появляются все главные персонажи первоначальных комиксов о «Людях Икс»: Профессор Икс, Циклоп, Джин Грей, Айсмен, Зверь и Ангел. Положительные персонажи, которых зрители видели в первой или во второй частях трилогии, появились в комиксах спустя более, чем сто выпусков: Шторм, Росомаха, Колосс, Попрыгун. Китти Прайд появилась в комиксах после «Саги о Темном Фениксе», а Роуг – несколько лет спустя после Китти. Изначально Роуг была членом «Братства Мистик злых мутантов», куда также входили Пиро, Капля, Лавина и Судьба.
☺ Когда режиссером числился Брайан Сингер, он намеревался развивать сюжет вокруг Темного Феникса. Он также хотел, чтобы главным злодеем стала Эмма Фрост / Белая Королева. На данную роль он собирался пригласить Сигурни Уивер. После того как Сингер покинул проект, было решено не включать в сюжет Эмму Фрост, а историю о Темном Фениксе сделать одной из сюжетных линий, сфокусировав внимание на сюжетной линии о «лекарстве». В третьем фильме Брайан намеревался наконец-таки ввести в сюжет Гамбита. На данную роль он хотел пригласить Чаннинга Татума. После ухода Брайана, роль Гамбита сначала была сведена к камео, а затем и вовсе исключена из сценария.
☺ В фильме можно заметить Фэта и Спайка из комиксов «X-Statix».
☺ Номер на почтовом ящике Джин Грей – 1769.
☺ Фраза Джаггернаута «Ты знаешь, кто я? Я – Джаггернаут, {мат}» была включена в сценарий благодаря веб-пародии, позаимствовавшей сцены из «X-Men The Animated Series».
☺ Саммер Гло проходила пробы на роль Китти Прайд.
☺ Последняя сцена фильма с Магнето в парке «Golden Gate Park» была снята в Лондоне. Изначально Магнето должен был играть в шахматы с Мистик, однако Ребекка Ромин не смогла принять участия в съёмках из-за занятости на других проектах.
☺ Количество убитых: 56.
☺ В фильме у Каллисто абсолютно новые способности по сравнению с изображением данного персонажа в комиксах, где она обладала способностью мгновенно просчитывать тактические решения любой задачи. Её способности в фильме (невероятная скорость и способность определять местонахождения мутантов) являются комбинацией способностей Квиксилвера (сына Магнето) и Калибана либо Сэйджа.
☺ Сцена в «Danger Room» основана на комиксе «Days of Future Past», где Часовые охотились за мутантами в мире, погрязшем в многочисленных войнах. В комиксах, события сцены, которую мы видим в фильме, происходят в 2013 году.
☺ В комиксах, Лич – маленький зеленый мальчик. В фильме, он – обычный ребенок.
☺ Сцена на мосту основана на «New X-Men» #147. Только в комиксе действие происходило в Манхэттене.
☺ В фильме, Джаггернаут взят из вселенной «Ultimate X-Men», где он является мутантом.
☺ Сюжет фильма является комбинацией двух графических новелл. Первая – «Gifted» Джосса Уэдона, где шла речь о лекарстве от мутации, вторая – «The Dark Phoenix Saga» Криса Клэремонта и Джона Бирна (Uncanny X-Men #129-137).
☺ Роли Ребекки Ромин (Мистик) и Джеймса Мэрсдена (Циклоп) были значительно сокращены из-за занятости актеров на других проектах.
☺ Изначально Эллен Пейдж отвергла предложение сыграть Китти Прайд.
☺ Персонаж Траск – Боливар Траск. В комиксах он создаст стражей, охотящихся на мутантов.
☺ Хью Джекман, Холли Берри и Винни Джонс также сыграли вместе в фильме «Пароль «Рыба-меч» (2001).
☺ Для того чтобы лучше сыграть свою роль, Фамке Янссен прочитала множество книг о шизофрении.
☺ В августе 2007 года Мэттью Вон объяснил причину своего ухода с проекта. По словам Вона, студия оказывала на него огромное давление, требуя завершить съёмки фильма в рекордные сроки. При этом, по словам Вона, сценарий был довольно сырым и требовал тщательной доработки.
☺ Сцена с Магнето в парке, а также сцена после финальных титров отсутствовали в сценарии и были добавлены в сюжет уже по ходу съёмок. По словам Йена МакКеллена и Патрика Стюарта, даже они не знали, войдут ли данные сцены в финальный вариант картины.
☺ Съемочной группе не разрешили ставить на мосту кинокамеры, и поэтому Джон Бруно и его помощники ограничились тем, что сделали большое количество фотоснимков как с моста, так и с берега. Они жаловались, что им очень не повезло с погодой – в Сан-Франциско они приехали в середине лета, когда в городе постоянно стоят туманы, и были вынуждены ловить редкие просветы. Часть материала удалось отснять с вертолета, хотя из соображений безопасности слишком близко подлетать к мосту им тоже не позволяли. В результате около 90% «живых» кадров с мостом требовали цифровой корректировки – соответствующего фона или добавления машин.
☺ Для подготовки к роли Ангела Бен Фостер специально нарастил мышцы — до того не особенно друживший со спортом Фостер несколько месяцев усиленно занимался в спортзале, чтобы его персонаж выглядел на экране более правдоподобно, так как по его мнению огромные крылья на субтильном теле смотрелись бы неправдоподобно.
☺ В сцене, где Росомаха приходит спасти Джину Грей в лагерь мутантов Магнето, на него нападает мутант, метающий шипы. Два шипа попадают Росомахе в живот, разрывая майку. В следующей сцене майка на нём уже без дыр от шипов.

Люди Икс: Начало. Росомаха / X-Men Origins: Wolverine«Узнай, с чего начиналась легенда»- Год выпуска: 2009
Страна: США
Жанр: фантастика, боевик
Продолжительность: 01:47:21
Перевод: Профессиональный (дублированный)-Режиссер:
Гэвин Худ / Gavin Hood
-В ролях:
Хью Джекман
Лив Шрайбер
Дэнни Хьюстон
Уилл Ай Эм
Линн Коллинз
Кевин Дюран
Доминик Монахэн
Тейлор Китч
Дэниэл Хенни
Райан Рейнольдс ...
-Описание:
Фильм рассказывает о неистовом и романтичном прошлом Росомахи, его сложных отношениях с Виктором Кридом и о зловещей программе Оружие Х. При этом Росомаха встречается со многими мутантами, уже знакомыми и новыми, и узнает несколько легенд о мире Людей Икс.
- -Бюджет: $150 000 000
Сборы в США: $179 883 157
Сборы в мире: + $193 179 412 = $373 062 569
Сборы в России: $7 678 167-Премьера (мир): 8 апреля 2009
Премьера (РФ): 29 апреля 2009
Релиз на DVD: 28 мая 2009
Релиз на Blu-Ray: 27 августа 2009-Качество: BDRip
Формат: AVI
Видео: 720x304 (2.35:1), 23.976 fps, XviD, 2 450 Kbps
Аудио: AC3, 448 Kbps, 48.0 KHz, 6 ch

Complete name : X-Men.Origins.Wolverine.2009.BDRip.avi
Format : AVI
Format/Info : Audio Video Interleave
Format profile : OpenDML
File size : 2.18 GiB
Duration : 1h 47mn
Overall bit rate : 2 910 Kbps
Writing application : VirtualDubModRus 1.5.10.2 (build 2542/release)
Writing library : VirtualDubMod build 2542/release
Video
ID : 0
Format : MPEG-4 Visual
Format profile : Advanced [email protected]
Format settings, BVOP : Yes
Format settings, QPel : No
Format settings, GMC : No warppoints
Format settings, Matrix : Custom
Codec ID : XVID
Codec ID/Hint : XviD
Duration : 1h 47mn
Bit rate : 2 450 Kbps
Width : 720 pixels
Height : 304 pixels
Display aspect ratio : 2.35:1
Frame rate : 23.976 fps
Color space : YUV
Chroma subsampling : 4:2:0
Bit depth : 8 bits
Scan type : Progressive
Bits/(Pixel*Frame) : 0.467
Stream size : 1.84 GiB (84%)
Writing library : XviD 1.2.1 (UTC 2008-12-04)
Audio
ID : 1
Format : AC-3
Format/Info : Audio Coding 3
Mode extension : CM (complete main)
Codec ID : 2000
Duration : 1h 47mn
Bit rate mode : Constant
Bit rate : 448 Kbps
Channel(s) : 6 channels
Channel positions : Front: L C R, Side: L R, LFE
Sampling rate : 48.0 KHz
Bit depth : 16 bits
Stream size : 344 MiB (15%)
Alignment : Split accross interleaves
Interleave, duration : 42 ms (1.00 video frame)
Interleave, preload duration : 500 ms
-

☺ «Росомаха» и «Люди Икс: Последняя битва» (2006) - это первые фильмы, которые были спродюсированы новой компанией Хью Джекмана и Джона Палермо «Seed Productions».
☺ Зак Снайдер и Брайан Сингер отказались от предложения поставить картину. Снайдер был слишком занят разработкой «Хранителей» (2009). Сингер был согласен сделать картину, но только с рейтингом «R». Однако Хью Джекман и Лорен Шулер Доннер настаивали на рейтинге «PG-13».
☺ В свое время Лен Уайзмен высказывал заинтересованность в постановке картины.
☺ Лен Вэйн и Джон Ромита создали Росомаху в 1970-х; Крис Клэрмент и Джон Бирн придумали Саблезубого в 1980-х; Дедпул появился на страницах комиксов в 1990-х благодаря Фабиану Нициезе и Робу Лифелду; Ларри Хама придумал Джона Рэйта в 1990-х.
☺ Райан Рейнольдс должен был сыграть Дедпула в одноименном фильме, разработкой которого занимался Дэвид С. Гойер после «Блэйд: Троица» (2004).
☺ Лив Шрайбер получил роль, после того как его друг, Хью Джекман, спросил его, не хочет ли он сыграть в фильме. Изначально Лив должен был сыграть Страйкера.
☺ Саблезубый, Росомаха и Дедпул впервые появились не на страницах комиксов о «Людях Икс». Первое появление Саблезубого произошло в «Железном кулаке» №14, Росомахи – «Невероятном Халке» №181.
☺ 1 апреля пиратами была украдена рабочая версия фильма.
☺ За одним покерным столом с Гамбитом сидел известный покерный игрок Дэниел Негреану, долгое время являвшийся самым молодым в истории победителем турнира Мировой серии WSOP. Общие турнирные выигрыши Негреану приближаются к 11 миллионам долларов.
☺ Роль Гамбита мог получить актёр Ченнинг Татум, но ему не удалось согласовать рабочий график, и роль досталась Тэйлору Китчу.
☺ Джерард Батлер и Карл Урбан рассматривались на роль Виктора Крида.
☺ Мишель Монахэн отказалась от роли Кайлы Сельверфокс, потому что ей не удалось согласовать свой график.
☺ На роль Уильяма Страйкера рассматривался Майкл С. Холл.
☺ «Росомаха» стал первым фильмом о Людях Икс, где появился Гамбит. В комиксах у Гамбита полностью чёрные глаза с красными зрачками, в фильме они зелёные и краснеют только тогда, когда он применяет свои сверхспособности.
☺ Райан Рейнольдс (Дэдпул) и Уэсли Снайпс (Блэйд) — единственные актёры, сыгравшие персонажей вселенной «Marvel» в экранизациях, которые не проходили прослушивание на роль.
☺ Одновременно с фильмом вышла компьютерная игра с одноименным названием, включающая как немного переработанные и дополненные 3-д сцены из фильма, так и другие (новые) подробности сюжета. В частности рассказывается о создании Стражей учёным Траском и будущем, в котором мутантов почти истребили Стражи. В игре появляется юная Мистик.
☺ Росомаха был создан сценаристом Лином Уэйном в 1974-ом году в комиксе The Incredible Hulk #180. За основу фильма взяты несколько сюжетов, таких как Weapon X и Origin.

Люди Икс: Первый класс / X-Men: First Class«Стань свидетелем того, как изменится наш мир»- Год выпуска: 2011
Страна: США
Жанр: фантастика, боевик
Продолжительность: 02:11:42
Перевод: Профессиональный (дублированный)-Режиссер:
Мэттью Вон / Matthew Vaughn
-В ролях:
Джеймс МакЭвой
Майкл Фассбендер
Кевин Бейкон
Роуз Бирн
Николас Холт
Лукас Тилл
Дженнифер Лоуренс
Калеб Лэндри Джонс
Зои Кравиц
Дженьюэри Джонс ...
-Описание:
Фильм нам расскажет о том, как сформировались профессор Ксавье и Магнито, о процессе основания школы Ксавье для детей-мутантов и, наконец, о том, что же произошло между двумя закадычными друзьями и почему они расстались.
- -Бюджет: $160 000 000
Сборы в США: $146 408 305
Сборы в мире: + $207 215 819 = $353 624 124
Сборы в России: $9 393 354-Премьера (мир): 25 мая 2011
Премьера (РФ): 2 июня 2011
Релиз на DVD: 14 июля 2011
Релиз на Blu-Ray: 20 октября 2011-Качество: BDRip
Формат: AVI
Видео: 720x304 (2.35:1), 23.976 fps, XviD, 1 913 Kbps
Аудио: AC3, 448 Kbps, 48.0 KHz, 6 ch

Complete name : X-Men.First Class.2011.BDRip.avi
Format : AVI
Format/Info : Audio Video Interleave
Format profile : OpenDML
File size : 2.18 GiB
Duration : 2h 11mn
Overall bit rate : 2 374 Kbps
Writing application : VirtualDubModRus 1.5.10.2 (build 2542/release)
Writing library : VirtualDubMod build 2542/release
Video
ID : 0
Format : MPEG-4 Visual
Format profile : Advanced [email protected]
Format settings, BVOP : Yes
Format settings, QPel : No
Format settings, GMC : No warppoints
Format settings, Matrix : Custom
Codec ID : XVID
Codec ID/Hint : XviD
Duration : 2h 11mn
Bit rate : 1 913 Kbps
Width : 720 pixels
Height : 304 pixels
Display aspect ratio : 2.35:1
Frame rate : 23.976 fps
Color space : YUV
Chroma subsampling : 4:2:0
Bit depth : 8 bits
Scan type : Progressive
Bits/(Pixel*Frame) : 0.365
Stream size : 1.76 GiB (81%)
Writing library : XviD 1.2.1 (UTC 2008-12-04)
Audio
ID : 1
Format : AC-3
Format/Info : Audio Coding 3
Mode extension : CM (complete main)
Codec ID : 2000
Duration : 2h 11mn
Bit rate mode : Constant
Bit rate : 448 Kbps
Channel(s) : 6 channels
Channel positions : Front: L C R, Side: L R, LFE
Sampling rate : 48.0 KHz
Bit depth : 16 bits
Stream size : 422 MiB (19%)
Alignment : Split accross interleaves
Interleave, duration : 42 ms (1.00 video frame)
Interleave, preload duration : 500 ms
-

☺ Герои Николаса Холта и Джеймса МакЭвоя во время пробежки говорят о докторе Джекилле. Примечательно, что Джейсон Флеминг, актёр, исполнивший роль Азазеля, играл доктора Джекилла в фильме «Лига выдающихся джентельменов» (2003).
☺ Подводная лодка Себастьяна Шоу носит название «Каспартина» в честь детей режиссера Мэттью Вона — Каспара и Клементины. Такое же название носит корабль в другом фильме Мэттью Вона — «Звездная пыль».
☺ На роль Зверя продюсеры хотели пригласить Тэйлора Лотнера.
☺ Сцена в концлагере помечена 1944 годом. В сцене с маленьким Эриком в кабинете Себастьяна Шоу, последний включает музыку «La Vie en rose», которая фактически была написана в 1946-м.
☺ Во время финальных титров играет песня группы Take That - «Love Love». Финальную песню другого фильма Мэттью Вона - «Звездной Пыли» так же пели Take That. Она называлась «Rule The World».
☺ Сцена в концлагере, в которой Эрика разлучают с родителями, частично смонтирована из фильма «Люди Икс» 2000 г. Кадры гнущихся ворот, а так же солдата ударяющего прикладом Эрика и даже последовательность некоторых срезок - точная копия старой сцены.
☺ Вертолет модели Westland Bell 47G впервые появился в 1966 году.
☺ На монете, которую доктор Шмидт дал Эрику Леншеру, выгравирован год 1934. В действительности такой дизайн со свастикой и имперским орлом монета приобрела после 1936 года.
☺ Среди запущенных в мутантов ракет замечены модели Гарпун RGM-84, созданная в 1977 году, а также Томагавк RGM-109, вступившая в производство после 1983 года.
☺ Когда администрация курорта на острове Джекилла согласилась принять группу «Первого класса», она поставила перед продюсерами условие: по окончании работы киношники должны были засыпать пляж новым, высококачественным песком.
☺ Несмотря на то, что любая русская речь в американских фильмах переозвучивается, в настоящем фильме можно услышать непереозвученные фрагменты. Например, советский радист, передающий приказ «Аральскому морю» повернуть назад, остался из американской версии фильма. Как и советский генерал, «забавляющийся» с Эммой Фрост на кровати.
☺ МакЭвой планировал скопировать произношение Патрика Стюарта, но Мэттью Вон сказал, что это непринципиально и ему больше нравится мягкий шотландский акцент Джэймса МакЭвоя.
Download / Скачать

Хотите скачать бесплатно? Зарегистрируйтесь на сайте (ссылка на регистрацию). Pirat.ca - самый быстрый торрент трекер в рунете!

Как скачивать  ·   Что такое торрент  ·   Рейтинг и ограничения

Пост 12-Апр-2012 11:27 (спустя 42 минуты)

Топик был перенесен из форума Художественные фильмы (Зарубежное кино) в форум Зарубежное Кино

ara1205
 

Kaper ®

3483

Пост 12-Апр-2012 12:30 (спустя 1 час 44 минуты)

[Q] 

Раздаю с работы, поэтому скорость не айс. Вечером буду дома - скорость будет норм.

_________________
[Профиль]  [ЛС] 

wirtual

Гроза морей

Пост 12-Апр-2012 18:28 (спустя 5 часов)

[Q] 


_________________
не будешь делиться - останешься одноклеточным
[Профиль]  [ЛС] 

terminator1978

Шкипер

Пост 13-Апр-2012 12:15 (спустя 17 часов)

[Q] 

[Профиль]  [ЛС] 

Ded1

Корсар

Пост 27-Апр-2012 11:59 (спустя 13 дней)

[Q] 

Благодарю.
[Профиль]  [ЛС] 

stefankill

Штурман

Пост 12-Фев-2013 19:27 (спустя 9 месяцев 15 дней)

[Q] 


_________________
Быть пиратом это искусство.
[Профиль]  [ЛС] 

bubkik2013

Лоцман

Пост 16-Фев-2013 15:09 (спустя 3 дня)

[Q] 

[Профиль]  [ЛС] 

гришасемечкин

Корсар

1172

Пост 01-Мар-2013 21:48 (спустя 13 дней)

[Q] 

спасибо. по больше бы таких раздач anime6
[Профиль]  [ЛС] 

okorm

889

Пост 13-Апр-2013 15:54 (спустя 1 месяц 11 дней)

[Q] 

[Профиль]  [ЛС] 

vodoleii

Шкипер

Пост 25-Май-2013 19:28 (спустя 1 месяц 12 дней)

[Q] 

Отличные фильмы!
[Профиль]  [ЛС] 

Malacoda

Лоцман

Пост 25-Сен-2013 21:35 (спустя 4 месяца)

[Q] 

Спасибо за раздачу.
[Профиль]  [ЛС] 

step0ne

Лоцман

Пост 29-Сен-2013 13:53 (спустя 3 дня)

[Q] 

Скачаю встану на раздачу) Всем качать!!! Супер!
[Профиль]  [ЛС] 

ubadm

Морской Волк

Пост 09-Ноя-2013 16:42 (спустя 1 месяц 10 дней)

[Q] 

Спасибо!!! Все части прикольные
[Профиль]  [ЛС] 

Cale Laurea

Морской Волк

144

Пост 26-Янв-2014 11:28 (спустя 2 месяца 16 дней)

[Q] 

Насчет "все части прикольные" я бы поспорила, но пересмотреть можно все
[Профиль]  [ЛС] 

XAPOH

Гроза морей

Пост 12-Ноя-2014 22:21 (спустя 9 месяцев 17 дней)

[Q] 

Посмотрю-ка я все серии подряд ))) Спасибо!!! Лови бочку

_________________

<<<Dolus an virtus quis in hoste requirat?>>>
Intel Core i7 2600, 16Gb Ram, GTX 670, SSD.
PS4.
[Профиль]  [ЛС] 

fiona-d

Шкипер

32

Пост 11-Апр-2015 13:51 (спустя 4 месяца 28 дней)

[Q] 

прикольно, спасибо! ) !COOL!
[Профиль]  [ЛС] 

anti-blood

Лоцман

Пост 07-Авг-2015 01:18 (спустя 3 месяца 25 дней)

[Q] 

а еще две последние где? бессмертный и дни минувшего будущего
[Профиль]  [ЛС] 

xzxscorpxzx

Флибустьер

Пост 14-Сен-2015 01:29 (спустя 1 месяц 7 дней)

[Q] 

надо пересмотреть) Спасибо!!!
[Профиль]  [ЛС] 

olipov

Легенда

Пост 02-Сен-2016 17:07 (спустя 11 месяцев 18 дней)

[Q] 

Спасибо!!!
[Профиль]  [ЛС] 
Показать сообщения:    
Ответить на тему

Текущее время: Сегодня 14:14

Часовой пояс: GMT + 4



Вы не можете начинать темы
Вы не можете отвечать на сообщения
Вы не можете редактировать свои сообщения
Вы не можете удалять свои сообщения
Вы не можете голосовать в опросах
Вы не можете прикреплять файлы к сообщениям
Вы не можете скачивать файлы

▼ Вниз