ML
     
  Уважаемый Гость!
Вы можете поддержать проект и зарегистрироваться у наших партнеров - онлайн-стратегия MyLands. При регистрации в игре Вы получите код, который сможете активировать после регистрации на pirat.ca и получить 1000 дублонов.

Ваш код:
0af2e2107bc9b5dd5ac2c09f9fc25e1a77c43887
 
     

Железный человек - Дилогия / Iron Man - Dilogy (Джон Фавро / Jon Favreau) [2008, 2010 гг., фантастика, боевик, BDRip]

Ответить на тему
 
Автор
Сообщение

Пост 16-Апр-2012 15:54

[Q] 

Kaper


Железный человек / Iron Man«Героями не рождаются. Героями становятся.»- Год выпуска: 2008
Страна: США
Жанр: фантастика, боевик
Продолжительность: 02:05:57
Перевод: Профессиональный (дублированный)-Режиссер:
Джон Фавро / Jon Favreau
-В ролях:
Роберт Дауни мл.
Джефф Бриджес
Гвинет Пэлтроу
Терренс Ховард
Джон Фавро
Лесли Бибб
Шон Тоуб
Фаран Таир
Кларк Грегг
Билл Смитрович ...
-Описание:
Миллиардер изобретатель Тони Старк попадает в плен к Афганским террористам, которые пытаются заставить его создать оружие массового поражения. В тайне от своих захватчиков Старк конструирует высокотехнологичную киберброню, которая помогает ему сбежать. Однако по возвращению в США он узнаёт, что в совете директоров его фирмы плетётся заговор, чреватый страшными последствиями. Используя своё последнее изобретение, Старк пытается решить проблемы своей компании радикально...
- -Бюджет: $140 000 000
Сборы в США: $318 412 101
Сборы в мире: + $263 279 727 = $581 691 828
Сборы в России: $9 491 200-Премьера (мир): 14 апреля 2008
Премьера (РФ): 1 мая 2008
Релиз на DVD: 30 сентября 2008
Релиз на Blu-Ray: 14 апреля 2009-Качество: BDRip
Формат: AVI
Видео: 720x304 (2.35:1), 23.976 fps, XviD, 2 022 Kbps
Аудио: AC3, 448 Kbps, 48.0 KHz, 6 ch

Complete name : IronMan I.2008.BDRip.avi
Format : AVI
Format/Info : Audio Video Interleave
Format profile : OpenDML
File size : 2.18 GiB
Duration : 2h 5mn
Overall bit rate : 2 482 Kbps
Writing application : VirtualDubModRus 1.5.10.2 (build 2542/release)
Writing library : VirtualDubMod build 2542/release
Video
ID : 0
Format : MPEG-4 Visual
Format profile : Advanced [email protected]
Format settings, BVOP : Yes
Format settings, QPel : No
Format settings, GMC : No warppoints
Format settings, Matrix : Custom
Codec ID : XVID
Codec ID/Hint : XviD
Duration : 2h 5mn
Bit rate : 2 022 Kbps
Width : 720 pixels
Height : 304 pixels
Display aspect ratio : 2.35:1
Frame rate : 23.976 fps
Color space : YUV
Chroma subsampling : 4:2:0
Bit depth : 8 bits
Scan type : Progressive
Bits/(Pixel*Frame) : 0.385
Stream size : 1.78 GiB (81%)
Writing library : XviD 1.2.1 (UTC 2008-12-04)
Audio
ID : 1
Format : AC-3
Format/Info : Audio Coding 3
Mode extension : CM (complete main)
Codec ID : 2000
Duration : 2h 5mn
Bit rate mode : Constant
Bit rate : 448 Kbps
Channel(s) : 6 channels
Channel positions : Front: L C R, Side: L R, LFE
Sampling rate : 48.0 KHz
Bit depth : 16 bits
Stream size : 404 MiB (18%)
Alignment : Split accross interleaves
Interleave, duration : 42 ms (1.00 video frame)
Interleave, preload duration : 500 ms
-

☺ Дизайн костюма «Марк 3» был создан Филом Сандерсом и Ади Грановом (художник комиксов про Железного Человека). Сам костюм, затем, был сконструирован Stan Winston Studios.
☺ Роберт Дауни Младший, после окончания съемок фильма 26 июня 2007 года, стал вовлечен в 8-месячную работу со спецэффектами, чтобы с точностью передать все движения Железного Человека.
☺ Пеппер Потс использует телефон LG KS20. Тони Старк - LG VX9400. Джим Роудз - LG KG810.
☺ После титров следует небольшая бонусная сцена для самых терпеливых зрителей. В ней появляется Сэмюэль Л. Джексон в роли Ника Фьюри.
☺ Заключительная схватка напоминает драку Робокопа и металлического наркоторговца Кейна из фильма «Робокоп-2».
☺ Это первый фильм, полностью финансировавшийся Marvel Studios.
☺ Джон Фавро решил снимать фильм в Калифорнии, так как, по его мнению, слишком много фильмов про супергероев было снято на Восточном побережье, в частности в Нью-Йорке.
☺ Николас Кейдж и Том Круз были заинтересованы в исполнении роли Железного Человека. В частности, Том Круз планировал спродюсировать фильм и исполнить главную роль.
☺ По уже сложившийся традиции, автор комикса Стэн Ли снялся в камео: он играет человека, которого главный герой по ошибке принимает за Хью Хефнера - создателя «Плейбоя».
☺ В фильме неоднократно звучит музыкальная тема из мультфильма «Железный Человек» 1966-го (казино, постельная сцена и рингтон на мобильнике Роудса).
☺ Прототипом Тони Старка является изобретатель Говард Хьюз.
☺ Во время съемки сцены с танком кинематографисты разбили камеру.
☺ В сцене, где Пеппер в мастерской обнаруживает снимающего броню Тони, можно заметить частично собранный щит Капитана Америка.
☺ В ранней версии сценария выяснялось, что Тони Старк является создателем щупалец доктора Отто «Осьминога» Октавиуса из «Человека-Паука 2»(2004).
☺ Пол Беттани озвучил все реплики Джарвиса за 2 часа.
☺ Изначально, главным злодеем должен был стать Мандарин, однако Джон Фавро посчитал его слишком фантастическим и устаревшим. Если бы Мандарин и появился в фильме, то в качестве индонезийского террориста.
☺ На роль Тони Старка рассматривались кандидатуры Клайва Оуэна и Сэма Рокуэлла.
☺ По данному фильму была сделана одноименная игра.
☺ Гвинет Пэлтроу согласилась на роль Вирджинии Пеппер Поттс при условии, что съемки с ее участием будут проходить недалеко от дома. В итоге на площадку Пэлтроу добиралась за 15 минут.

Железный человек 2 / Iron Man 2- Год выпуска: 2010
Страна: США
Жанр: фантастика, боевик
Продолжительность: 02:04:39
Перевод: Профессиональный (дублированный)-Режиссер:
Джон Фавро / Jon Favreau
-В ролях:
Роберт Дауни мл.
Гвинет Пэлтроу
Дон Чидл
Скарлетт Йоханссон
Сэм Рокуэлл
Микки Рурк
Сэмюэл Л. Джексон
Кларк Грегг
Джон Слэттери
Гарри Шендлинг ...
-Описание:
Прошло полгода с тех пор, как мир узнал, что миллиардер-изобретатель Тони Старк является обладателем уникальной кибер-брони Железного человека. Общественность требует, чтобы Старк передал технологию брони правительству США, но Тони не хочет разглашать её секреты, потому что боится, что она попадёт не в те руки. Между тем Иван Ванко — сын русского учёного, когда-то работавшего на фирму Старка, но потом уволенного и лишенного всего, намерен отомстить Тони за беды своей семьи. Для чего сооружает своё высокотехнологичное оружие.
- -Бюджет: $200 000 000
Сборы в США: $312 433 331
Сборы в мире: + $309 623 754 = $622 057 085
Сборы в России: $14 764 241-Премьера (мир): 26 апреля 2010
Премьера (РФ): 29 апреля 2010
Релиз на DVD: 5 октября 2010
Релиз на Blu-Ray: 5 октября 2010-Качество: BDRip
Формат: AVI
Видео: 720x304 (2.35:1), 23.976 fps, XviD, 2 048 Kbps
Аудио: AC3, 448 Kbps, 48.0 KHz, 6 ch

Complete name : IronMan II.2010.BDRip.avi
Format : AVI
Format/Info : Audio Video Interleave
Format profile : OpenDML
File size : 2.18 GiB
Duration : 2h 4mn
Overall bit rate : 2 507 Kbps
Writing application : VirtualDubModRus 1.5.10.2 (build 2542/release)
Writing library : VirtualDubMod build 2542/release
Video
ID : 0
Format : MPEG-4 Visual
Format profile : Advanced [email protected]
Format settings, BVOP : Yes
Format settings, QPel : No
Format settings, GMC : No warppoints
Format settings, Matrix : Custom
Codec ID : XVID
Codec ID/Hint : XviD
Duration : 2h 4mn
Bit rate : 2 048 Kbps
Width : 720 pixels
Height : 304 pixels
Display aspect ratio : 2.35:1
Frame rate : 23.976 fps
Color space : YUV
Chroma subsampling : 4:2:0
Bit depth : 8 bits
Scan type : Progressive
Bits/(Pixel*Frame) : 0.390
Stream size : 1.78 GiB (82%)
Writing library : XviD 1.2.1 (UTC 2008-12-04)
Audio
ID : 1
Format : AC-3
Format/Info : Audio Coding 3
Mode extension : CM (complete main)
Codec ID : 2000
Duration : 2h 4mn
Bit rate mode : Constant
Bit rate : 448 Kbps
Channel(s) : 6 channels
Channel positions : Front: L C R, Side: L R, LFE
Sampling rate : 48.0 KHz
Bit depth : 16 bits
Stream size : 399 MiB (18%)
Alignment : Split accross interleaves
Interleave, duration : 42 ms (1.00 video frame)
Interleave, preload duration : 500 ms
-

☺ Аль Пачино рассматривался на роль Джастина Хаммера.
☺ Фэнн Вонг и Чжан Цзыи рассматривались на роль Румико Фуджикавы.
☺ Эмили Блант должна была сыграть Черную Вдову, но ей пришлось отказаться от роли из-за занятости на «Путешествиях Гулливера» (2010).
☺ Геннадий Тартаковский сделал раскадровки к экшн-сценам фильма.
☺ Микки Рурк посоветовал, чтобы его персонаж частично говорил на русском.
☺ Роберт Дауни-мл. порекомендовал Джастина Теру Джону Фавро в качестве сценариста фильма.
☺ Первый сиквел, спродюсированный студией Marvel Studios.
☺ Первый сиквел Джона Фавро и как режиссера, и как актера.
☺ Дон Чидл заменил Терренса Ховарда в роли Роуди, после ухудшения отношений между Терренсом и студией Marvel Studios.
☺ Хлыст (Микки Рурк), как он изображен в фильме, – сочетание двух злодеев Железного человека – Хлыста, владеющего специальным хлыстом, и Кримсон Динамо, носящего броню, контролирующую электричество.
☺ Сэмюэл Л. Джексон, появившись в первом фильме в роли Ника Фьюри, перед началом съёмок второй части заключил уникальную сделку с Marvel Studio, согласно условиям которой он появится в девяти фильмах в образе Ника.
☺ Скарлетт Йоханссон настолько сильно хотела получить роль Черной Вдовы, что покрасила волосы в рыжий цвет, еще до того как её утвердили на роль.
☺ По словам Дона Чидла, он пытался сыграть Роуди по-своему, однако, в конце концов, большую часть образа он скопировал с Терренса Ховарда.
☺ Для роли Черной Вдовы Скарлетт Йоханссон усиленно тренировалась шесть недель до начала съёмок и продолжала тренировки на протяжении шестимесячного съёмочного периода.
☺ Сэм Рокуэлл, сыгравший Джастин Хаммера, рассматривался на роль Тони Старка в первой части.
☺ В комиксе Джастин Хаммер – пожилой человек, однако для фильма его специально «омолодили», чтобы он лучше подходил на роль соперника Тони Старка.
☺ Дизайн хлыстов Ванко вдохновлен световыми мечами джедаев из «Звездных войн».
☺ В качестве Черной Вдовы продюсеры рассматривали Эмили Блант, Джессику Бил, Джессику Альбу, Натали Портман и Анджелину Джоли.
☺ Йоханссон вдохновлялась игрой Греты Гарбо в «Ниночке» (1939) и Барбары Бах в «Шпион, который меня полюбил».
☺ В фильме показан атрибут другого героя Marvel Comics - щит героя Капитан Америка.
☺ В ящике с вещами отца Тони Старка, полученном от Ника Фьюри, можно заметить реально вышедший в послевоенный период выпуск комикса «Капитан Америка».
☺ Как и в первой части, Тони Старк принимает за кого-то другого Стэна Ли. В этой части он принял его за Ларри Кинга.
☺ После финальных титров можно заметить атрибут другого персонажа вселенной Marvel - молот Тора.
☺ Саундтрек к первой части фильма был в основном написан немцем иранского происхождения Рамином Джавади. В сиквеле же Фавро полностью изменил подход к звуковой дорожке. На сей раз туда вошли песни легендарных австралийцев AC/DC, в частности композиции Shoot to thrill, Back in Black, T.N.T, Highway to Hell и Thunderstruck.
☺ Рурк очень хотел очеловечить своего злодея, чтобы он не был однобоким, поэтому режиссер Джон Фавро «разрешил» Ванко завести в тюремной камере попугая какаду.
Download / Скачать

Хотите скачать бесплатно? Зарегистрируйтесь на сайте (ссылка на регистрацию). Pirat.ca - самый быстрый торрент трекер в рунете!

Как скачивать  ·   Что такое торрент  ·   Рейтинг и ограничения

Пост 16-Апр-2012 17:04 (спустя 1 час 10 минут)

Топик был перенесен из форума Художественные фильмы (Зарубежное кино) в форум Зарубежное Кино

ara1205
 

kennymcc

Шкипер

Пост 19-Апр-2012 17:11 (спустя 3 дня)

[Q] 

ay

_________________
[Профиль]  [ЛС] 

Chiochanka

Морской Волк

Пост 07-Май-2012 18:11 (спустя 18 дней)

[Q] 

[Профиль]  [ЛС] 

kirk27

Штурман

Пост 14-Май-2012 21:23 (спустя 7 дней)

[Q] 

Как качество ?
[Профиль]  [ЛС] 

ChezaA

Морской Волк

Пост 17-Май-2012 16:58 (спустя 2 дня 19 часов)

[Q] 

[Профиль]  [ЛС] 

SBalykov

Корсар

1453

Пост 17-Июн-2012 07:02 (спустя 30 дней)

[Q] 

Жаль что наших инженеров-изобретателей выставляют в таком неприглядном виде...

_________________
Never put off till tomorrow what can be done after tomorrow...
S.Balykov
[Профиль]  [ЛС] 

din23

Корсар

531

Пост 02-Июл-2012 23:18 (спустя 15 дней)

[Q] 

Только сейчас решил посмотреть, т.к. никогда не нравился железный человек(мультфильмы, комиксы). В общем фильмы супер, и чем отличаются от остальных супергероиских фильмов, так это отличным юмором. По спецэффектам даже сейчас кажутся современными (хотя перврму уже больше 3-х лет).-Из минусов так это - как показана Россия во второй части, снято как будто мы живем в какой-то советской каторге. Хотя.. к этому уже все привыкли)

_________________
[Профиль]  [ЛС] 

okorm

889

Пост 11-Авг-2012 14:21 (спустя 1 месяц 8 дней)

[Q] 

[Профиль]  [ЛС] 

Дудинский

Шкипер

Пост 08-Янв-2013 11:34 (спустя 4 месяца 27 дней)

[Q] 

[Профиль]  [ЛС] 

Yayca_mk3

Лоцман

Пост 20-Мар-2013 19:47 (спустя 2 месяца 12 дней)

[Q] 

Автору - душевное спасибо!
[Профиль]  [ЛС] 

vodoleii

Шкипер

Пост 25-Май-2013 19:37 (спустя 2 месяца 4 дня)

[Q] 

[Профиль]  [ЛС] 

vik238

Корсар

Пост 17-Июл-2013 19:29 (спустя 1 месяц 22 дня)

[Q] 

[Профиль]  [ЛС] 

rai

296

Пост 08-Май-2014 09:30 (спустя 9 месяцев 21 день)

[Q] 

Спасибо! Поддерживаю раздачу!
[Профиль]  [ЛС] 

xzxscorpxzx

Флибустьер

Пост 14-Сен-2015 07:01 (спустя 1 год 4 месяца)

[Q] 

отличный фильм! Лови бочку
[Профиль]  [ЛС] 
Показать сообщения:    
Ответить на тему

Текущее время: Сегодня 00:08

Часовой пояс: GMT + 4



Вы не можете начинать темы
Вы не можете отвечать на сообщения
Вы не можете редактировать свои сообщения
Вы не можете удалять свои сообщения
Вы не можете голосовать в опросах
Вы не можете прикреплять файлы к сообщениям
Вы не можете скачивать файлы

▼ Вниз