ML
     
  Уважаемый Гость!
Вы можете поддержать проект и зарегистрироваться у наших партнеров - онлайн-стратегия MyLands. При регистрации в игре Вы получите код, который сможете активировать после регистрации на pirat.ca и получить 1000 дублонов.

Ваш код:
2932e5898d0a27592397f70b82a5834d1e70ea19
 
     

Снайпер [Трилогия] / Sniper [Trilogy] (Луис Ллоса / Luis Llosa, Крэйг Р. Бэксли / Craig R. Baxley, П.Дж. Пеше / P.J. Pesce) [1993 - 2004 гг., боевик, драма, триллер, DVDRip] МVO + AVO (Гаврилов, Гоблин)

Ответить на тему
 
Автор
Сообщение

Пост 20-Апр-2012 12:54

[Q] 

Gekon86ru

Морской Волк

Снайпер (Том Беренджер)
Трилогия
-Снайпер / Sniper
Год выпуска: 1993
Мировая премьера: 29 января 1993
Дата выхода DVD: 5 марта 2009
Производство: США, Перу
Жанр: боевик, драма, триллер
Продолжительность: 01:39:00
Перевод: Профессиональный (многоголосый, закадровый)
Перевод 2: Профессиональный (одноголосый, закадровый) [Gavrilov]
Перевод 3: Профессиональный (одноголосый, закадровый) [Goblin]
Оригинальный аудиопоток: английский
Субтитры: русские, английские
Режиссер: Луис Ллоса / Luis Llosa
В ролях
Том Беренджер
Билли Зейн
Дж.Т. Уолш
Аден Янг
Кен Рэдли
Рейнальдо Аренас
Гэри Суонсон
Хэнк Гаррет
Фредерик Миральотта
Ванесса Стил
Описание
В мрачных джунглях Панамы затевается сходняк, на который должен прибыть знатный наркобарон из Колумбии. После чего будет назначен государственный переворот. Американское правительство отряжает на сходняк своего представителя - лучшего снайпера в регионе, сержанта морской пехоты Томаса Беккета в исполнении Тома Беренджера. В паре с сержантом Беккетом идёт наводчиком молодой, неопытный и слабохарактерный олимпийский чемпион из гражданских. Суть происходящего - конфликт между "сынком и дедушкой", между боязнью за собственную шкуру и чувством долга.
IMDB | КиноПоиск
Источник/Качество: DVDRip
Формат: MKV
Видео кодек: AVC
Аудио кодек: AAC
Видео: 864x464 (1,862:1), 23,976 fps, 2100 kbps, 0.218 bit/pixel
Аудио: Russian: AAC 192 кb/s 6 ch, 48 kHz / Многоголосый закадровый
Аудио #2: Russian: AAC 96 кb/s 2 ch /Гаврилов
Аудио #3: Russian: AAC 192 кb/s 6 ch 48 kHz /Гоблин
Аудио #4: English: AAC 192 кb/s 6 ch, 48 kHz
Формат субтитров: UTF-8
Формат : Matroska
Версия формата : Version 1
Размер файла : 1,92 Гбайт
Продолжительность : 1 ч. 39 м.
Общий поток : 2353 Кбит/сек
Дата кодирования : UTC 2009-10-20 18:33:03
Программа кодирования : mkvmerge v2.1.0 ('Another Place To Fall') built on Aug 19 2007 13:45:34
Библиотека кодирования : libebml v0.7.7 + libmatroska v0.8.1
Видео
Идентификатор : 1
Формат : AVC
Формат/Информация : Advanced Video Codec
Профиль формата : [email protected]
Параметр CABAC формата : Да
Параметр ReFrames формата : 2 кадра
Идентификатор кодека : V_MPEG4/ISO/AVC
Продолжительность : 1 ч. 56 м.
Номинальный битрейт : 2100 Кбит/сек
Ширина : 864 пикселя
Высота : 464 пикселя
Соотношение сторон : 1,862
Частота кадров : 23,976 кадра/сек
Цветовое пространство : YUV
Субдискретизация насыщенности : 4:2:0
Битовая глубина : 8 бит
Тип развёртки : Прогрессивная
Бит/(Пиксели*Кадры) : 0.218
Заголовок : Sniper
Библиотека кодирования : x264 core 65 r999kMod cc51047
Настройки программы : cabac=1 / ref=1 / deblock=1:0:0 / analyse=0x3:0x133 / me=hex / subme=6 / psy_rd=1.0:0.0 / mixed_ref=0 / me_range=16 / chroma_me=1 / trellis=2 / 8x8dct=1 / cqm=0 / deadzone=21,11 / chroma_qp_offset=-2 / threads=2 / thread_queue=2 / nr=0 / decimate=1 / mbaff=0 / bframes=1 / b_pyramid=0 / b_adapt=1 / b_bias=0 / direct=3 / wpredb=1 / keyint=250 / keyint_min=25 / scenecut=40(pre) / rc=2pass / bitrate=2100 / ratetol=1.0 / qcomp=0.60 / qpmin=10 / qpmax=51 / qpstep=4 / cplxblur=20.0 / qblur=0.5 / ip_ratio=1.40 / pb_ratio=1.30 / aq=1:1.00
Язык : English
Default : Да
Forced : Нет
Аудио #1
Идентификатор : 2
Формат : AAC
Формат/Информация : Advanced Audio Codec
Профиль формата : HE-AAC / LC
Идентификатор кодека : A_AAC
Продолжительность : 1 ч. 56 м.
Каналы : 6 каналов
Расположение каналов : Front: L C R, Side: L R, LFE
Частота : 48,0 КГц / 24,0 КГц
Метод сжатия : С потерями
Заголовок : Zakadrovi'
Язык : Russian
Default : Да
Forced : Нет
Аудио #2
Идентификатор : 3
Формат : AAC
Формат/Информация : Advanced Audio Codec
Профиль формата : LC
Идентификатор кодека : A_AAC
Продолжительность : 1 ч. 56 м.
Каналы : 2 канала
Расположение каналов : Front: L R
Частота : 48,0 КГц
Метод сжатия : С потерями
Заголовок : Avtorski'_Gavrilov
Язык : Russian
Default : Нет
Forced : Нет
Аудио #3
Идентификатор : 4
Формат : AAC
Формат/Информация : Advanced Audio Codec
Профиль формата : HE-AAC / LC
Идентификатор кодека : A_AAC
Продолжительность : 1 ч. 56 м.
Каналы : 6 каналов
Расположение каналов : Front: L C R, Side: L R, LFE
Частота : 48,0 КГц / 24,0 КГц
Метод сжатия : С потерями
Заголовок : Goblin
Язык : Russian
Default : Нет
Forced : Нет
Аудио #4
Идентификатор : 5
Формат : AAC
Формат/Информация : Advanced Audio Codec
Профиль формата : HE-AAC / LC
Идентификатор кодека : A_AAC
Продолжительность : 1 ч. 56 м.
Каналы : 6 каналов
Расположение каналов : Front: L C R, Side: L R, LFE
Частота : 48,0 КГц / 24,0 КГц
Метод сжатия : С потерями
Заголовок : Original
Язык : English
Default : Нет
Forced : Нет
Текст #1
Идентификатор : 6
Формат : UTF-8
Идентификатор кодека : S_TEXT/UTF8
Идентификатор кодека/Информация : UTF-8 Plain Text
Заголовок : Sub_Ru
Язык : Russian
Default : Да
Forced : Нет
Текст #2
Идентификатор : 7
Формат : UTF-8
Идентификатор кодека : S_TEXT/UTF8
Идентификатор кодека/Информация : UTF-8 Plain Text
Заголовок : Sub_En
Язык : English
Default : Нет
Forced : Нет
Меню
00:04:14.000 : :#001
00:07:47.000 : :#002
00:13:09.000 : :#003
00:16:06.000 : :#004
00:18:41.000 : :#005
00:21:47.000 : :#006
00:25:38.000 : :#007
00:33:34.000 : :#008
00:36:05.000 : :#009
00:37:30.000 : :#010
00:41:24.000 : :#011
00:43:17.000 : :#012
00:45:14.000 : :#013
00:47:02.000 : :#014
00:48:45.000 : :#015
00:51:39.000 : :#016
00:56:54.000 : :#017
00:57:55.000 : :#018
01:01:47.000 : :#019
01:07:35.000 : :#020
01:11:04.000 : :#021
01:12:08.000 : :#022
01:14:46.000 : :#023
01:18:38.000 : :#024
01:23:29.000 : :#025
01:27:47.000 : :#026
01:29:35.000 : :#027
01:31:55.000 : :#028
01:33:00.500 : :#029
01:35:42.000 : :#030



Снайпер 2 / Sniper 2
Год выпуска: 2002
Мировая премьера: 28 декабря 2002
Производство: США
Жанр: боевик, драма, триллер
Продолжительность: 01:30:00
Перевод: Профессиональный (многоголосый, закадровый)
Субтитры: отсутствуют
Режиссер: Крэйг Р. Бэксли / Craig R. Baxley
В ролях
Том Беренджер
Букем Вудбайн
Эрика Марожан
Тамаш Пушкаш
Дэн Батлер
Линден Эшби
Барна Иллис
Ференц Ковач
Дэннис Хейден
Кан Тогай
Описание
Снайпер Том Бекетт стал легендой при жизни. И даже не потому, что всегда выполнял самые умопомрачительно сложные задания. А потому, что всегда возвращался с них целым и невредимым. Но на этот раз ему предстоит, пожалуй, самый суровый экзамен на профпригодность, который только можно себе представить — без права на малейшую ошибку.
Герою приказано отправиться в одну из «горячих точек» Восточной Европы и уничтожить местного диктатора. Бекетт и его напарник выступают на свою охотничью стезю, еще не ведая, что вскоре обстоятельства драматически переменятся, и объектом безжалостной охоты станут они сами!
IMDB | КиноПоиск
Источник/Качество: DVDRip
Формат: AVI
Видео кодек: XviD
Аудио кодек: AC-3
Видео: 720x400 (16:9), 23,976 fps, 1786 kbps, 0.259 bit/pixel
Аудио: Russian: 384 kbps, 6 ch, 48 kHz
Формат : AVI
Формат/Информация : Audio Video Interleave
Размер файла : 1,38 Гбайт
Продолжительность : 1 ч. 30 м.
Общий поток : 2176 Кбит/сек
Программа кодирования : VirtualDubMod 1.5.4.1 (build 2178/release)
Библиотека кодирования : VirtualDubMod build 2178/release
Видео
Идентификатор : 0
Формат : MPEG-4 Visual
Профиль формата : Advanced [email protected]
Параметр BVOP формата : Нет
Параметр QPel формата : Нет
Параметр GMC формата : Без точки перехода
Параметр матрицы формата : Выборочная
Идентификатор кодека : XVID
Идентификатор кодека/Подсказка : XviD
Продолжительность : 1 ч. 30 м.
Битрейт : 1786 Кбит/сек
Ширина : 720 пикселей
Высота : 400 пикселей
Соотношение сторон : 16:9
Частота кадров : 23,976 кадра/сек
Цветовое пространство : YUV
Субдискретизация насыщенности : 4:2:0
Битовая глубина : 8 бит
Тип развёртки : Прогрессивная
Метод сжатия : С потерями
Бит/(Пиксели*Кадры) : 0.259
Размер потока : 1,13 Гбайт (82%)
Библиотека кодирования : XviD 1.2.1 (UTC 2008-12-04)
Аудио
Идентификатор : 1
Формат : AC-3
Формат/Информация : Audio Coding 3
Расширение режима : CM (complete main)
Идентификатор кодека : 2000
Продолжительность : 1 ч. 30 м.
Вид битрейта : Постоянный
Битрейт : 384 Кбит/сек
Каналы : 6 каналов
Расположение каналов : Front: L C R, Side: L R, LFE
Частота : 48,0 КГц
Битовая глубина : 16 бит
Метод сжатия : С потерями
Размер потока : 249 Мбайт (18%)
Выравнивание : Разделение по промежуткам
Продолжительность промежутка : 96 мс. (2,30 видеокадра)
Время предзагрузки промежутка : 96 мс.
Язык : Russian



Снайпер 3 / Sniper 3
Год выпуска: 2004
Мировая премьера: 19 октября 2004
Производство: США
Жанр: боевик, драма, триллер
Продолжительность: 01:30:00
Перевод: Профессиональный (многоголосый, закадровый)
Субтитры: отсутствуют
Режиссер: П.Дж. Пеше / P.J. Pesce
В ролях
Том Беренджер
Байрон Манн
Джон Доумен
Дэнис Арндт
Трой Уинбуш
Жанетта Арнетт
Уильям Даффи
Nophand Boonyai
Дом Хетракул
Говит Ваттанакул
Описание
«Снайпер ошибается лишь дважды в жизни. Второй раз, когда не ошибается другой снайпер. А первый — когда выбирает свою профессию». Легендарный стрелок, ветеран тайных операций Том Бекетт усвоил эту жестокую истину в неоднократных дуэлях со Смертью и часто давал клятву бросить свое страшное ремесло. Но всегда возвращался в строй, как сейчас, когда его просят устранить опаснейшего террориста в мире.
Вот только новая миссия сразу идет наперекосяк: герой внезапно узнает в своей «мишени»… старого друга! Похоже, агенты спецслужб многого ему недоговаривают. И единственный способ для Бекетта узнать правду и остаться в живых — перестать играть по правилам, которые, к тому же, ему неизвестны…
IMDB | КиноПоиск
Источник/Качество: DVDRip
Формат: AVI
Видео кодек: DivX 5
Аудио кодек: AC-3
Видео: 704x384 (16:9), 23,976 fps, 1765 kbps, 0.272 bit/pixel
Аудио: 384 kbps, 6 ch, 48 kHz
Формат : AVI
Формат/Информация : Audio Video Interleave
Размер файла : 1,37 Гбайт
Продолжительность : 1 ч. 30 м.
Общий поток : 2158 Кбит/сек
Библиотека кодирования : Boilsoft Joiner build 2411/release
Видео
Идентификатор : 0
Формат : MPEG-4 Visual
Параметр BVOP формата : 1
Параметр QPel формата : Нет
Параметр GMC формата : Без точки перехода
Параметр матрицы формата : Default (H.263)
Режим смешивания : Сжатый битовый поток
Идентификатор кодека : DX50
Идентификатор кодека/Подсказка : DivX 5
Продолжительность : 1 ч. 30 м.
Битрейт : 1765 Кбит/сек
Ширина : 704 пикселя
Высота : 384 пикселя
Соотношение сторон : 16:9
Частота кадров : 23,976 кадра/сек
Цветовое пространство : YUV
Субдискретизация насыщенности : 4:2:0
Битовая глубина : 8 бит
Тип развёртки : Прогрессивная
Метод сжатия : С потерями
Бит/(Пиксели*Кадры) : 0.272
Размер потока : 1,12 Гбайт (82%)
Библиотека кодирования : DivX 5.2.1 Beta (UTC 2004-09-08)
Аудио
Идентификатор : 1
Формат : AC-3
Формат/Информация : Audio Coding 3
Расширение режима : CM (complete main)
Идентификатор кодека : 2000
Продолжительность : 1 ч. 30 м.
Вид битрейта : Постоянный
Битрейт : 384 Кбит/сек
Каналы : 6 каналов
Расположение каналов : Front: L C R, Side: L R, LFE
Частота : 48,0 КГц
Битовая глубина : 16 бит
Метод сжатия : С потерями
Размер потока : 249 Мбайт (18%)
Выравнивание : Разделение по промежуткам
Продолжительность промежутка : 42 мс. (1,00 видеокадр)
Время предзагрузки промежутка : 500 мс.



Download / Скачать

Хотите скачать бесплатно? Зарегистрируйтесь на сайте (ссылка на регистрацию). Pirat.ca - самый быстрый торрент трекер в рунете!

Как скачивать  ·   Что такое торрент  ·   Рейтинг и ограничения



Последний раз редактировалось: Gekon86ru (2012-04-22 22:18), всего редактировалось 1 раз

anton966

9705

Пост 22-Апр-2012 12:46 (спустя 1 день 23 часа)

[Q] 

Нее. В авторском только первый фильм.

_________________
" ...потому что во многой мудрости много печали; и кто умножает познания, умножает скорбь" ( Еккл 1:17,18)
[Профиль]  [ЛС] 

Пост 22-Апр-2012 23:13 (спустя 10 часов)

Топик был перенесен из форума Художественные фильмы (Зарубежное кино) в форум Зарубежное Кино

Linnan
 

Ded1

Корсар

Пост 27-Апр-2012 11:46 (спустя 4 дня)

[Q] 

Спосибо.!!!
[Профиль]  [ЛС] 

Krukov_Aleksey

Корсар

Пост 27-Май-2012 07:40 (спустя 29 дней)

[Q] 

Сам снайпер и люблю смотреть такое
[Профиль]  [ЛС] 

mizu

Шкипер

Пост 14-Дек-2012 08:33 (спустя 6 месяцев 18 дней)

[Q] 

[Профиль]  [ЛС] 
Показать сообщения:    
Ответить на тему

Текущее время: Сегодня 08:05

Часовой пояс: GMT + 4



Вы не можете начинать темы
Вы не можете отвечать на сообщения
Вы не можете редактировать свои сообщения
Вы не можете удалять свои сообщения
Вы не можете голосовать в опросах
Вы не можете прикреплять файлы к сообщениям
Вы не можете скачивать файлы

▼ Вниз