ML
     
  Уважаемый Гость!
Вы можете поддержать проект и зарегистрироваться у наших партнеров - онлайн-стратегия MyLands. При регистрации в игре Вы получите код, который сможете активировать после регистрации на pirat.ca и получить 1000 дублонов.

Ваш код:
5f4e94775bc0501caff7b254e79328d304c817d9
 
     

Звездные войны - Сага / Star Wars - The Complete Saga (Джордж Лукас / George Lucas , Ирвин Кершнер / Irvin Kershner , Ричард Маркуэнд / Richard Marquand) [1977-2005 гг., фантастика, приключения, BDRip] Dub

Ответить на тему
 
Автор
Сообщение

Пост 23-Апр-2012 12:39

[Q] 

Kaper

Звездные войны - Сага / Star Wars - The Complete Saga

Звездные войны: Эпизод 1 - Скрытая угроза / Star Wars: Episode I - The Phantom Menace- Год выпуска: 1999
Страна: США
Жанр: фантастика, приключения
Продолжительность: 02:16:10
Перевод: Профессиональный (дублированный)-Режиссер:
Джордж Лукас / George Lucas
-В ролях:
Лиам Нисон
Юэн МакГрегор
Натали Портман
Джейк Ллойд
Иэн МакДайармид
Пернилла Аугуст
Оливер Форд Дэвис
Хью Куарши
Ахмед Бест
Энтони Дэниелс ...
-Описание:
Мирная и процветающая планета Набу. Торговая федерация, не желая платить налоги, вступает в прямой конфликт с королевой Амидалой, правящей на планете, что приводит к войне. На стороне королевы и республики в ней участвуют два рыцаря-джедая: учитель и ученик, Квай-Гон-Джин и Оби-Ван Кеноби...
- -Бюджет: $115 000 000
Сборы в США: $474 315 191
Сборы в мире: + $550 453 000 = $1 024 768 191
Сборы в России: $4 750 000-Премьера (мир): 19 мая 1999
Премьера (РФ): 29 июля 1999
Релиз на DVD: 9 декабря 2010
Релиз на Blu-Ray: 15 сентября 2011-Качество: BDRip
Формат: AVI
Видео: 720x304 (2.35:1), 23.976 fps, XviD, 2 600 Kbps
Аудио: AC3, 448 Kbps, 48.0 KHz, 6 ch

Формат : AVI
Формат/Информация : Audio Video Interleave
Профиль формата : OpenDML
Размер файла : 2,91 Гбайт
Продолжительность : 2 ч. 16 м.
Общий поток : 3059 Кбит/сек
Программа кодирования : VirtualDubModRus 1.5.10.2 (build 2542/release)
Библиотека кодирования : VirtualDubMod build 2542/release
Видео
Идентификатор : 0
Формат : MPEG-4 Visual
Профиль формата : Advanced [email protected]
Параметр BVOP формата : 1
Параметр QPel формата : Нет
Параметр GMC формата : Без точки перехода
Параметр матрицы формата : Выборочная
Идентификатор кодека : XVID
Идентификатор кодека/Подсказка : XviD
Продолжительность : 2 ч. 16 м.
Битрейт : 2600 Кбит/сек
Ширина : 720 пикселей
Высота : 304 пикселя
Соотношение сторон : 2,35:1
Частота кадров : 23,976 кадра/сек
Цветовое пространство : YUV
Субдискретизация насыщенности : 4:2:0
Битовая глубина : 8 бит
Тип развёртки : Прогрессивная
Метод сжатия : С потерями
Бит/(Пиксели*Кадры) : 0.495
Размер потока : 2,47 Гбайт (85%)
Библиотека кодирования : XviD 1.2.1 (UTC 2008-12-04)
Аудио
Идентификатор : 1
Формат : AC-3
Формат/Информация : Audio Coding 3
Расширение режима : CM (complete main)
Идентификатор кодека : 2000
Продолжительность : 2 ч. 16 м.
Вид битрейта : Постоянный
Битрейт : 448 Кбит/сек
Каналы : 6 каналов
Расположение каналов : Front: L C R, Side: L R, LFE
Частота : 48,0 КГц
Битовая глубина : 16 бит
Метод сжатия : С потерями
Размер потока : 436 Мбайт (15%)
Выравнивание : Разделение по промежуткам
Продолжительность промежутка : 42 мс. (1,00 видеокадр)
Время предзагрузки промежутка : 500 мс.
-

☺ Первой в ходе съёмок была снята сцена разговора между Дарт Сидиусом и Дарт Молом.
☺ Сцена битвы на световых мечах между Дарт Молом и Оби-Ваном с Квай-Гоном снималась на протяжении месяца. Это первая схватка такого рода, в которой принимали участие более двух джедаев или ситхов.
☺ Звук трепещущих крыльев торговца Уотто был достигнут звукооператором Беном Берттом в результате открывания и закрывания обычного зонтика.
☺ До съёмок в роли королевы Амидалы Натали Портман не видела ни одного фильма из оригинальной трилогии «Звёздных войн».
☺ Натали Портман пропустила мировую премьеру «Скрытой угрозы» по причине подготовки к сессии в университете.
☺ София Коппола и Кира Найтли получили короткие роли служанок Падме в фильме. Фактически поразительное внешнее сходство Натали Портман и Киры Найтли стало залогом последующей актёрской карьеры последней.
☺ Вопреки распространённому мнению, в большинстве сцен королеву Амидалу под гримом играла не Натали Портман, игравшая Падме, а Кира Найтли.
☺ Из-за высокого роста Лайама Нисона декораторам пришлось потратить ещё 150 000 долларов на новые декорации, в которых актёр смог бы уместиться.
☺ На пресс-конференции, посвящённой выходу «Мести ситхов» на DVD, директор по анимации Роб Колман объявил, что готовится обновлённая версия «Скрытой угрозы», благодаря чему первый эпизод станет последним фильмом саги, в котором кукольного Йоду заменят генерированным при помощи цифровых технологий.
☺ В титрах Джабба Хатт, открывающий гонки на подах, обозначен «Джабба Хатт в роли самого себя». Одновременно в титрах не указывается, что Иэн Макдайармид играет Дарт Сидиуса.
☺ «Скрытая угроза» — единственный фильм «Звёздных войн», в котором представлена уникальная способность джедаев к ускорению.
☺ Передатчик (комлинк) Квай-Гон Джина представляет собой слегка модифицированную бритву «Жиллетт Сенсор Эксель».
☺ После прокрутки всех титров в конце фильма слышно зловещее дыхание Дарта Вейдера.
☺ Образы всех гунганов были созданы на движке Джар-Джар Бинкса.
☺ Во время битвы гунганов с войсками Федерации мелькает дроид с серийным номером «1138» на спине: это число входило в название первого полнометражного фильма Джорджа Лукаса, называвшегося «THX 1138». Один из кораблей, пролетающих над Корусантом за миг до разговора Дарт Сидиуса и Дарт Мола, идентичен «Дискавери» из «Космической одиссеи 2001 года». Спасательная капсула этого же корабля видна в сцене разговора между Квай-Гоном и Уотто на заднем плане среди прочих ржавых деталей в «лавке» Уотто на Татуине.
☺ В сцене заседания Галактического Сената можно разобрать несколько делегаций, в том числе вуки и группу инопланетян, напоминающих знаменитого E.T. из фильма Стивена Спилберга «Инопланетянин».
☺ В ранних версиях сценария планета королевы Амидалы называлась Утапау, но в итоге это название отошло к планете, где Оби-Ван сражается с генералом Гривусом в «Мести ситхов».
☺ Единственная сцена в фильме, в которой не используются визуальные эффекты — это сцена заполнения газом комнаты встреч в начале фильма.
☺ Во время съемок сражений Эван МакГрегор часто непроизвольно изображал звук светового меча.
☺ Изначально Мэйс Винду должен был быть инопланетянином.
☺ «Падме» с санскрита означает «лотос».
☺ Дарт Мол за весь фильм моргает всего пару раз. Это было вызвано тем, что сыгравшему его Рэю Парку было трудно моргать в контактных линзах, поэтому Парк предложил идею о злодее, который никогда не моргает. Имя «Джар-Джар» придумал сын Лукаса.
☺ На роль юного Анакина Скайуокера пробовались Хейли Джоэль Осмент и Майкл Ангарано.

Звездные войны: Эпизод 2 - Атака клонов / Star Wars: Episode II - Attack of the Clones- Год выпуска: 2002
Страна: США
Жанр: фантастика, приключения
Продолжительность: 02:22:27
Перевод: Профессиональный (дублированный)-Режиссер:
Джордж Лукас / George Lucas
-В ролях:
Юэн МакГрегор
Натали Портман
Хейден Кристенсен
Кристофер Ли
Сэмюэл Л. Джексон
Фрэнк Оз
Иэн МакДайармид
Пернилла Аугуст
Темуэра Моррисон
Дэниэл Логан ...
-Описание:
Действие разворачивается через 10 лет после событий, описанных в первом эпизоде знаменитой саги. Республика все глубже погружается в пучину противоречий и хаоса. Движение сепаратистов, представленное сотнями планет и могущественным альянсом корпораций, грозит стать новой угрозой для Галактики, с которой не смогут справиться даже джедаи.Назревающий конфликт, заранее спланированный могущественными, но пока еще не разоблаченными силами, ведет к началу Клонических войн и к закату республики. Чтобы противостоять угрозе вселенских масштабов, Верховный канцлер Палпатин добивается консолидации власти в республике в своих руках и отдает приказ о создании республиканской армии для поддержки малочисленной группы джедаев в их борьбе с превосходящим противником.
- -Бюджет: $115 000 000
Сборы в США: $310 676 740
Сборы в мире: + $338 721 588 = $649 398 328
Сборы в России: $5 258 522-Премьера (мир): 16 мая 2002
Премьера (РФ): 15 мая 2002
Релиз на DVD: 9 декабря 2010
Релиз на Blu-Ray: 15 сентября 2011-Качество: BDRip
Формат: AVI
Видео: 720x304 (2.35:1), 23.976 fps, XviD, 2 465 Kbps
Аудио: AC3, 448 Kbps, 48.0 KHz, 6 ch

Формат : AVI
Формат/Информация : Audio Video Interleave
Профиль формата : OpenDML
Размер файла : 2,91 Гбайт
Продолжительность : 2 ч. 22 м.
Общий поток : 2924 Кбит/сек
Программа кодирования : VirtualDubModRus 1.5.10.2 (build 2542/release)
Библиотека кодирования : VirtualDubMod build 2542/release
Видео
Идентификатор : 0
Формат : MPEG-4 Visual
Профиль формата : Advanced [email protected]
Параметр BVOP формата : 1
Параметр QPel формата : Нет
Параметр GMC формата : Без точки перехода
Параметр матрицы формата : Выборочная
Идентификатор кодека : XVID
Идентификатор кодека/Подсказка : XviD
Продолжительность : 2 ч. 22 м.
Битрейт : 2465 Кбит/сек
Ширина : 720 пикселей
Высота : 304 пикселя
Соотношение сторон : 2,35:1
Частота кадров : 23,976 кадра/сек
Цветовое пространство : YUV
Субдискретизация насыщенности : 4:2:0
Битовая глубина : 8 бит
Тип развёртки : Прогрессивная
Метод сжатия : С потерями
Бит/(Пиксели*Кадры) : 0.470
Размер потока : 2,45 Гбайт (84%)
Библиотека кодирования : XviD 1.2.1 (UTC 2008-12-04)
Аудио
Идентификатор : 1
Формат : AC-3
Формат/Информация : Audio Coding 3
Расширение режима : CM (complete main)
Идентификатор кодека : 2000
Продолжительность : 2 ч. 22 м.
Вид битрейта : Постоянный
Битрейт : 448 Кбит/сек
Каналы : 6 каналов
Расположение каналов : Front: L C R, Side: L R, LFE
Частота : 48,0 КГц
Битовая глубина : 16 бит
Метод сжатия : С потерями
Размер потока : 457 Мбайт (15%)
Выравнивание : Разделение по промежуткам
Продолжительность промежутка : 42 мс. (1,00 видеокадр)
Время предзагрузки промежутка : 500 мс.
-

☺ Принцесса Амидала нажимает некую кнопку на пульте, чтобы ретранслировать сообщение Оби-Вана. В следующий момент она нажимает ту же кнопку, чтобы вызвать карту, показывающую местонахождение Оби-Вана.
☺ Инопланетный здоровяк в кабаке в разговоре с Оби-Ваном небрежно роняет фразу о «12 парсеках расстояния до планеты, где выращивают клонов». Преодолеть это расстояние даже со скоростью света можно лишь за 39 лет.

Звездные войны: Эпизод 3 - Месть Ситхов / Star Wars: Episode III - Revenge of the Sith- Год выпуска: 2005
Страна: США
Жанр: фантастика, приключения
Продолжительность: 02:20:05
Перевод: Профессиональный (дублированный)-Режиссер:
Джордж Лукас / George Lucas
-В ролях:
Юэн МакГрегор
Натали Портман
Хейден Кристенсен
Иэн МакДайармид
Сэмюэл Л. Джексон
Джимми Смитс
Фрэнк Оз
Энтони Дэниелс
Кристофер Ли
Киша Касл-Хьюз ...
-Описание:
Со времен, описанных во втором эпизоде, прошло 3 года. Энакин окончательно встает на темную сторону силы и превращается в Дарта Вейдера. Республика гибнет под ударами крепнущей Конфедерации, Джедаи теряют контроль над галактикой, а Падме готовится к тому, чтобы стать матерью. Все эти события будут разворачиваться на фоне грандиозной битвы, знаменующей финал Клонических войн...
- -Бюджет: $113 000 000
Сборы в США: $380 270 577
Сборы в мире: + $469 727 028 = $849 997 605
Сборы в России: $8 269 382-Премьера (мир): 15 мая 2005
Премьера (РФ): 19 мая 2005
Релиз на DVD: 9 декабря 2010
Релиз на Blu-Ray: 15 сентября 2011-Качество: BDRip
Формат: AVI
Видео: 720x304 (2.35:1), 23.976 fps, XviD, 2 514 Kbps
Аудио: AC3, 448 Kbps, 48.0 KHz, 6 ch

Формат : AVI
Формат/Информация : Audio Video Interleave
Профиль формата : OpenDML
Размер файла : 2,91 Гбайт
Продолжительность : 2 ч. 20 м.
Общий поток : 2973 Кбит/сек
Программа кодирования : VirtualDubModRus 1.5.10.2 (build 2542/release)
Библиотека кодирования : VirtualDubMod build 2542/release
Видео
Идентификатор : 0
Формат : MPEG-4 Visual
Профиль формата : Advanced [email protected]
Параметр BVOP формата : 1
Параметр QPel формата : Нет
Параметр GMC формата : Без точки перехода
Параметр матрицы формата : Выборочная
Идентификатор кодека : XVID
Идентификатор кодека/Подсказка : XviD
Продолжительность : 2 ч. 20 м.
Битрейт : 2514 Кбит/сек
Ширина : 720 пикселей
Высота : 304 пикселя
Соотношение сторон : 2,35:1
Частота кадров : 23,976 кадра/сек
Цветовое пространство : YUV
Субдискретизация насыщенности : 4:2:0
Битовая глубина : 8 бит
Тип развёртки : Прогрессивная
Метод сжатия : С потерями
Бит/(Пиксели*Кадры) : 0.479
Размер потока : 2,46 Гбайт (85%)
Библиотека кодирования : XviD 1.2.1 (UTC 2008-12-04)
Аудио
Идентификатор : 1
Формат : AC-3
Формат/Информация : Audio Coding 3
Расширение режима : CM (complete main)
Идентификатор кодека : 2000
Продолжительность : 2 ч. 20 м.
Вид битрейта : Постоянный
Битрейт : 448 Кбит/сек
Каналы : 6 каналов
Расположение каналов : Front: L C R, Side: L R, LFE
Частота : 48,0 КГц
Битовая глубина : 16 бит
Метод сжатия : С потерями
Размер потока : 449 Мбайт (15%)
Выравнивание : Разделение по промежуткам
Продолжительность промежутка : 42 мс. (1,00 видеокадр)
Время предзагрузки промежутка : 500 мс.
-

☺ Перед началом съемок Джордж Лукас объявил, что данный фильм станет последним из серии «Звездные войны». Свои предыдущие планы по поводу создания трилогии трилогий Лукас опроверг. Таким образом, мы вряд ли увидим продолжение космической саги (7-ую, 8-ую и 9-ую части).
☺ Данный эпизод стал самым «черным» и кровавым из когда-либо выходивших под маркой сериала.
☺ Название картины «Месть Ситха» очень похоже на рабочее название 6-го эпизода «Месть Джедая». Как мы помним, итоговое название эпизода звучит так: «Возвращение Джедая».
☺ В отличие от предыдущих эпизодов «Месть Ситха» практически полностью снимался в студийных декорациях. Единственная натурная сцена была отснята еще в ходе работы над вторым эпизодом.
☺ Эту сцену Джордж Лукас, держа в голове наброски происходящего в третьем эпизоде, отснял в пустыне Туниса еще 3 года назад. В этой сцене Оби-Ван Кеноби доставляет юного Люка Скайвокера к его дядюшке и тетушке.
☺ Тем не менее, совсем отказаться от натурных съемок команде Лукаса не удалось. В ходе монтажа съемочная группа выезжала в Таиланд, Швейцарию и Китай. Актерам принимать участие в этих съемках не пришлось, так как были отсняты лишь природные ландшафты.
☺ Энтони Дэниелс и Кенни Бейкер являются единственными актерами, принявшими участие в съемках всех шести эпизодов. Фрэнк Оз, озвучивающий учителя Йоду, замыкает тройку лидеров — он принял участие в работе над пятью эпизодами. Что касается персонажей, то здесь пальму первенства безоговорочно удерживает Оби-Ван Кеноби, засветившийся во всех шести эпизодах. Его сыграли два разных актера (во второй трилогии — Эван МакГрегор).
☺ Актеры Эван МакГрегор и Хейден Кристенсен потратили около двух месяцев для подготовки к батальным сценам. Основное внимание было уделено искусству фехтования.
☺ Сэмюель Л. Джексон (Мейс Винду) знал, что его персонажу суждено погибнуть еще при подписании контракта. Джексон попросил лишь об одном одолжении: «Я хочу, чтобы мой персонаж погиб как настоящий герой, а не какой-то там жалкий панк». Джордж Лукас учел эти пожелания, и смерть Мейса получилась по-настоящему запоминающимся событием картины.
☺ Предприимчивый Джордж Лукас привык превращать в золото все, к чему прикасается. На официальном сайте Lucasfilm был организован платный сервис, позволяющий следить за съемочным процессом некоторых сцен посредством веб-камер, установленных в студийных павильонах.
☺ Кейша Кастл-Хьюз участвовала в съемках всего один день. За этот день актриса успела сыграть все сцены с её участием.
☺ В августе 2004 года в СМИ был распространен слух о том, что Джордж Лукас собирается снимать 7,8 и 9 эпизоды. Предпосылкой для данной информации стал тот факт, что работники Lucasfilm в принудительном порядке подписали соответствующее соглашение о неразглашении секретной информации о работе над эпизодом. Тем не менее, Лукас продолжает упрямо утверждать, что в его планах не значится работа над третьей трилогией.
☺ Гарри Олдман согласился озвучить Генерала Гривоса, однако так и не смог поработать под началами Лукаса. Так как Гарри является членом Гильдии Актеров, то он не имеет права работать вместе с актерами, не являющимися членами Гильдии.
☺ Роль капитана Антиллеса предполагалось отдать Денису Лоусону, исполнителю роли Уэджа Антиллеса в первой трилогии.
☺ Во время съемок на блестящем корпусе робота С-3PO отображался зеленый экран, на фоне которого велась большая часть работы. Впоследствии при помощи компьютера специалистам по монтажу пришлось кадр за кадром исправлять эти огрехи.
☺ Специально для роли в третьей картине трилогии актер Хейден Кристенсен набрал около 11 кг веса. Ему пришлось питаться около 6 раз в сутки.
☺ Около 22 лет пришлось ждать Питеру Мэйхью (исполнитель роли Чубаки) своего возвращения на широкие экраны. Именно столько времени разделяет последние части трилогий («Месть Ситхов» и «Возвращение Джедая).
☺ Костюм Дарта Вейдера действительно носит Хейден Кристенсен, а не какой-то абстрактный дублер. По просьбе Кристенсена костюм Дарта Вейдера был подготовлен заново с учетом особенностей строения тела актера.
☺ Учитывая достаточно большую разницу в росте между ним и Дэвидом Праузом (исполнителем роли Вейдера в первой трилогии) - около 12 см - камеру специально располагали таким образом, чтобы Дарт в исполнении Хейдена выглядел выше.
☺ Точно такой же прием использовали при съемках 5-го и 6-го эпизодов, когда во время батальных сцен Прауза подменял некий каскадер Боб Андерсон, также значительно уступающий в росте.
☺ Последняя битва с участием Мейса Винду проходит в трех огромных комнатах и включает в себя ровно 102 движения.
☺ Сцена, где группа сенаторов (включая Падме) планирует организовать Альянс, чтобы предотвратить получение канцлером ещё большей власти, была удалена: в них представлялась молодая Мон Мотму.
☺ В раннем сценарии Джордж Лукас предполагал появление 10-летнего Хана Соло, но сцены с ним не снимались.
☺ Все сцены с участием Кристофера Ли были отсняты за один день.
☺ В оригинале продолжительность фильма составляла около 4 часов, сцена битвы Графа Дуку с Энакином показана на 1/3 запланированного времени в эпизоде. Финальная битва длится около 13 минут, это самая длинная сцена в истории кинематографа.
☺ Мейс Винду - единственный персонаж саги, имеющий фиолетовый световой меч, актер Сэмюэль Джексон лично попросил Джорджа Лукаса о неординарном цвете меча.
☺ Несмотря на значительные потери в хронометраже при монтаже, режиссерская версия фильма так и не появилась, впрочем таковой не было и у остальных эпизодов саги; однако некоторые удаленные сцены фильма вошли в DVD-издание.
☺ Оби-Ван, сражаясь с генералом Гривусом, убивает его с помощью бластера. После этого он, с негодованием смотря на бластер, бормочет себе «Такой нецивилизованный». Это прямая ссылка на начало «Новой надежды», когда Оби-Ван описывая световой меч говорит: «…не такой неуклюжий и ненадежный как бластер. Изящное оружие, для более цивилизованного века». Во время начальной битвы, Энакин говорит: «Сейчас начнется веселье». Хан Соло произносит то же самое в похожей ситуации в «Новой надежде».
☺ Ник Гиллард, постановщик трюков, сыграл джедая Кина Драллига. Джереми Баллоч (Боба Фетт в оригинальной трилогии), сыграл роль капитана Колтона.
☺ Джордж Лукас появляется во время оперы на Корусанте, как синелицый барон Папанойда. Это первое появление Лукаса в саге. Его трое детей также сыграли камео: его сын, Джетт, стал Зеттом Джукасса, погибающим джедаем, который защищает Храм Джедаев от клонов; его дочь, Аманда, персонаж Терр Танеел, можно увидеть на голограмме системы безопасности; дочь Кэти, синекожая Чи Иквэй, которую можно увидеть, когда Палпатин, спасённый джедаями приходит в Сенат.

Звездные войны: Эпизод 4 - Новая надежда / Star Wars: Episode IV - A New Hope- Год выпуска: 1977
Страна: США
Жанр: фантастика, приключения
Продолжительность: 02:04:44
Перевод: Профессиональный (дублированный)-Режиссер:
Джордж Лукас / George Lucas
-В ролях:
Марк Хэмилл
Харрисон Форд
Кэрри Фишер
Питер Кашинг
Алек Гиннесс
Энтони Дэниелс
Кенни Бейкер
Питер Мейхью
Дэвид Праус
Джеймс Эрл Джонс ...
-Описание:
Татуин. Планета-пустыня. Уже постаревший рыцарь Джедай Оби Ван Кеноби спасает молодого Люка Скайуокера, когда тот пытается отыскать пропавшего дроида. С этого момента Люк осознает свое истинное назначение: он один из рыцарей Джедай. В то время как гражданская война охватила галактику, а войска повстанцев ведут бои против сил злого Императора, к Люку и Оби Вану присоединяется отчаянный пилот-наемник Хан Соло, и в сопровождении двух дроидов, R2D2 и C-3PO, этот необычный отряд отправляется на поиски предводителя повстанцев — принцессы Леи. Героям предстоит отчаянная схватка с устрашающим Дартом Вейдером — правой рукой Императора и его секретным оружием — «Звездой Смерти».
- -Бюджет: $11 000 000
Сборы в США: $460 998 007
Сборы в мире: + $314 400 000 = $775 398 007-Премьера (мир): 25 мая 1977
Релиз на DVD: 9 декабря 2010
Релиз на Blu-Ray: 15 сентября 2011-Качество: BDRip
Формат: AVI
Видео: 720x304 (2.35:1), 23.976 fps, XviD, 2 046 Kbps
Аудио: AC3, 448 Kbps, 48.0 KHz, 6 ch

Формат : AVI
Формат/Информация : Audio Video Interleave
Профиль формата : OpenDML
Размер файла : 2,18 Гбайт
Продолжительность : 2 ч. 4 м.
Общий поток : 2506 Кбит/сек
Программа кодирования : VirtualDubModRus 1.5.10.2 (build 2542/release)
Библиотека кодирования : VirtualDubMod build 2542/release
Видео
Идентификатор : 0
Формат : MPEG-4 Visual
Профиль формата : Advanced [email protected]
Параметр BVOP формата : 1
Параметр QPel формата : Нет
Параметр GMC формата : Без точки перехода
Параметр матрицы формата : Выборочная
Идентификатор кодека : XVID
Идентификатор кодека/Подсказка : XviD
Продолжительность : 2 ч. 4 м.
Битрейт : 2046 Кбит/сек
Ширина : 720 пикселей
Высота : 304 пикселя
Соотношение сторон : 2,35:1
Частота кадров : 23,976 кадра/сек
Цветовое пространство : YUV
Субдискретизация насыщенности : 4:2:0
Битовая глубина : 8 бит
Тип развёртки : Прогрессивная
Метод сжатия : С потерями
Бит/(Пиксели*Кадры) : 0.390
Размер потока : 1,78 Гбайт (82%)
Библиотека кодирования : XviD 1.2.1 (UTC 2008-12-04)
Аудио
Идентификатор : 1
Формат : AC-3
Формат/Информация : Audio Coding 3
Расширение режима : CM (complete main)
Идентификатор кодека : 2000
Продолжительность : 2 ч. 4 м.
Вид битрейта : Постоянный
Битрейт : 448 Кбит/сек
Каналы : 6 каналов
Расположение каналов : Front: L C R, Side: L R, LFE
Частота : 48,0 КГц
Битовая глубина : 16 бит
Метод сжатия : С потерями
Размер потока : 400 Мбайт (18%)
Выравнивание : Разделение по промежуткам
Продолжительность промежутка : 42 мс. (1,00 видеокадр)
Время предзагрузки промежутка : 500 мс.
-

☺ «Vader» по-голландски означает «отец».
☺ Согласно исследованиям, звук истребителя TIE скомбинирован из рева молодого слона и звука автомобиля, мчащегося по мокрому шоссе.
☺ Работая над сценарием, Джордж Лукас консультировался с всемирно известным исследователем мифологии, Джозефом Кемпбеллом.
☺ Лукасу было сложно получить финансирование для этого фильма, большинство студий полагали, что никто не захочет смотреть это.
☺ Американской Гильдии Режиссеров (DGA) не понравилось, что в начале фильма не было обычных титров. Они «приказали» Лукасу перемонтировать фильм и добавить титры в начало. Лукас отказался, заявив, что это испортит завязку фильма. DGA оштрафовала Лукаса, который заплатил им и немедленно покинул DGA.
☺ Корабль «Millennium Falcon» был придуман Лукасом в закусочной: гамбургер с маслинкой показался удачной моделью для создания космичекого корабля.
☺ Все новое — это хорошо забытое старое: множество элементов «Звездных войн» позаимствованы из более ранних картин. Так, например, персонажи Оби-Ван Кеноби и дроиды C-3PO и R2-D2 весьма напоминают героев японского фильма «Kakushi toride no san akunin» (1958), где самурайский воин спасает принцессу при помощи двух мелких мошенников. Внешний вид дроида C-3PO был скопирован с робота из культового фильма Metropolis (1926). Финальный бой заимствован из «Dam Busters, The» (1954), но еще ближе он к аналогичной сцене в «633 Squadron» (1964). Финальная сцена чествования героев практически покадрово скопирована с «Triumph des Willens» (1934).
☺ Слово «Jedi» происходит от японского «Jidai Geki», что в переводе означает «историческая драма»: так в Японии назывались телесериалы о временах самурайских воинов. Лукас как-то упомянул в интервью, что смотрел «Jidai Geki», когда бывал в Японии, и ему понравилось это словечко.
☺ Вначале на роль принцессы Леи была взята Сисси Спейсек, но когда Кэрри Фишер отказалась сниматься обнаженной в «Кэрри» (1976), они обменялись ролями. Еще одним кандидатом на роль принцессы Леи была Джоди Фостер.
☺ Вначале на роль Хэна Соло приглашали Берта Рейнольдса, но он выпал из конкурса; также предлагались кандидатуры Ника Нолте и Кристофера Уокена.
☺ Номера эпизода и подзаголовка «Новая надежда» не было в первоначальной версии фильма. Они были добавлены позднее при повторном выпуске фильма, чтобы обозначить последовательность между первыми «Star Wars» и «Empire Strikes Back, The» (1980).
☺ Сцена вылета космической капсулы с корабля Леи — первая работа Industrial Light & Magic (ILM) — студии спецэффектов, созданной Лукасом специально для съемок этого фильма.
☺ Сцены на Татуине были сняты в Тунисе, где существует местечко под названием «Татакуин» («Tatahouine»). Некоторые интерьеры дома Люка снимались в гостинице Туниса, но его внешний вид — реально существующий дом в деревне Матмата, изобилующей пещерами и кратерами.
☺ Хэн и Люк «перемещают» Чубакку из тюремного блока 1138: ссылка на фильм «THX 1138» (1970), постановщиком которого был Джордж Лукас.
☺ Сцены с участием Люка и его друга Биггса были вырезаны из фильма. Биггс — молодой пилот, оставивший Имперскую Академию и примкнувший к Сопротивлению. Люк упоминает о нем, рассказывая дяде и тете о своем желании поступить в Академию; а сам Биггс появляется в финале фильма, во время нападения на Звезду Смерти — он был одним из пилотов Сопротивления, погибших в том бою.
☺ Во время сцены в мусорном отсеке Марк Хэмилл так долго задерживал дыхание, когда нырял под воду, что у него лопнул сосуд на лице. Последующие съемки делались только с одной стороны.
☺ На определенном периоде создания фильма будущие перспективы казались столь малообещающими, что было предложено удалить из него спецэффекты и превратить его в телесериал.
☺ Джордж Лукас начал работать над сценарием в 1974 году.
☺ На роль Хэна Соло пробовался Курт Рассел.
☺ Все сцены с космическими кораблями снимались при помощи сделанных вручную макетов. Для финальной сцены, с уничтожением Звезды смерти, так же был создан туннель, под размер макетов.
☺ Самые знаменитые роботы - R2-D2 и C-3PO - могли называться А2 и С3, но потом Джордж Лукас решил дать дроидам более полные имена. По словам режиссера, их имена - просто приятный на слух набор букв и чисел, который ничего не обозначает и никак не расшифровывается.
☺ В 1980 году, через три года после выхода первого фильма киноэпопеи «Звездные войны-IV: Новая надежда» (1977), были сделаны первые снимки спутника Сатурна Мимаса, который оказался очень похож на «Звезду Смерти» из фильма Джорджа Лукаса. Астрономы склонны полагать, что схожая вмятина на Мимасе - кратер, образовавшийся в результате столкновения небесного тела с огромным астероидом. Джордж Лукас никак не прокомментировал это сообщение.
☺ Персонаж Люк Скайуокер претерпел множество изменений, прежде чем стал таким, какой он есть. Сначала Джордж Лукас хотел сделать его девочкой. Потом подумывал о том, чтобы Люк был гномом. Согласно следующему варианту режиссера Скайуокер мог стать 60-летним генералом.
☺ Чубакка был смоделирован по образу и подобию собаки Лукаса, Индианы. Не только облик, но и имя этой собаки были прославлены в веках: в «Indiana Jones and the Last Crusade» (1989) отец Индианы Джонса проясняет тайну имени своего сына: «На самом деле его зовут Джонс, это нашу собаку звали Индианой». Отца Индианы звали Генри Джонс. Генри называл постоянно Индиану «младший», это означает, что его как и отца звали Генри, и об этом говорится в самом конце фильма.
☺ Специальный выпуск фильма имел хронометраж 125 минут.
☺ В самом конце съемок первой серии Звездных войн Марк попал в серьезную автокатастрофу, где сильно поранил лицо. Поэтому в некоторых заключительных эпизодах на общих планах снимали дублера, а на крупных можно видеть, что лицо актера немного отличается от того, каким оно было в начале – это последствия косметических операций.

Звездные войны: Эпизод 5 - Империя наносит ответный удар / Star Wars: Episode V - The Empire Strikes Back- Год выпуска: 1980
Страна: США
Жанр: фантастика, приключения
Продолжительность: 02:07:21
Перевод: Профессиональный (дублированный)-Режиссер:
Ирвин Кершнер / Irvin Kershner
-В ролях:
Марк Хэмилл
аррисон Форд
Кэрри Фишер
Билли Ди Уильямс
Энтони Дэниелс
Дэвид Праус
Питер Мейхью
Кенни Бейкер
Фрэнк Оз
Алек Гиннесс ...
-Описание:
Борьба за Галактику обостряется в пятом эпизоде космической саги. Войска Императора начинают массированную атаку на повстанцев и их союзников.Хан Соло и принцесса Лейя укрываются в Заоблачном Городе, в котором их и захватывает Дарт Вейдер, в то время как Люк Скайуокер находится на таинственной планете джунглей Дагобар.Там Мастер — джедай Йода обучает молодого рыцаря навыкам обретения Силы. Люк даже не предполагает, как скоро ему придется воспользоваться знаниями старого Мастера: впереди битва с превосходящими силами Императора и смертельный поединок с Дартом Вейдером.
- -Бюджет: $18 000 000
Сборы в США: $290 475 067
Сборы в мире: + $247 900 000 = $538 375 067-Премьера (мир): 17 мая 1980
Релиз на DVD: 9 декабря 2010.
Релиз на Blu-Ray: 15 сентября 2011-Качество: BDRip
Формат: AVI
Видео: 720x304 (2.35:1), 23.976 fps, XviD, 1 994 Kbps
Аудио: AC3, 448 Kbps, 48.0 KHz, 6 ch

Формат : AVI
Формат/Информация : Audio Video Interleave
Профиль формата : OpenDML
Размер файла : 2,18 Гбайт
Продолжительность : 2 ч. 7 м.
Общий поток : 2454 Кбит/сек
Программа кодирования : VirtualDubModRus 1.5.10.2 (build 2542/release)
Библиотека кодирования : VirtualDubMod build 2542/release
Видео
Идентификатор : 0
Формат : MPEG-4 Visual
Профиль формата : Advanced [email protected]
Параметр BVOP формата : 1
Параметр QPel формата : Нет
Параметр GMC формата : Без точки перехода
Параметр матрицы формата : Выборочная
Идентификатор кодека : XVID
Идентификатор кодека/Подсказка : XviD
Продолжительность : 2 ч. 7 м.
Битрейт : 1994 Кбит/сек
Ширина : 720 пикселей
Высота : 304 пикселя
Соотношение сторон : 2,35:1
Частота кадров : 23,976 кадра/сек
Цветовое пространство : YUV
Субдискретизация насыщенности : 4:2:0
Битовая глубина : 8 бит
Тип развёртки : Прогрессивная
Метод сжатия : С потерями
Бит/(Пиксели*Кадры) : 0.380
Размер потока : 1,77 Гбайт (81%)
Библиотека кодирования : XviD 1.2.1 (UTC 2008-12-04)
Аудио
Идентификатор : 1
Формат : AC-3
Формат/Информация : Audio Coding 3
Расширение режима : CM (complete main)
Идентификатор кодека : 2000
Продолжительность : 2 ч. 7 м.
Вид битрейта : Постоянный
Битрейт : 448 Кбит/сек
Каналы : 6 каналов
Расположение каналов : Front: L C R, Side: L R, LFE
Частота : 48,0 КГц
Битовая глубина : 16 бит
Метод сжатия : С потерями
Размер потока : 408 Мбайт (18%)
Выравнивание : Разделение по промежуткам
Продолжительность промежутка : 42 мс. (1,00 видеокадр)
Время предзагрузки промежутка : 500 мс.
-

☺ Сцена, где Хана Соло замораживают имперские штурмовики, была очень длинной и комплексной, и снимать ее потребовалось много раз подряд. Почти в самом конце Лея говорит Хэну: «Я люблю тебя». Харрисон Форд слышал эту фразу уже так много раз, что он изменил заданную по сценарию реплику «Я тоже тебя люблю» на «Я знаю». Кершнер не захотел переснимать эту сцену, справедливо рассудив, что так даже гораздо лучше.
☺ Персонаж «Боба Фетт» ни разу не был упомянут по имени в фильме, только в титрах.
☺ В астероидной сцене один из астероидов на самом деле был ботинком. По слухам, Джордж Лукас заставил специалистов по эффектам переделывать эту сцену столько раз, что они обозлились и добавили туда ботинок.
☺ Секретность, окружавшая этот фильм, была настолько суровой, что Джордж Лукас регулярно получал рапорты об «утечках» информации через актеров. Лукас был настолько полон решимости сохранить концовку в секрете, что велел актеру Дэвиду Праузу, игравшему Дарта Вейдера, произнести реплику «Оби-Ван Кеноби — твой отец» (согласно другим источникам — «Оби-Ван убил твоего отца»), а позднее продублировал эту фразу иначе: «Я твой отец».
☺ Последующие сцены с вампой (снежной тварью) были вырезаны из окончательного варианта фильма. R2-D2 встретил эту тварь на базе Сопротивления, где она была убита охраной. В завершенном фильме медицинский дроид осматривает раны таунтауна, убитого вампой, и Принцесса Лея упоминает «тварь» во время обсуждения имперского зонда. Была отснята, но впоследствии вырезана сцена, где Хан, Лея и C-3PO бегут вдоль по коридору. Хан собирается войти в помещение со знаком на двери, но Лея предупреждает его, что «здесь держат этих тварей». Они бегут дальше, но перед этим C-3PO срывает предупреждающий знак со двери, надеясь, что туда войдут имперские штурмовики.
☺ Специальная версия фильма имеет хронометраж 127 минут.

Звездные войны: Эпизод 6 - Возвращение Джедая / Star Wars: Episode VI - Return of the Jedi- Год выпуска: 1983
Страна: США
Жанр: фантастика, приключения
Продолжительность: 02:14:47
Перевод: Профессиональный (дублированный)-Режиссер:
Ричард Маркуэнд / Richard Marquand
-В ролях:
Марк Хэмилл
Харрисон Форд
Кэрри Фишер
Билли Ди Уильямс
Энтони Дэниелс
Питер Мейхью
Себастьян Шоу
Иэн МакДайармид
Фрэнк Оз
Джеймс Эрл Джонс ...
-Описание:
В заключительном шестом эпизоде «Звездных войн» Дарт Вейдер создает вторую «Звезду Смерти». Он объединяет все силы зла, чтобы с помощью этого смертоносного оружия нанести последний сокрушительный удар по повстанцам и их союзникам.Люк Скайуокер вместе с принцессой Лейей и верными дроидами R2D2 и C-3PO отправляется спасать своего друга Хана Соло, который попал в плен к отвратительному Джаббе Хатту — могущественному повелителю преступников.Повстанцы высаживаются на планету Эндор, чтобы оттуда вместе с Люком и его отрядом предпринять последнюю атаку на Имперский флот, атаку, от которой зависит судьба Галактики. В этом эпизоде Люк Скайуокер и Дарт Вейдер встречаются в последний раз&3; ибо из поединка между отцом и сыном живым выйдет только один...
- -Бюджет: $32 500 000
Сборы в США: $309 306 177
Сборы в мире: + $165 800 000 = $475 106 177-Премьера (мир): 25 мая 1983
Релиз на DVD: 9 декабря 2010
Релиз на Blu-Ray: 15 сентября 2011-Качество: BDRip
Формат: AVI
Видео: 720x304 (2.35:1), 23.976 fps, XviD, 2 631 Kbps
Аудио: AC3, 448 Kbps, 48.0 KHz, 6 ch

Формат : AVI
Формат/Информация : Audio Video Interleave
Профиль формата : OpenDML
Размер файла : 2,91 Гбайт
Продолжительность : 2 ч. 14 м.
Общий поток : 3090 Кбит/сек
Программа кодирования : VirtualDubModRus 1.5.10.2 (build 2542/release)
Библиотека кодирования : VirtualDubMod build 2542/release
Видео
Идентификатор : 0
Формат : MPEG-4 Visual
Профиль формата : Advanced [email protected]
Параметр BVOP формата : 1
Параметр QPel формата : Нет
Параметр GMC формата : Без точки перехода
Параметр матрицы формата : Выборочная
Идентификатор кодека : XVID
Идентификатор кодека/Подсказка : XviD
Продолжительность : 2 ч. 14 м.
Битрейт : 2631 Кбит/сек
Ширина : 720 пикселей
Высота : 304 пикселя
Соотношение сторон : 2,35:1
Частота кадров : 23,976 кадра/сек
Цветовое пространство : YUV
Субдискретизация насыщенности : 4:2:0
Битовая глубина : 8 бит
Тип развёртки : Прогрессивная
Метод сжатия : С потерями
Бит/(Пиксели*Кадры) : 0.501
Размер потока : 2,48 Гбайт (85%)
Библиотека кодирования : XviD 1.2.1 (UTC 2008-12-04)
Аудио
Идентификатор : 1
Формат : AC-3
Формат/Информация : Audio Coding 3
Расширение режима : CM (complete main)
Идентификатор кодека : 2000
Продолжительность : 2 ч. 14 м.
Вид битрейта : Постоянный
Битрейт : 448 Кбит/сек
Каналы : 6 каналов
Расположение каналов : Front: L C R, Side: L R, LFE
Частота : 48,0 КГц
Битовая глубина : 16 бит
Метод сжатия : С потерями
Размер потока : 432 Мбайт (14%)
Выравнивание : Разделение по промежуткам
Продолжительность промежутка : 42 мс. (1,00 видеокадр)
Время предзагрузки промежутка : 500 мс.
-

☺ Сцены на «песчаной барже» Джаббы снимались в Юме, штат Аризона. У съемочной группы возникла проблема — как скрыться от 35 тысяч фанатов — энтузиастов, приехавших в пустыню на багги. В целях секретности создатели фильма заявили, что на самом деле здесь снимается фильм ужасов под названием «Печальный итог: Кошмар за пределами вашего воображения» («Blue Harvest: Horror beyond your imagination»), и даже нарядили всех членов съемочной группы в кепки и футболки с этим названием. Это было необходимо, поскольку даже забор из колючей проволоки и круглосуточная охрана не могли помешать отчаянным фанатам просочиться на съемочную площадку и сделать тайком несколько снимков.
☺ Первоначально сразу же после спасения Хана из плена Джаббы должна была последовать песчаная буря. Эту сцену удалили, поскольку она показалась излишней и очень сложной для съемок.
☺ Согласно сценарию, Лэндо Калриссиан должен был погибнуть при взрыве Звезды Смерти вместе с кораблем Хана Соло «Millennium Falcon». Но из-за отрицательных отзывов публики эта деталь была изменена. Обратите внимание на реплику Хана, когда он улетает на захваченном имперском корабле и бросает прощальный взгляд на «Millennium Falcon»: «У меня такое странное чувство, что я больше никогда его не увижу».
☺ Несколько эвоков говорят по-филлипински (на языке «тагалог»).
☺ По слухам, был отснят еще один, другой финал фильма, где состоялась свадьба Лейи и Хана Соло.
☺ Слово «эвок» — так зовут «местных» с Эндора, похожих на медвежат — ни разу не используется в самом фильме, только в титрах.
☺ Дарта Вейдера играют сразу трое людей — Дэвид Прауз был его телом (в доспехах), его голосом был Джеймс Эрл Джонс, а его лицом был Себастьян Шоу.
☺ Одна из песен, которую поют эвоки, звучит как «Det luktar flingor har». По-шведски это означает «чую, тут пахнет кашей».
☺ Неизвестно, было ли название «Месть Джедая» («Revenge of the Jedi») с самого начала поддельным, или же действительно было изменено в самый последний момент. Официальным объяснением для изменения названия было то, что «месть — это не по-джедайски», но для этого изменения был еще один резон: так было гораздо легче отследить пиратскую продукцию — по неправильному названию. На нескольких ранних плакатах фильм действительно называется «Месть Джедая» — теперь такой плакат стоит больших денег.
☺ В DVD, выпущенном в 2004 году, в финальном явлении Люку трех призраков-джедаев Себастьян Шоу заменен на Хайдена Кристенсена, которому на момент первого выхода фильма на экраны в 1983 году было 2 года.
☺ Джордж Лукас был очень недоволен тем, что в 1983 году президент США Рональд Рейган объявил Стратегическую оборонную инициативу и назвал ее «Звездные войны». В отместку режиссер дал вице-королю Торговой Федерации - жадному, трусливому и злому типу - имя Нут Ганрей. Нут переводится как «тритон». Ганрей - анаграмма фамилии Рейган, а также анаграмма игры слов: ray gun - с англ. «лучевое оружие»
☺ Актриса Кэрри Фишер (принцесса Лея) очень переживала, что ее героиня во всех трех частях киноэпопеи, где она появляется, ходит в длинных бесформенных одеждах, за которыми не видно ее фигуры. Джордж Лукас пошел Кэрри на уступку и в последнем фильме в сцене, когда Лея находится в плену у Джаббы Хатта, максимально оголил актрису.
Download / Скачать

Хотите скачать бесплатно? Зарегистрируйтесь на сайте (ссылка на регистрацию). Pirat.ca - самый быстрый торрент трекер в рунете!

Как скачивать  ·   Что такое торрент  ·   Рейтинг и ограничения



Последний раз редактировалось: Kaper (2012-04-23 16:12), всего редактировалось 2 раз(а)

Пост 23-Апр-2012 16:53 (спустя 4 часа)

Топик был перенесен из форума Художественные фильмы (Зарубежное кино) в форум Зарубежное Кино

Linnan
 

сергей65

Штурман

Пост 30-Апр-2012 00:04 (спустя 6 дней)

[Q] 

огромное спасибо
[Профиль]  [ЛС] 

lucas09

Лоцман

Пост 11-Июн-2012 10:53 (спустя 1 месяц 11 дней)

[Q] 

встаньте кто-нибудь на раздачу, а то уже 3 дня комп не выключаю а скорость выше 30 kb\s не
поднимается, потом сам помогу с раздачей. Автору спасибо.
[Профиль]  [ЛС] 

Фтещт

Корсар

61

Пост 09-Мар-2013 12:00 (спустя 8 месяцев 28 дней)

[Q] 

интересно, а когда еще снимут уже?
[Профиль]  [ЛС] 

Kaper ®

3483

Пост 13-Мар-2013 10:57 (спустя 3 дня)

[Q] 

335993интересно, а когда еще снимут уже?

Премьера в мире - 14 марта 2015
Премьера в России - 15 июля 2015
В ролях: Харрисон Форд, Марк Хэмилл, Кэрри Фишер, Энтони Дэниелс ... (да, да, это они, старички из 4, 5 и 6 эпизодов).
Мало того, заявлено о съемках 8 и 9 эпизодов.

_________________
[Профиль]  [ЛС] 

synopsis2012

Шкипер

Пост 03-Май-2013 16:39 (спустя 1 месяц 21 день)

[Q] 


_________________



[Профиль]  [ЛС] 

Melloloir

Лоцман

Пост 16-Май-2013 19:22 (спустя 13 дней)

[Q] 

Раздайте пожалуйста
[Профиль]  [ЛС] 

vodoleii

Шкипер

Пост 25-Май-2013 19:11 (спустя 8 дней)

[Q] 

[Профиль]  [ЛС] 

xlSior

Шкипер

Пост 21-Июл-2013 20:40 (спустя 1 месяц 27 дней)

[Q] 

[Профиль]  [ЛС] 

xlSior

Шкипер

Пост 27-Июл-2013 10:14 (спустя 5 дней)

[Q] 

Люди, дайте скорости, за 6 дней скачалось только 10% !!!
[Профиль]  [ЛС] 

xonix

Лоцман

Пост 11-Сен-2013 15:44 (спустя 1 месяц 15 дней)

[Q] 

отдаю, как могу. стараюсь держать 24х7
[Профиль]  [ЛС] 

Alexik

Штурман

Пост 27-Окт-2013 14:59 (спустя 1 месяц 15 дней)

[Q] 

!!!!!!!!!!!!!! anime112
[Профиль]  [ЛС] 

Pitac

Штурман

Пост 27-Окт-2013 16:28 (спустя 1 час 28 минут)

[Q] 

Как только сам скачаю, будет вам скорость 24х7.
[Профиль]  [ЛС] 

hevard

Гроза морей

2108

Пост 07-Дек-2013 16:12 (спустя 1 месяц 10 дней)

[Q] 

338157
335993интересно, а когда еще снимут уже?

Премьера в мире - 14 марта 2015
Премьера в России - 15 июля 2015
В ролях: Харрисон Форд, Марк Хэмилл, Кэрри Фишер, Энтони Дэниелс ... (да, да, это они, старички из 4, 5 и 6 эпизодов).
Мало того, заявлено о съемках 8 и 9 эпизодов.
A fanmade poster for a fictional seventh Star Wars movie titled "Legacy of the Shadows". I haven't read any Star Wars novels or anything, so if some characters are not fitting in, don't mind. This is more to show off the layout of the poster more than the contents. Or something like that.

_________________
-Я старый пират и не знаю слов лицензионного соглашения...
[Профиль]  [ЛС] 

дядя КОЛЯ

Морской Волк

Пост 22-Фев-2014 12:06 (спустя 2 месяца 14 дней)

[Q] 

rum БОЛЬШОЕ СПАСИБО
[Профиль]  [ЛС] 

Dominik

Морской Волк

68

Пост 18-Апр-2014 07:02 (спустя 1 месяц 23 дня)

[Q] 

Вроде как начали снимать 7 часть

_________________
Раньше удивляло хамство, теперь удивляет вежливость!
[Профиль]  [ЛС] 
Показать сообщения:    
Ответить на тему

Текущее время: Сегодня 15:38

Часовой пояс: GMT + 4



Вы не можете начинать темы
Вы не можете отвечать на сообщения
Вы не можете редактировать свои сообщения
Вы не можете удалять свои сообщения
Вы не можете голосовать в опросах
Вы не можете прикреплять файлы к сообщениям
Вы не можете скачивать файлы

▼ Вниз