ML
     
  Уважаемый Гость!
Вы можете поддержать проект и зарегистрироваться у наших партнеров - онлайн-стратегия MyLands. При регистрации в игре Вы получите код, который сможете активировать после регистрации на pirat.ca и получить 1000 дублонов.

Ваш код:
a978488e62322cd72e113ab723b8a7fdc10eb9b9
 
     

Блэйд - Трилогия / Blade - Trilogy (Стивен Норрингтон / Stephen Norrington, Гильермо дель Торо / Guillermo del Toro, Дэвид С. Гойер / David S. Goyer) [1998 - 2004 гг., фантастика, боевик, BDRip] Dub

Ответить на тему
 
Автор
Сообщение

Пост 26-Апр-2012 14:38

[Q] 

Kaper


Блэйд / Blade«Вампирам не место на Земле»- Год выпуска: 1998
Страна: США
Жанр: фантастика, боевик
Продолжительность: 02:00:16
Перевод: Профессиональный (дублированный)-Режиссер:
Стивен Норрингтон / Stephen Norrington
-В ролях:
Уэсли Снайпс
Крис Кристофферсон
Стивен Дорфф
Н’Буш Райт
Донал Лог
Удо Кир
Арли Ховер
Трейси Лордс
Кевин Патрик Уоллс
Тим Гини ...
-Описание:
Получеловек-полувампир Блэйд намерен уничтожить виновника своей судьбы — Дьякона Фроста. Когда-то в кровь Блэйда попало совсем немного вампирского яда, но с течением времени он стал ощущать неизбежность своего превращения.Желая избавить людей от тайной и могущественной армии вампиров, заполонившей общество, он отправляется на решающий бой...
- -Бюджет: $45 000 000
Сборы в США: $70 087 718
Сборы в мире: + $61 095 812 = $131 183 530
Сборы в России: $241 240-Премьера (мир): 19 августа 1998
Релиз на DVD: 30 октября 2008, «Синема Трейд»-Качество: BDRip
Формат: AVI
Видео: 720x304 (2.35:1), 23.976 fps, XviD, 2 203 Kbps
Аудио: AC3, 384 Kbps, 48.0 KHz, 6 ch

Complete name : Blade I.1998.BDRip.avi
Format : AVI
Format/Info : Audio Video Interleave
Format profile : OpenDML
File size : 2.18 GiB
Duration : 2h 0mn
Overall bit rate : 2 598 Kbps
Writing application : VirtualDubModRus 1.5.10.2 (build 2542/release)
Writing library : VirtualDubMod build 2542/release
Video
ID : 0
Format : MPEG-4 Visual
Format profile : Advanced [email protected]
Format settings, BVOP : Yes
Format settings, QPel : No
Format settings, GMC : No warppoints
Format settings, Matrix : Custom
Codec ID : XVID
Codec ID/Hint : XviD
Duration : 2h 0mn
Bit rate : 2 203 Kbps
Width : 720 pixels
Height : 304 pixels
Display aspect ratio : 2.35:1
Frame rate : 23.976 fps
Color space : YUV
Chroma subsampling : 4:2:0
Bit depth : 8 bits
Scan type : Progressive
Bits/(Pixel*Frame) : 0.420
Stream size : 1.85 GiB (85%)
Writing library : XviD 1.2.1 (UTC 2008-12-04)
Audio
ID : 1
Format : AC-3
Format/Info : Audio Coding 3
Mode extension : CM (complete main)
Codec ID : 2000
Duration : 2h 0mn
Bit rate mode : Constant
Bit rate : 384 Kbps
Channel(s) : 6 channels
Channel positions : Front: L C R, Side: L R, LFE
Sampling rate : 48.0 KHz
Bit depth : 16 bits
Video delay : 900ms
Stream size : 330 MiB (15%)
Alignment : Split accross interleaves
Interleave, duration : 42 ms (1.00 video frame)
Interleave, preload duration : 500 ms
-

☺ Картина снималась в Лондоне (Великобритания), Лос-Анджелесе (США) и Ванкувере (Канада).
☺ В фильме упоминается библия вампиров — священная «Книга Эребуса». Эребус, согласно греческой мифологии, является богом тьмы.
☺ Было посчитано число жертв в этом фильме — 88 особей.
☺ Во время диалога между Фростом и Блэйдом в парке, Фрост говорит «Не изображай дядюшку Тома», на уличном жаргоне «Дядя Том» — это «чёрный, который старается походить на белого», но в данном случае это можно перевести как «вампир, который косит под человека».
☺ После выхода «Блэйда» на киноэкраны, продюсеры и режиссер Стивен Норрингтон изъявили желание снять трилогию о Диконе Фросте - главном злодее фильма «Блэйд». Переговоры со студией начались в 2000 году, но проект был заморожен из-за недостатка финансов. Позже, в 2009 году проект вновь взяли в разработку, но потом его сочли неактуальным, из-за чего проект окончательно «лег на полку».

Блэйд 2 / Blade II«Бой продолжается...»- Год выпуска: 2002
Страна: США, Германия
Жанр: фантастика, боевик
Продолжительность: 01:56:53
Перевод: Профессиональный (дублированный)-Режиссер:
Гильермо дель Торо / Guillermo del Toro
-В ролях:
Уэсли Снайпс
Крис Кристофферсон
Рон Перлман
Леонор Варела
Норман Ридус
Томас Кречманн
Люк Госс
Мэтт Шульце
Дэнни Джон-Джулс
Донни Ен ...
-Описание:
Мир вампиров в ужасе от появления новой расы супер-кровососов! Именно благодаря этому легендарный Блэйд и его учитель Уистлер вынуждены объединиться со своими кровными врагами Кровавой Стаей, — элитным отрядом вампиров-воинов.
- -Бюджет: $54 000 000
Сборы в США: $82 348 319
Сборы в мире: + $72 661 713 = $155 010 032
Сборы в России: $1 854 097-Премьера (мир): 21 марта 2002
Премьера (РФ): 2 мая 2002-Качество: BDRip
Формат: AVI
Видео: 704x400 (16:9), 23.976 fps, XviD, 2 214 Kbps
Аудио: AC3, 448 Kbps, 48.0 KHz, 6 ch

Complete name : Blade II.2002.BDRip.avi
Format : AVI
Format/Info : Audio Video Interleave
Format profile : OpenDML
File size : 2.18 GiB
Duration : 1h 56mn
Overall bit rate : 2 673 Kbps
Writing application : VirtualDubModRus 1.5.10.2 (build 2542/release)
Writing library : VirtualDubMod build 2542/release
Video
ID : 0
Format : MPEG-4 Visual
Format profile : Advanced [email protected]
Format settings, BVOP : Yes
Format settings, QPel : No
Format settings, GMC : No warppoints
Format settings, Matrix : Custom
Codec ID : XVID
Codec ID/Hint : XviD
Duration : 1h 56mn
Bit rate : 2 214 Kbps
Width : 704 pixels
Height : 400 pixels
Display aspect ratio : 16:9
Frame rate : 23.976 fps
Color space : YUV
Chroma subsampling : 4:2:0
Bit depth : 8 bits
Scan type : Progressive
Bits/(Pixel*Frame) : 0.328
Stream size : 1.81 GiB (83%)
Writing library : XviD 1.2.1 (UTC 2008-12-04)
Audio
ID : 1
Format : AC-3
Format/Info : Audio Coding 3
Mode extension : CM (complete main)
Codec ID : 2000
Duration : 1h 56mn
Bit rate mode : Constant
Bit rate : 448 Kbps
Channel(s) : 6 channels
Channel positions : Front: L C R, Side: L R, LFE
Sampling rate : 48.0 KHz
Bit depth : 16 bits
Video delay : 700ms
Stream size : 374 MiB (17%)
Alignment : Split accross interleaves
Interleave, duration : 42 ms (1.00 video frame)
Interleave, preload duration : 500 ms
-

☺ Картина снималась в период с 14 февраля по август 2001 года в Лондоне (Великобритания), Нью-Йорке (США), Праге (Чешская республика) и Торонто (Канада).
☺ Во время съемок Уэсли Спайпс был госпитализирован в результате получения многочисленных ожогов, которые он получил в результате длительной работы с огнем и легко воспламеняемой искусственной кожей.
☺ В эпизодической роли должен был сняться поп-певец Майкл Джексон (Michael Jackson), но этого так и не произошло.
☺ Финальная сцена с появлением в кабинке пип-шоу Блэйда вместо стриптизерши фактически повторяет аналогичный эпизод из «Ворон: Город ангелов». Это объясняется тем, что сценаристом обоих фильмов был Дэвид С. Гойер.
☺ В открывающей сцене фильма мы видим трамвай под номером 52, который выезжает из-под виадука в районе Карлин, а затем надпись на экране о том, что это место находится на Парижской улице. На самом деле это место на улице Соколовская. Парижская улица находится в Еврейском квартале города и очень далеко от этого места.
☺ Изначально Дэвид С. Гойер хотел видеть в сценарии не одного Номака, а двоих - братьев-близнецов по имени Номак и Старилл, но позже отказался от этой идеи и оставил в конечном варианте лишь Номака.

Блэйд 3: Троица / Blade: Trinity«Последняя охота начинается.»- Год выпуска: 2004
Страна: США
Жанр: фантастика, боевик
Продолжительность: 01:52:55
Перевод: Профессиональный (дублированный)-Режиссер:
Дэвид С. Гойер / David S. Goyer
-В ролях:
Уэсли Снайпс
Крис Кристофферсон
Доминик Пурселл
Джессика Бил
Райан Рейнольдс
Паркер Поузи
Марк Берри
Джон Майкл Хиггинс
Каллум Кит Ренни
Пол Левек ...
-Описание:
Фатальные события могут привести к захвату власти в мире вампирами. Блэйд — единственный, кто может предотвратить страшные перемены и воспрепятствовать превращению мира в «Планету вампиров».Стремясь помешать Блэйду в реализации его плана, верхушка вампиров во главе с Даникой Талос натравливают на него людей. Полиция начинает охоту на того, кого теперь все считают жутким монстром...
- -Бюджет: $65 000 000
Сборы в США: $52 411 906
Сборы в мире: + $76 493 460 = $128 905 366
Сборы в России: $2 240 644-Премьера (мир): 7 декабря 2004
Премьера (РФ): 10 февраля 2005
Релиз на DVD: 7 июля 2011-Качество: BDRip
Формат: AVI
Видео: 720x304 (2.35:1), 23.976 fps, XviD, 2 371 Kbps
Аудио: AC3, 384 Kbps, 48.0 KHz, 6 ch

Complete name : Blade III.2004.BDRip.avi
Format : AVI
Format/Info : Audio Video Interleave
Format profile : OpenDML
File size : 2.18 GiB
Duration : 1h 52mn
Overall bit rate : 2 767 Kbps
Writing application : VirtualDubModRus 1.5.10.2 (build 2542/release)
Writing library : VirtualDubMod build 2542/release
Video
ID : 0
Format : MPEG-4 Visual
Format profile : Advanced [email protected]
Format settings, BVOP : Yes
Format settings, QPel : No
Format settings, GMC : No warppoints
Format settings, Matrix : Custom
Codec ID : XVID
Codec ID/Hint : XviD
Duration : 1h 52mn
Bit rate : 2 371 Kbps
Width : 720 pixels
Height : 304 pixels
Display aspect ratio : 2.35:1
Frame rate : 23.976 fps
Color space : YUV
Chroma subsampling : 4:2:0
Bit depth : 8 bits
Scan type : Progressive
Bits/(Pixel*Frame) : 0.452
Stream size : 1.87 GiB (86%)
Writing library : XviD 1.2.1 (UTC 2008-12-04)
Audio
ID : 1
Format : AC-3
Format/Info : Audio Coding 3
Mode extension : CM (complete main)
Codec ID : 2000
Duration : 1h 52mn
Bit rate mode : Constant
Bit rate : 384 Kbps
Channel(s) : 6 channels
Channel positions : Front: L C R, Side: L R, LFE
Sampling rate : 48.0 KHz
Bit depth : 16 bits
Video delay : 250ms
Stream size : 310 MiB (14%)
Alignment : Split accross interleaves
Interleave, duration : 42 ms (1.00 video frame)
Interleave, preload duration : 500 ms
-

☺ На съемочной площадке произошел небольшой курьез: во время съемок актриса Джессика Бил настолько разошлась, что выстрелила из лука и попала прямо в камеру. Этот момент можно увидеть в разделе дополнительных материалов на DVD-изданиях.
☺ На роль Даники Талос приглашалась Сара Мишель Геллар. Но та отказалась, и роль досталась звезде независимого кино Паркер Поузи.
Download / Скачать

Хотите скачать бесплатно? Зарегистрируйтесь на сайте (ссылка на регистрацию). Pirat.ca - самый быстрый торрент трекер в рунете!

Как скачивать  ·   Что такое торрент  ·   Рейтинг и ограничения



Последний раз редактировалось: Kaper (2012-04-26 15:37), всего редактировалось 1 раз

Пост 26-Апр-2012 15:43 (спустя 1 час 4 минуты)

Топик был перенесен из форума Художественные фильмы (Зарубежное кино) в форум Зарубежное Кино

erchine
 

Beavis

Штурман

211

Пост 19-Май-2012 22:19 (спустя 23 дня)

[Q] 

[Профиль]  [ЛС] 

Сталин

Штурман

Пост 14-Сен-2012 08:49 (спустя 3 месяца 25 дней)

[Q] 

[Профиль]  [ЛС] 

Nightwalker

Гроза морей

Пост 07-Окт-2012 00:34 (спустя 22 дня)

[Q] 

Большое спасибо! Фильмы супер!

_________________
Хотя и сладостен азарт, по сразу двум идти дорогам, нельзя одной колодой карт, играть и с Дьяволом и Богом.
[Профиль]  [ЛС] 

okorm

889

Пост 13-Апр-2013 15:53 (спустя 6 месяцев 6 дней)

[Q] 

[Профиль]  [ЛС] 

igo-go

Корсар

Пост 27-Апр-2013 17:50 (спустя 14 дней)

[Q] 

отличный актер
[Профиль]  [ЛС] 

vodoleii

Шкипер

Пост 25-Май-2013 19:25 (спустя 28 дней)

[Q] 

[Профиль]  [ЛС] 

Skelet_35

Лоцман

Пост 17-Июн-2013 23:04 (спустя 23 дня)

[Q] 

[Профиль]  [ЛС] 

Skelet_35

Лоцман

Пост 18-Июн-2013 00:06 (спустя 1 час 2 минуты)

[Q] 

[Профиль]  [ЛС] 

EldarS

Шкипер

Пост 10-Мар-2014 21:11 (спустя 8 месяцев 22 дня)

[Q] 

Фильмы класс, спасибо автору за раздачу Пиратка рулит!
[Профиль]  [ЛС] 

fiona-d

Шкипер

32

Пост 14-Апр-2015 17:12 (спустя 1 год 1 месяц)

[Q] 

спасибки! Лови бочку
[Профиль]  [ЛС] 

LORD OR

Корсар

Пост 19-Апр-2015 22:44 (спустя 5 дней)

[Q] 

эээхх. Еще бы 4 дождаться, но 1 самый интересный!!!
[Профиль]  [ЛС] 

xzxscorpxzx

Флибустьер

Пост 14-Сен-2015 01:33 (спустя 4 месяца 24 дня)

[Q] 

обожаю)))))))) Лови бочку
[Профиль]  [ЛС] 
Показать сообщения:    
Ответить на тему

Текущее время: Сегодня 22:06

Часовой пояс: GMT + 4



Вы не можете начинать темы
Вы не можете отвечать на сообщения
Вы не можете редактировать свои сообщения
Вы не можете удалять свои сообщения
Вы не можете голосовать в опросах
Вы не можете прикреплять файлы к сообщениям
Вы не можете скачивать файлы

▼ Вниз