ML
     
  Уважаемый Гость!
Вы можете поддержать проект и зарегистрироваться у наших партнеров - онлайн-стратегия MyLands. При регистрации в игре Вы получите код, который сможете активировать после регистрации на pirat.ca и получить 1000 дублонов.

Ваш код:
a261790f23fb05d13d060bdee9cb70d1451a6d3d
 
     

Человек-Паук - Трилогия / Spider-Man - Trilogy (Сэм Рэйми / Sam Raimi) [2002, 2004, 2007 г., фантастика, боевик, BDRip] Dub

Ответить на тему
 
Автор
Сообщение

Пост 02-Май-2012 00:49

[Q] 

Kaper


Человек-паук / Spider-Man«Переверни свой мир вверх дном»- Год выпуска: 2002
Страна: США
Жанр: фантастика, боевик
Продолжительность: 02:01:12
Перевод: Профессиональный (дублированный)-Режиссер:
Сэм Рэйми / Sam Raimi
-В ролях:
Тоби Магуайр
Уиллем Дефо
Кирстен Данст
Джеймс Франко
Клифф Робертсон
Розмари Харрис
Дж.К. Симмонс
Джо Манганьелло
Джерри Бекер
Билл Нанн ...
-Описание:
Еще вчера Питер Паркер был обычным школьником, которого все считали неудачником и занудой, но в один прекрасный день с ним происходит чудо. Питера кусает паук-мутант, после чего с нескладным юношей происходит фантастическая метаморфоза!Невероятным образом обостряются все его чувства. Он обретает огромную силу и ловкость, а главное, умение лазать по стенам и выбрасывать прочную как сталь паутину! Так Питер начинает новую жизнь в образе таинственного Человека-паука, спасителя людей и грозы преступного мира.Но там, где есть супергерой, рано или поздно всегда объявляется и суперзлодей. И вскоре Человеку-пауку придется сразиться с Зеленым Гоблином — терроризирующим город монстром на летающем глайдере. В этой великой битве решится не только их судьба, но и судьбы тысяч жителей города...
- -Бюджет: $139 000 000
Сборы в США: $403 706 375
Сборы в мире: + $418 002 176 = $821 708 551
Сборы в России: $3 529 289-Премьера (мир): 30 апреля 2002
Премьера (РФ): 1 мая 2002
Релиз на DVD: 28 октября 2010
Релиз на Blu-Ray: 5 июня 2012-Качество: BDRip
Формат: AVI
Видео: 704x384 (16:9), 23.976 fps, XviD, 2 119 Kbps
Аудио: AC3, 448 Kbps, 48.0 KHz, 6 ch

Format : AVI
Format/Info : Audio Video Interleave
Format profile : OpenDML
File size : 2.18 GiB
Duration : 2h 1mn
Overall bit rate : 2 579 Kbps
Writing application : VirtualDubModRus 1.5.10.2 (build 2542/release)
Writing library : VirtualDubMod build 2542/release
Video
ID : 0
Format : MPEG-4 Visual
Format profile : Advanced [email protected]
Format settings, BVOP : Yes
Format settings, QPel : No
Format settings, GMC : No warppoints
Format settings, Matrix : Custom
Codec ID : XVID
Codec ID/Hint : XviD
Duration : 2h 1mn
Bit rate : 2 119 Kbps
Width : 704 pixels
Height : 384 pixels
Display aspect ratio : 16:9
Frame rate : 23.976 fps
Color space : YUV
Chroma subsampling : 4:2:0
Bit depth : 8 bits
Scan type : Progressive
Bits/(Pixel*Frame) : 0.327
Stream size : 1.79 GiB (82%)
Writing library : XviD 1.2.1 (UTC 2008-12-04)
Audio
ID : 1
Format : AC-3
Format/Info : Audio Coding 3
Mode extension : CM (complete main)
Codec ID : 2000
Duration : 2h 1mn
Bit rate mode : Constant
Bit rate : 448 Kbps
Channel(s) : 6 channels
Channel positions : Front: L C R, Side: L R, LFE
Sampling rate : 48.0 KHz
Bit depth : 16 bits
Stream size : 388 MiB (17%)
Alignment : Split accross interleaves
Interleave, duration : 42 ms (1.00 video frame)
Interleave, preload duration : 500 ms
-

☭ Роль Зеленого Гоблина была предложена Николасу Кейджу и Джону Малковичу.
☭ Джеймс Франко пробовался на роль Питера Паркера, но в итоге сыграл Гарри Осборна.
☭ На роль Питера Паркера рассматривались кандидатуры Фредди Принца-младшего, Леонардо ДиКаприо, а также Хита Леджера. На кандидатуре последнего лично настаивал режиссёр ленты Сэм Рейми.
☭ Во время сцены на День Благодарения цвет одежды Питера Паркера такой же, как и цвет костюма Зеленого Гоблина. У Нормана Осборна, наоборот, одежда повторяет цвета костюма Человека-паука. В одежде Гарри Осборна присутствуют цвета как костюма Человека-паука, так и Зеленого Гоблина: зеленая рубашка, красный галстук и синий пиджак.
☭ В разное время в качестве режиссера значились Ян де Бонт, Джеймс Камерон, Энг Ли и Дэвид Финчер.
☭ На роль Мэри Джейн Уотсон рассматривались кандидатуры Алисии Уитт, Мены Сувари и Элиши Кетберт.
☭ Разработка проекта началась еще в 1986 году на студии «Cannon Films». Позднее она продала права на экранизацию студии «Carolco Pictures». После банкротства последней права были проданы компании «Sony Pictures Entertainment Inc», которая совместно с «Marvel» профинансировала проект.
☭ В начале 1990-х Джеймс Кэмерон активно интересовался данным проектом. В 1993 году он написал сценарий. Майкл Бьен должен был сыграть Питера Паркера. Кэмерон планировал пригласить Арнольда Шварценеггера на роль доктора Октавиуса. Данному проекту не суждено было сбыться, т.к. права на фильм постоянно переходили от одной студии к другой. Также Кэмерона не устраивало качество спецэффектов, которые он собирался использовать в картине. В фильме Сэма Рэйми ничего не осталось от идей, предложенных Джимом, кроме органических картриджей для паутины.
☭ Элвин Сарджент и Скотт Розенберг «полировали» сценарий, однако их имена не указаны в титрах.
☭ Для подготовки к роли Тоби Макгвайр на протяжении пяти месяцев сидел на особой диете и прошел курс специальных тренировок.
☭ Сцена в «Колумбийском университете» снималась в не по сезону теплый весенний день. По сюжету, актеры и массовка должны были быть одеты в теплую зимнюю одежду. На заднем плане можно заметить студентов университета, одетых в рубашки и футболки.
☭ Зак Хадсон, дублер Тоби Макгвайра, сломал ногу при выполнении одного из трюков.
☭ Для фильма было создано несколько костюмов Человека-паука, каждый из которых стоил $100 000. Четыре из них были украдены во время съёмок в апреле 2001 года. Студия «Columbia Pictures» объявила награду в $25 000 за их возвращение. Костюмы были найдены восемнадцать месяцев спустя, а по подозрению в краже был арестован один из бывших охранников студии.
☭ Генетически измененный паук, укусивший Питера Паркера, — это стеатода, а не черная вдова.
☭ Наброски костюмов, сделанные Паркером, были нарисованы Филом Джименезом, художником комикса «Wonder Woman».
☭ В первоначальном трейлере фильма, Спайди ловил вертолет с грабителями банка в гигантскую паутину, сплетенную между зданиями «Всемирного торгового центра». Однако после событий 11 сентября 2001 года ролик изменили. Изначальный трейлер доступен для скачивания в Интернете.
☭ В некоторых сценах на заднем фоне можно заметить башни-близнецы. Создатели фильма решили не удалять их из фильма цифровым способом.
☭ Владельцы рекламных щитов на Times Square предприняли попытку подать в суд на компании «Sony Pictures Entertainment Inc.» и «Marvel Enterprises» за то, что в фильме их рекламные щиты были заменены рекламой других компаний. Однако до суда дело так и не дошло.
☭ Изначально песня «Somebody Else» была написана в качестве заглавной темы к сериалу «Тайны Смолвилля» (2001).
☭ По словам Тоби Макгвайра, он не прочитал ни одного комикса о Человеке-пауке, но согласился сниматься в фильме, т.к. ему понравился сценарий.
☭ Кандидатура Уиллема Дафо никогда не рассматривалась на роль Зеленого Гоблина. Однако после того как Уиллем прочитал сценарий, он стал активно добиваться получения данной роли. Для того чтобы доказать, что он подходит, Уиллем снял на камеру несколько сцен в номере своей гостинице, где читал роль Зеленого Гоблина. После того как его утвердили, Дафо попросил разрешения исполнять все свои трюки самостоятельно, без дублера. В готовом фильме он исполнил примерно 95% своих трюков. После завершения съёмок, он попросил Сэма Рэйми каким-то образом вписать его персонаж в сиквел. Сэм согласился.
☭ Иван Рэйми «полировал» сценарий.
☭ Небольшие роли в фильме сыграли постоянные актеры Сэма Рэйми — Брюс Кэмбелл и Тед Рэйми.
☭ Создателя комиксов о Человеке-пауке, Стэна Ли, можно заметить в сцене, где Зеленый Гоблин нападает на людей на балконе.
☭ В фильме содержится множество ссылок на будущих врагов Человека-паука: доктор Кертис Коннорс (Ящер), Эдди Брок (Веном), Гарри Осборн (Зеленый Гоблин # 2), Мендел Стромм (Робот Мастер).
☭ Сцена, в которой Норманн Осборн (Уиллем Дафо) обращается к членам совета директоров, начинается точно так же, как и подобная сцена в «Подручном Хадсакера» (1994), где Сэм Рэйми был соавтором сценария и вторым режиссером.
☭ Саммер Редстоун, председатель правления компании «Viacom», сыграл одного из членов совета директоров компании Нормана Осборна «Oscorp».
☭ Когда Человек-паук дерется с убийцей своего дяди, он разбивает несколько оконных стекол о голову грабителя. В другом фильме Сэма Рэйми «Человек-тьмы» (1990) бандиты подобным образом нападали в лаборатории на персонажа Лайама Нисона.
☭ На финальных титрах играет заглавная музыкальная композиция анимационного сериала о Человеке-пауке.
☭ Один из набросков Паркера для своего костюма идентичен костюму Stingray.
☭ Один из набросков Паркера для своего костюма практически идентичен черно-белому костюму, который носил Человек-паук в комиксах в начале 1980-х гг. (впоследствии данный костюм отошел Веному), только эмблема паука красная, а не белая.
☭ «Человек-паук» стал четвертым фильмом в карьере Дэвида Коеппа, который взобрался на вершину бокс-офиса в свой премьерный уикенд. Остальные три картины: «Парк Юрского периода» (1993), «Миссия невыполнима» (1996) и «Парк Юрского периода 2: Затерянный мир».
☭ В середине 1980-х гг. кандидатура Скотта Лива рассматривался на роль Питера Паркера.
☭ На роль тети Мэй рассматривалась кандидатура Мэрион Росс.
☭ Во время съёмок Кирстен Данст носила рыжий парик.
☭ Фотоаппарат Питера Паркера — Canon New F-1 SLR. Данная камера была выпущена в 1981 году.
☭ В сцене, где Питер Паркер ловит содержимое подноса Мэри Джейн, не использовались компьютерные спецэффекты. Поднос был прикреплен к руке Тоби Макгвайра, и после многочисленных дублей он, наконец-таки, исполнил трюк именно так, как это показано в фильме.
☭ В сцене трансформации Норманна Осборна дым в лаборатории был белым. Затем его подкорректировали на зеленый с помощью спецэффектов. Изначально Сэм Рэйми хотел использовать зеленый дым, однако после того как выяснилось, что невозможно создать требуемый дым, который не был бы токсичным, предпочел использование компьютерных технологий.
☭ Когда дядя Бен высаживает Питера возле библиотеки, на заднем плане можно заметить автобус с рекламой мюзикла Мела Брукса «Продюсеры» (1968). Брукс подал в суд на компанию «Sony Pictures Entertainment» за рекламу его картины без его ведома.
☭ На момент выхода фильм установил абсолютный рекорд по достижению стомиллионной отметки во внутреннем прокате, достигнув такого впечатляющего результата всего за три дня. Впрочем, этот рекорд уже побит.
☭ В первоначальной версии сценария доктор Октавиус должен был стать вторым злодеем. Однако создатели картины решили остановиться на одном злодее, а Осьминога приберечь для второй части.
☭ Согласно комиксам о Человеке-пауке, редакция, где работает Питер Паркер, находится на углу 38-ой восточной улицы и Второй авеню.
☭ На роль Мэри Джейн Уотсон пробовалась Элиза Душку. Во время проб Тоби Макгвайра на роль Человека-паука, которые можно посмотреть на DVD, роль Мэри Джейн читает Элиза.
☭ «Человек-паук» стал первым фильмом, где был показан новый логотип компании «Marvel» — перелистывание страниц комиксов.
☭ Во время разговора возле библиотеки дядя Бен говорит Питеру: «Большая сила означает большую ответственность». Данная фраза — цитата из рассказа Айзека Азимова «Двухсотлетний человек».
☭ Фильм попал в «Книгу рекордов Гиннеса» как картина с наибольшими сборами за один день проката. На второй день кинопроката «Человек-паук» заработал $43.6 миллионов.
☭ Рестлера, с которым дерется Человек-паук, сыграл настоящий рестлер Рэнди Сэведж, выступающий под именем Macho Man. На заре своей карьеры Рэнди выступал под именем Паук.
☭ Сэм Рэйми хотел, чтобы оператором фильма стал Билл Поуп, но последней не смог принять участия в проекте, т.к. был занят на «Матрице: Перезагрузка» (2003) и «Матрице: Революция» (2003). Вторым кандидатом в списке Сэма был Питер Деминг, но он также не смог принять участия в съёмках фильма, т.к. работал на «Остине Пауэрсе: Голдмембер» (2002).
☭ После событий 11 сентября 2001 года компания «Sony» отозвала все тизер-постеры, поставленные в кинотеатры, на которых был изображен крупный план лица Спайди, а в его глазах отражались башни-близнецы. Однако не все постеры были возвращены студии, и в настоящее время они являются весьма ценным приобретением для коллекционеров.
☭ Когда подчиненные Джейсона рассказывают ему о Человеке-пауке, один из них говорит: «Эдди пытался сфотографировать его в течение нескольких недель». Это — ссылка на Эдди Брока, который, согласно комиксам, работает с Паркером в той же самой газете, и через некоторое время превратится в Венома.
☭ Забегаловка, где работает Мэри Джейн, — та же самая забегаловка (по крайней мере, внешне), где работала Моника в первых сезонах сериала «Друзья» (1994).
☭ В начале фильма, когда мы впервые видим Мэри Джейн, цвета её одежды идентичны оттенкам костюма Зеленого Гоблина (как он изображен в комиксах).
☭ Во время подготовки к съёмкам фильма Тоби Макгвайр и Уиллем Дафо занимались аштанга-йогой. «Аштанга» означает «восьминогий».
☭ Секретарша Джеймсона (та, что выписывает чек) - это Бэтти Брант, одна из девушек Питера Паркера в комиксах.
☭ Человек, играющий ассистента Джеймсона (одетого в черное и в очках) - родной брат режиссера картины Тэд Рейми.
☭ Люси Лоулесс появляется в фильме в крошечном камео - в роли девушки-панка с красными волосами. В сцене, когда жители Нью-Йорка рассуждают о Человеке-Пауке, она произносит фразу «У него восемь рук? Это классно». Это довольно забавно, учитывая, что режиссер картины Сэм Рейми был продюсером сериала «Зена: Королева Воинов», в котором Лоулесс играла главную роль.
☭ Также много лет назад Камерон написал сценарий для фильма «Человек-паук», многие идеи из которого вошли в фильм Сэма Райми 2002 года. А сценарий Камерона студия отклонила, как «перенасыщенный насилием».
☭ Ещё $6,6 млн. получено в США от совместного проката фильмов «Человек-Паук» и «Люди в чёрном 2».

Человек-паук 2.1 [Расширенная версия] / Spider-Man 2.1 [Extended Cut]«Take Another Spin In IMAX»- Год выпуска: 2004
Страна: США
Жанр: фантастика, боевик
Продолжительность: 02:15:48
Перевод: Профессиональный (дублированный) со вставками Профессионального (двухголосого закадрового)-Режиссер:
Сэм Рэйми / Sam Raimi
-В ролях:
Тоби Магуайр
Кирстен Данст
Джеймс Франко
Альфред Молина
Розмари Харрис
Дж.К. Симмонс
Донна Мерфи
Дэниэл Гиллис
Дилан Бейкер
Билл Нанн ...
-Описание:
С момента событий, произошедших в первом фильме, прошло два года. Тихоня Питер Паркер сталкивается с новыми проблемами: он борется со своим «даром и проклятьем», отчаянно пытаясь балансировать на грани двух своих жизней: метающего паутину супергероя Человека-Паука и обычного студента колледжа... Мучимый своими секретами, Питер понимает, что его отношения со всеми, кто ему дорог, в опасности или заходят в тупик. Его любовь к Мэри Джейн становится еще сильнее, обостряемая порывом Питера раскрыть ей свой секрет и признаться в любви. Дружба с Гарри осложняется горечью молодого Осборна по умершему отцу и всё большим желанием отомстить Человеку-Пауку.Даже любимая тетушка Мэй, у которой были нелегкие времена после смерти дяди Бена, начинает что-то подозревать насчет своего племянника. Жизнь Питера становится еще более сложной, когда он сталкивается с новым суперзлодеем — доктором Отто Октавиусом. Питер должен использовать все свои суперспособности, чтобы одолеть этого жестокого безумца с восемью конечностями...
-Дополнительная информация:
Данная версия фильма длиннее оригинала на семь минут. Поэтому в этой раздаче присутствуют вставки профессионального двухголосого закадрового перевода, т.к. русский дубляж существует только для оригинальной версии фильма.
- -Бюджет: $200 000 000
Сборы в США: $373 585 825
Сборы в мире: + $410 180 516 = $783 766 341
Сборы в России: $9 325 000-Премьера (мир): 25 июня 2004
Премьера (РФ): 30 июня 2004
Релиз на DVD: 28 октября 2010
Релиз на Blu-Ray: 5 июня 2012-Качество: BDRip
Формат: AVI
Видео: 720x304 (2.35:1), 23.976 fps, XviD, 2 608 Kbps
Аудио: AC3, 448 Kbps, 48.0 KHz, 6 ch

Format : AVI
Format/Info : Audio Video Interleave
Format profile : OpenDML
File size : 2.91 GiB
Duration : 2h 15mn
Overall bit rate : 3 067 Kbps
Writing application : VirtualDubModRus 1.5.10.2 (build 2542/release)
Writing library : VirtualDubMod build 2542/release
Video
ID : 0
Format : MPEG-4 Visual
Format profile : Advanced [email protected]
Format settings, BVOP : Yes
Format settings, QPel : No
Format settings, GMC : No warppoints
Format settings, Matrix : Custom
Codec ID : XVID
Codec ID/Hint : XviD
Duration : 2h 15mn
Bit rate : 2 608 Kbps
Width : 720 pixels
Height : 304 pixels
Display aspect ratio : 2.35:1
Frame rate : 23.976 fps
Color space : YUV
Chroma subsampling : 4:2:0
Bit depth : 8 bits
Scan type : Progressive
Bits/(Pixel*Frame) : 0.497
Stream size : 2.47 GiB (85%)
Writing library : XviD 1.2.1 (UTC 2008-12-04)
Audio
ID : 1
Format : AC-3
Format/Info : Audio Coding 3
Mode extension : CM (complete main)
Codec ID : 2000
Duration : 2h 15mn
Bit rate mode : Constant
Bit rate : 448 Kbps
Channel(s) : 6 channels
Channel positions : Front: L C R, Side: L R, LFE
Sampling rate : 48.0 KHz
Bit depth : 16 bits
Stream size : 435 MiB (15%)
Alignment : Split accross interleaves
Interleave, duration : 42 ms (1.00 video frame)
Interleave, preload duration : 500 ms
-

☭ На роль доктора Октопуса режиссер Сэм Рэйми изначально планировал пригласить Сэма Нила или Роберта Де Ниро.
☭ 54 миллиона долларов были потрачены только лишь на компьютерные спецэффекты.
☭ Съемки второй части начались до официального утверждения сценария.
☭ Сэм Рэйми стал режиссером сиквела 1 апреля 2002 года, ровно за месяц до премьеры первого фильма.
☭ Участие Тоби Магуайра было под большим вопросом, т.к. актера замучали хронические боли в спине (после съемок в фильме «Фаворит»). Роль Человека-паука уже были готовы отдать Джэйку Джиленхаалу (бойфренд Кирстен Данст в то время), однако Тоби нашел в себе силы принять участие в съемках. Кстати, за эту роль он получил рекордный в своей карьере гонорар - 17 миллионов долларов.
☭ Начало съемок было запланировано на январь 2003 года. В феврале из-за травмы руки Тоби Магуайра съемки были приостановлены на 2 месяца.
☭ Кирстен Данст в ходе одного из интервью призналась, что в более ранних версиях сценария фигурировал персонаж Черная Кошка.
☭ Когда было объявлено о намерении сценаристов включить в сюжет персонаж Черная Кошка, актриса Хлоя Севиньи буквально умоляла режиссера картины Сэма Рэйми взять её на эту роль.
☭ По задумке промо-группы логотип «Человека-паука 2» должен был регулярно появляться в ходе трансляций матчей Национальной Бейсбольной Лиги. Однако негативная реакция телеболельщиков вынудила продюсеров отказаться от этой затеи.
☭ В фильме, помимо доктора Октопуса в исполнении Альфреда Молины, упоминаются два других злодея: Джон Джеймсон, также известный как Человек-волк, и Доктор Курт Коннорс (он упоминался в первом фильме в роли босса Питера Паркера), также известный под псевдонимом Ящер. Но и в третьей части этих персонажей обошли стороной.
☭ На роль Отто Октавиуса рассматривались кандидатуры Эда Харриса и Криса Купера.
☭ Во время съёмок фильма было использовано 35 костюмов Человека-паука.
☭ Банк, в котором происходит драка между Спайди и Осьминогом, — тот же самый банк, что и в фильме «Полицейская академия 6: Город в осаде».
☭ Дэнни Элфмэн, написавший музыку к фильму (а также к еще нескольким картинам Сэма Рэйми), серьёзно поссорился с режиссером. После завершения съёмок он заявил, что больше никогда не будет работать с Сэмом.
☭ Изначально Брюс Кэмпбелл должен был сыграть доктора Коннорса (Ящер). В первом варианте сценария Ящер должен был появиться в концовке фильма. Доктор Октавиус, узнав, кто скрывается под маской Человека-паука, старался ему помочь остановить Ящера. Однако Сэм Рэйми отверг данное развитие сюжета, т.к. не хотел делать Ящера вместе с Гарри Осборном главными злодеями третьей части. Также Рэйми был более чем уверен, что зрители моментально вспомнят, что Брюс сыграл небольшую роль в первом фильме.
☭ Два мальчика, которые отдают Человеку-пауку его маску в поезде, — кузены Тоби Магуайра.
☭ Для фильма рассматривались следующие названия: «Spider-Man: No More», «Spider-Man 2 Lives» и «Spider-Man: Unmasked». В первом заявлении о подготовке к съемкам сиквела упоминалось название «The Amazing Spider-Man».
☭ Рисунки на начальных титрах сделаны Алексом Россом.
☭ Сюжет фильма очень напоминает пятидесятый выпуска комикса «The Amazing Spider-Man» — «Spider-Man No More».
☭ Джерри О`Коннелл пробовался на роль Джона Джеймсона.
☭ Айван Рэйми «полировал» сценарий.
☭ Имя арендодателя квартиры, в которой живет Питер, — Диткович. Это — ссылка на Стива Дитко, одного из создателей Человека-паука.
☭ Драка между доктором Октавиусом и Человеком-пауком на крыше поезда была идеей Сэма Рэйми. Именно данную сцену снимали в первую очередь.
☭ На одном из этапов производства фильма Майкл Чабон работал над сценарием.
☭ Агент Тоби Магуайра запросил в качестве гонорара Тоби $25 миллионов или 10% от кассовых сборов. Студия Columbia Pictures отклонила данное предложение.
☭ Альфред Молина, сыгравший доктора Октавиуса, дал имена четырем щупальцам: Лари, Гарри, Фло и Мо.
☭ Когда Джеймсон рассуждает, как назвать доктора Октавиуса, один из вариантов предложенных Хоффманом — доктор Стрэндж (Doctor Strange). На что Джеймсон отвечает, что данное имя уже занято. В комиксах точно также зовут союзника Человека-паука.
☭ Адрес «Пиццерии Джо» точно такой же, как у Доктора Стрэнджа в комиксах о Человеке-пауке.
☭ Телефонный номер «Пиццерии Джо» — 212-366-1182 — это номер реально-существующей пиццерии в Нью-Йорке.
☭ 30 июня 2004 года фильм установил новый рекорд по сборам за первый день проката, приходящийся на среду, — $40 442 604.
☭ На одном из надгробий в сцене на кладбище содержится имя Нила Списака, создателя декораций для фильма.
☭ Сцена, в которой Питер Паркер бежит по улице, расстегивая рубашку, под которой скрыт костюм Человека-паука, — ссылка на «Супермена» (1978).
☭ Сцена, в которой Питер Паркер пытается перепрыгнуть со здания на здание, напоминает соответствующую сцену из «Матрицы» (1999).
☭ Скрипачка (Элиз Дин) играет старую музыкальную тему Человека-паука.
☭ Если внимательно рассмотреть первую страницу Daily Bugle, то помимо заголовка «Спайди и доктор Ок грабят банк!» можно заметить заголовок «Может ли хроническая боль в спине привести к усушке мозгов?». Последний — это возможная шутка на проблемы со спиной Тоби Магуайра.
☭ Когда доктор Октавиус появляется на страницах Daily Bugle в первый раз, он изображен точно так же, как и при своем первом появлении в комиксах о Человеке-пауке.
☭ В фильме содержатся несколько визуальных ссылок на первую картину. Среди них:
— Питер вбегает в горящий дом, для того чтобы спасти ребенка.
— Питер бежит по крыше здания, перед тем как выпустить паутину.
— Питер выбрасывает мусор на заднем дворе дома тети Мэй и говорит с Мэри Джейн.
— Вид из глаз Питера, когда он смотрит сквозь очки и видит размытую картинку.
☭ Пре-продакш, сценарий и подбор актеров были закончены в течение одного года с момента выхода первого фильма.
☭ Шарики из паутины, которыми кидается Человек-паук, впервые появились в The Amazing Spider-Man 53.
☭ Изначально Сэм Рэйми хотел снимать фильм с соотношением сторон 1.85:1. Но затем изменил свое решение на 2.35:1.
☭ Стихи, которые читает Питер Мэри Джейн, взяты из поэмы Генри Уодстворта Лонгфелло «Четыре ветра».
☭ Когда Джеймсон предлагает за костюм Человека-паука $50, в ответ он слышит: «Я смогу выручить за него больше на eBay». В 2001 году четыре костюма главного персонажа фильма были украдены со съёмочной площадки. Костюмы были найдены восемнадцать месяцев спустя, а по подозрению в краже был арестован один из бывших охранников студии. В свое время Columbia Pictures предложила награду в $25 000 за возвращение пропавших костюмов. Студия явно продешевила, т.к. по оценки коллекционеров каждый костюм стоил около $50 000.
☭ Когда Питер сбегает по лестнице, для того чтобы избежать встречи со своим арендодателем, последний говорит по-русски: «Балбес! Зачем только такие рождаются?»
☭ По словам Билла Поупа (оператор), для съёмок сцены драки Спайди и доктора Ока на крыше поезда было использовано 16 камер: Super 35, шесть Panavision Super 65mm, четыре Arri 435, восемь VistaVision, 8-perf Iwerks.
☭ Актер Скотт Шпигель, сыгравший человека с балкона, чуть было не съевшего кусок пиццы, написал сценарий и сыграл одну из ролей в другом фильме режиссера Сэма Рэйми «Зловещие мертвецы».
☭ В комиксах Джон Джеймсон позднее становится Человеком-Волком. Изначально была идея сделать из него Венома в третьей части (в комиксах именно Джеймсон привёз инопланетного симбионта на Землю), но позже от идеи отказались.
☭ В сцене сразу после ограбления банка, когда Доктор Осьминог, Человек-Паук и тётя Мэй находятся на стене здания, все актёры - включая 76-летнюю Розмари Харрис - на самом деле висели на тросах на большой высоте.
☭ В сцене, когда Питер роняет учебники на площадке колледжа и наклоняется, чтобы поднять их, он получает черной сумкой по лицу от проходящего мимо студента. Человек, который нес сумку, - режиссер картины Сэм Рэйми.
☭ Создатель Человека-Паука Стэн Ли появляется в этом фильме в своём стандартном камео. В сцене, когда Паук и Док Ок сражаются на стене здания первый кадр улицы в течение боя показывает, как женщину отталкивают от падающих обломков здания; человек, который отталкивает её, - и есть Ли.
☭ Пьеса, в которой играет Мэри Джейн - «Как важно быть серьёзным» Оскара Уайльда. Сцена в театре, когда приходит Питер, взята из второго действия.
☭ Полный вариант фильма имеет хронометраж 135 минут.
☭ Каратель (еще один супергерой вселенной Марвел) появляется в камео в сцене, где Мэри Джейн бежит через улицу в свадебном платье. Карателя сыграл Том МакКомас, дублер Томаса Джейна из фильма «Каратель» 2004-го года.

Человек-паук 3: Враг в отражении / Spider-Man 3«Готов ли ты к битве с самим собой?»- Год выпуска: 2007
Страна: США
Жанр: фантастика, боевик
Продолжительность: 02:19:11
Перевод: Профессиональный (дублированный)-Режиссер:
Сэм Рэйми / Sam Raimi
-В ролях:
Тоби Магуайр
Кирстен Данст
Джеймс Франко
Томас Хейден Чёрч
Тофер Грейс
Брайс Даллас Ховард
Розмари Харрис
Дж.К. Симмонс
Джеймс Кромуэлл
Тереза Расселл ...
-Описание:
Прошло пять лет с тех пор, как Питер осознал, что «с Великой силой приходит Великая ответственность!», и три года с тех пор, как он отказался быть борцом за справедливость. Но сейчас кажется, Питер прекрасно научился жить несколькими жизнями. Он хорошо учится, Нью-Йорк признал его героем, отношения с Мэри Джейн прочные. Питер даже намеревается сделать ей предложение! Но к сожалению, его лучший друг Гарри Озборн по-прежнему считает, что именно Человек-паук несет ответственность за безвременную кончину его отца. Гарри намеревается отомстить ему в образе Нового Гоблина. В то же самое время на криминальной сцене Нью-Йорка появляется другой могущественный суперзлодей, известный как Песочный Человек.Когда Человек-паук надевает таинственный черный костюм, его темная, более мстительная сторона полностью поглощает его. Эти трансформации заставляют его встретиться с самым сильным противником ― с самим собой...
- -Бюджет: $258 000 000
Сборы в США: $336 530 303
Сборы в мире: + $554 341 323 = $890 871 626
Сборы в России: $13 946 650-Премьера (мир): 16 апреля 2007
Премьера (РФ): 3 мая 2007
Релиз на DVD: 3 февраля 2011
Релиз на Blu-Ray: 14 апреля 2011-Качество: BDRip
Формат: AVI
Видео: 720x304 (2.35:1), 23.976 fps, XviD, 2 534 Kbps
Аудио: AC3, 448 Kbps, 48.0 KHz, 6 ch

Format : AVI
Format/Info : Audio Video Interleave
Format profile : OpenDML
File size : 2.91 GiB
Duration : 2h 19mn
Overall bit rate : 2 992 Kbps
Writing application : VirtualDubModRus 1.5.10.2 (build 2542/release)
Writing library : VirtualDubMod build 2542/release
Video
ID : 0
Format : MPEG-4 Visual
Format profile : Advanced [email protected]
Format settings, BVOP : Yes
Format settings, QPel : No
Format settings, GMC : No warppoints
Format settings, Matrix : Custom
Codec ID : XVID
Codec ID/Hint : XviD
Duration : 2h 19mn
Bit rate : 2 534 Kbps
Width : 720 pixels
Height : 304 pixels
Display aspect ratio : 2.35:1
Frame rate : 23.976 fps
Color space : YUV
Chroma subsampling : 4:2:0
Bit depth : 8 bits
Scan type : Progressive
Bits/(Pixel*Frame) : 0.483
Stream size : 2.46 GiB (85%)
Writing library : XviD 1.2.1 (UTC 2008-12-04)
Audio
ID : 1
Format : AC-3
Format/Info : Audio Coding 3
Mode extension : CM (complete main)
Codec ID : 2000
Duration : 2h 19mn
Bit rate mode : Constant
Bit rate : 448 Kbps
Channel(s) : 6 channels
Channel positions : Front: L C R, Side: L R, LFE
Sampling rate : 48.0 KHz
Bit depth : 16 bits
Stream size : 446 MiB (15%)
Alignment : Split accross interleaves
Interleave, duration : 42 ms (1.00 video frame)
Interleave, preload duration : 500 ms
-

☭ В ходе съемок сцены, в которой кулак Человека-Паука проходит сквозь Песочного Человека, место Тоби Магуайра занял уникальный дублер – единственный в мире однорукий чемпион мира по боксу Бакстер Хамби. Он наносил удары ампутированной до локтя рукой, а вылетающий с другой стороны Песочного Человека кулак потом приделали с помощью компьютера.
☭ Дата премьеры третьего фильма была объявлена еще до выхода второй картины.
☭ Джон Дикстра, получивший «Оскар» за создание спецэффектов к «Человеку-пауку 2» (2004), предпочел оставить франчайз и поработать над «Hot Wheels» (2007). Его место занял Скотт Стокдик.
☭ Тофер Грэйс не стал продлевать контракт на съёмки в телесериале That ’70s Show, предпочтя сыграть в данном фильме.
☭ Сэм Рэйми сделал всё возможное для того, чтобы скрыть появление Венома в третьем фильме. Во время пре-продакшна он даже заявил, что ему никогда не нравился данный персонаж, и он не намерен включать его в фильм.
☭ По словам Тофера Грэйса и Томаса Хейдена Черча, отправляясь на встречу в Sony, они даже не догадывались, что будут проходить пробы на роли в данном фильме.
☭ Роль жгучей блондинки Гвен Стейси исполнила рыжеволосая Брайс Даллас Ховард, а роль рыженькой Мэри Джейн Уотсон сыграла природная блондинка Кирстен Данст.
☭ Фильм стал одним из самых дорогих в истории современного кинематографа – бюджет картины составил 258 миллионов долларов. Ранее самым дорогими картинами считались «Кинг-Конг» (207 млн. долларов) и «Пираты Карибского моря 2: Сундук мертвеца» (225 млн. долларов). Однако, с учетом инфляции всем вышеобозначенным картинам ой как далеко до «Войны и мира» (100 млн. долларов в 1968 году эквиваленты 560 млн. долларов в наше время).
☭ Композитор Дэнни Элфман, работавший над саундтреком к предыдущим картинам френчайза, был вынужден покинуть проект по причине творческих разногласий с режиссером картины Сэмом Рейми. На боевом посту его сменил Кристофер Янг. Любопытно, что уйдя из проекта, Дэнни начал работать над музыкальным сопровождением к другой «паучьей» картине – «Паутина Шарлотты» (2006).
☭ Томасу Хейдену Черчу потребовалось около 16 месяцев работы, чтобы привести свои физические кондиции в соответствующее состояние для исполнения роли Песочного человека (Сэндмена).
☭ В сценах с участием Песочного Человека использовался настоящий песок. Единственное исключение делали для съемок сцен, в ходе которых Сэндмен, рассыпаясь, хоронит под собой своих противников. Вместо песка было решено использовать измельченные кукурузные палочки.
☭ Появление персонажа Сэндмена в третьей картине было санкционировано личным пожеланием Тоби Магвайра.
☭ По словам одного из продюсеров картины Гранта Кертиса в первых вариантах сценария одним из злодеев триквела был Стервятник (Vulture). Позднее он был заменен на Венома.
☭ Находясь в костюме Венома, Тофер Грейс не пил никаких жидкостей во время съемочных перерывов.
☭ Специалист по спецэффектам Скотт Стокдик создал миниатюрные варианты небоскребов в пропорции 1 к 16, чтобы сэкономить время и затраты, но в то же время дать возможность моделям выглядеть реалистично.
☭ Только в российском прокате к названию был добавлен подзаголовок «Враг в отражении».
☭ Для создания сцены, где вышедший из-под контроля подъемный кран рушит небоскреб, потребовался монтаж фотопанорамы городского пейзажа, кадров, сделанных на съемочной площадке в реальном масштабе (здесь декорации катастрофы создавала и приводила в движение команда спецэффектов под руководством Джона Фрезиера), съемки в уменьшенном масштабе, которую вела фирма New Deal Studios, и, наконец, цифровых эффектов, разработанных в компании CafeFX.
☭ Роль помощника Джоны Джеймсона исполнил брат Сэма Рейми - Тэд.
☭ Композитор Кристофер Янг появляется в сцене с репетицией Мери Джейн - он изображает пианиста.
Download / Скачать

Хотите скачать бесплатно? Зарегистрируйтесь на сайте (ссылка на регистрацию). Pirat.ca - самый быстрый торрент трекер в рунете!

Как скачивать  ·   Что такое торрент  ·   Рейтинг и ограничения

Пост 02-Май-2012 07:16 (спустя 6 часов)

Топик был перенесен из форума Художественные фильмы (Зарубежное кино) в форум Зарубежное Кино

genkasper
 

wirtual

Гроза морей

Пост 03-Май-2012 09:53 (спустя 1 день 9 часов)

[Q] 


_________________
не будешь делиться - останешься одноклеточным
[Профиль]  [ЛС] 

Принц Датский

Корсар

Пост 03-Май-2012 12:21 (спустя 2 часа 27 минут)

[Q] 

круто!!! aa

_________________
[Профиль]  [ЛС] 

Jigsaw

Пост 13-Май-2012 12:27 (спустя 10 дней)

[Q] 


 

UcrusPazzo

7670

Пост 28-Июн-2012 15:19 (спустя 1 месяц 15 дней)

[Q] 


_________________
[Профиль]  [ЛС] 

Letopisec

Шкипер

Пост 15-Ноя-2012 00:57 (спустя 4 месяца 16 дней)

[Q] 

[Профиль]  [ЛС] 

Fettel

Морской Волк

Пост 29-Апр-2013 18:19 (спустя 5 месяцев 14 дней)

[Q] 

[Профиль]  [ЛС] 

vodoleii

Шкипер

Пост 25-Май-2013 19:14 (спустя 26 дней)

[Q] 

[Профиль]  [ЛС] 

Kaisserash

Лоцман

Пост 04-Мар-2015 01:55 (спустя 1 год 9 месяцев)

[Q] 

!COOL! Автору респект!!!
[Профиль]  [ЛС] 
Показать сообщения:    
Ответить на тему

Текущее время: Сегодня 20:04

Часовой пояс: GMT + 4



Вы не можете начинать темы
Вы не можете отвечать на сообщения
Вы не можете редактировать свои сообщения
Вы не можете удалять свои сообщения
Вы не можете голосовать в опросах
Вы не можете прикреплять файлы к сообщениям
Вы не можете скачивать файлы

▼ Вниз