ML
     
  Уважаемый Гость!
Вы можете поддержать проект и зарегистрироваться у наших партнеров - онлайн-стратегия MyLands. При регистрации в игре Вы получите код, который сможете активировать после регистрации на pirat.ca и получить 1000 дублонов.

Ваш код:
4fbd9898b6f10799a3e8edf60f31febd2bc15453
 
     

Трансформеры - Трилогия / Transformers - Trilogy (Майкл Бэй / Michael Bay) [2007, 2009, 2011 гг., фантастика, боевик, BDRip] Dub

Ответить на тему
 
Автор
Сообщение

Пост 04-Май-2012 17:29

[Q] 

Kaper


Трансформеры / Transformers«Наш мир. Их война»- Год выпуска: 2007
Страна: США
Жанр: фантастика, боевик
Продолжительность: 02:23:27
Перевод: Профессиональный (дублированный)-Режиссер:
Майкл Бэй / Michael Bay
-В ролях:
Шайа ЛаБаф
Меган Фокс
Джош Дюамель
Тайриз Гибсон
Рэйчел Тейлор
Энтони Андерсон
Джон Войт
Джон Туртурро
Майкл О’Нил
Кевин Данн ...
-Описание:
В течение многих столетий две расы роботов-инопланетян — Автоботы и Десептиконы — вели войну, ставкой в которой была судьба Bселенной. И вот война докатилась до Земли. В то время, когда силы зла ищут ключ к верховной власти, наш последний шанс на спасение находится в руках юного землянина. Единственное, что стоит между несущими зло Десептиконами и высшей властью — это ключ, находящийся в руках простого парнишки.Обычный подросток, Сэм Уитвикки озабочен повседневными хлопотами — школа, друзья, машины, девочки. Не ведая о том, что он является последним шансом человечества на спасение, Сэм вместе со своей подругой Микаэлой оказывается вовлеченным в противостояние Автоботов и Десептиконов. Только тогда Сэм понимает истинное значение семейного девиза Уитвикки — «без жертв нет победы!»
- -Бюджет: $150 000 000
Сборы в США: $319 246 193
Сборы в мире: + $389 026 388 = $708 272 581
Сборы в России: $15 284 050-Премьера (мир): 12 июня 2007
Премьера (РФ): 4 июля 2007
Релиз на DVD: 14 декабря 2010
Релиз на Blu-Ray: 28 апреля 2009-Качество: BDRip
Формат: AVI
Видео: 720x304 (2.35:1), 23.976 fps, XviD, 2 445 Kbps
Аудио: AC3, 448 Kbps, 48.0 KHz, 6 ch

Format : AVI
Format/Info : Audio Video Interleave
Format profile : OpenDML
File size : 2.91 GiB
Duration : 2h 23mn
Overall bit rate : 2 904 Kbps
Writing application : VirtualDubModRus 1.5.10.2 (build 2542/release)
Writing library : VirtualDubMod build 2542/release
Video
ID : 0
Format : MPEG-4 Visual
Format profile : Advanced [email protected]
Format settings, BVOP : Yes
Format settings, QPel : No
Format settings, GMC : No warppoints
Format settings, Matrix : Custom
Codec ID : XVID
Codec ID/Hint : XviD
Duration : 2h 23mn
Bit rate : 2 445 Kbps
Width : 720 pixels
Height : 304 pixels
Display aspect ratio : 2.35:1
Frame rate : 23.976 fps
Color space : YUV
Chroma subsampling : 4:2:0
Bit depth : 8 bits
Scan type : Progressive
Bits/(Pixel*Frame) : 0.466
Stream size : 2.45 GiB (84%)
Writing library : XviD 1.2.1 (UTC 2008-12-04)
Audio
ID : 1
Format : AC-3
Format/Info : Audio Coding 3
Mode extension : CM (complete main)
Codec ID : 2000
Duration : 2h 23mn
Bit rate mode : Constant
Bit rate : 448 Kbps
Channel(s) : 6 channels
Channel positions : Front: L C R, Side: L R, LFE
Sampling rate : 48.0 KHz
Bit depth : 16 bits
Stream size : 460 MiB (15%)
Alignment : Split accross interleaves
Interleave, duration : 42 ms (1.00 video frame)
Interleave, preload duration : 500 ms
-

☺ Слоган к фильму «Наш мир. Их война» должен был появиться на постерах к картине «Чужой против хищника», но в самый последний момент был заменен на «Кто бы ни победил… мы проиграем».
☺ По словам создателей спецэффектов из ILM на рендеринг каждого кадра с CGI-анимацией тратилось около 38 часов. Прежним рекордом владела студия Weta Workshop, в ходе работы над фильмом «Властелин колец: Две башни» тратившая на обработку кадра по 20 часов.
☺ Продюсер картины Дон Мерфи после общения с фанатами френчайза, решил прибегнуть к использованию хорошо знакомых голосов из сериала «Трансформеры». Ветераны Питер Каллен и Фрэнк Уелкер, голосами которых разговаривали лидеры трансформеров – Оптимус Прайм и Мегатрон, прослушивались персонально самим Майклом Бэем, боявшимся, что их постаревшие голоса могут не подойти. Опасения оправдались ровно на половину: голос Каллена был утвержден, а голос Уелкера был заменен на голос Хьюго Уивинга, известного по роли агента Смита в «Матрице».
☺ В первоначальный вариант сценария была включена Арси (Arcee), считавшаяся одним из самых женственных автоботов, что не вызвало ни малейшего ажиотажа среди фанатов. Вскоре Арси исчезла из сценария и была заменена на Айронхайда (Ironhide).
☺ В мультипликационном варианте Бамблби трансформировался из автомобиля Фольксваген Жук, однако в киноверсии Фольксваген заменили на Шевроле Камаро. Сделано это было по желанию Майкла Бэя, боявшегося сравнения персонажа с другим известным «автомобильным киножуком» - Херби. Фанаты оригинального сериала наверняка заметят желтый Фольксваген в сцене покупки Сэмом автомобиля.
☺ Майкл Бэй, которого пригласили режиссировать фильм, сначала счел будущую картину «глупой игрушечной историей», но вскоре передумал, после того, как вспомнил о своем первоначальном отношении к проекту «Индиана Джонс», ставшему в 1981 году настоящим хитом проката. В апреле 2005 года он был официально заявлен режиссером проекта, обогнав кандидата Роланда Эммериха.
☺ Первый комикс о трансформерах был выпущен в 1984 году компанией Marvel Comics. Первоначально планировалось всего четыре выпуска.
☺ Продюсер фильма Стивен Спилберг не заплатил ни одному актеру больше 70.000 долларов, пообещав высокие гонорары в последующих сиквелах.
☺ Над спецэффектами фильма работала команда из 80-ти человек.
☺ В картине Майкла Бэя Оптимус Прайм предстает в виде тягача Peterbilt 379. В ранней картине исполнительного продюсера «Трансформеров» Стивена Спилберга «Дуэль» (1971) главным действующим героем также был тягач Peterbilt 281.
☺ Звуки трансформации позаимствованы из одноименного мультсериала 1984 года.
☺ Согласно высказываниям Лоренцо ди Бонавентуры, все трансформации роботов были тщательно просчитаны математически. Таким образом, внимательные зрители могут понять, куда уходит каждая составная часть робота при обратной трансформации в транспортное средство.
☺ Мегатрону решили сделать лицо, мало напоминающее человеческое, чтобы придать данному персонажу еще более грозный вид.
☺ Пушка Айронхайда состоит из 10 тысяч деталей.
☺ В первой версии сценария фигурировал персонаж Рэведж (Ravage – уничтожение), роботоподное животное, сражающееся за Десептиконов. Позднее от Рэведжа избавились и включили в сценарий другое трансформирующееся существо - Скорпонока. Именно Скорпонок атакует выживших американских военных в одной из сцен первой половины картины.
☺ В первых вариантах сценария был прописан персонаж Юникорн, представляющий собой планету-трансформер. Ожидается, что этот персонаж получит право на кинематографическую жизнь в сиквеле.
☺ В фильме представлено 8 десептиконов и 5 автоботов. На сей шаг авторы сценария пошли намеренно, чтобы подчеркнуть работу автоботов в команде, а также показать, насколько опасна угроза завоевания нашей планеты десептиконами.
☺ Еще один момент, перекочевавший из сериала в фильм,- глаза трансформеров: cиние у автоботов, и красные у десептиконов.
☺ В комнате Сэма можно увидить плакат рок-группы Linkin Park, именно сингл этой группы What I've Donе является темой для фильма.
☺ Ровно на 60 минуте, парень бегущий с камерой к месту падения метеорита кричит «Я такой крутизны еще не видел, все вокруг взрывается, это точно в сто раз круче армагеддона». Фильм Армагеддон снял также Майкл Бэй.
☺ Во время синхронного разворота автоботов на шоссе, видно, что Оптимус начинает его первым и за ним встает Джаз. Однако потом Оптимус Прайм едет последним.
☺ По данному фильму была сделана одноименная игра.
☺ Для создания первой части «Трансформеров» пришлось задействовать 20 Тб дискового пространства серверов. Для работы над вторым фильмом едва хватило 145 Тб. Для сравнения, 145 Тб – это объем 35000 DVD-дисков.
☺ Изначально Майкл Бэй не хотел брать Шайю ЛаБафа на роль Сэма, так как считал, что актер слишком стар для этой роли.
☺ Десептикон Брол (Brawl) — модифицированный танк «M1 Abrams», первоначально был назван «Devastator», но позже Бэй признал ошибку и десептикона переименовали в Брола. Несмотря на это, в DVD-версии сохранился неисправленный субтитр «Devastator reporting».

Трансформеры 2: Месть падших / Transformers 2: Revenge of the Fallen«Месть неминуема»- Год выпуска: 2009
Страна: США
Жанр: фантастика, боевик
Продолжительность: 02:30:24
Перевод: Профессиональный (дублированный)-Режиссер:
Майкл Бэй / Michael Bay
-В ролях:
Шайа ЛаБаф
Меган Фокс
Джош Дюамель
Тайриз Гибсон
Джон Туртурро
Рамон Родригез
Кевин Данн
Джули Уайт
Изабель Лукас
Джон Бенжамин Хикки ...
-Описание:
Прошло два года с тех пор, как юный Сэм Уитвикки спас Вселенную, предотвратив глобальную битву между враждующими воинственными расами инопланетных роботов. Несмотря на свои героические подвиги, Сэм остается обычным подростком с обычными проблемами — поступлением в колледж и родителями. Разумеется, отъезд будет тяжело воспринят лучшим другом, роботом — телохранителем Бамблби.Сэм изо всех сил пытается забыть о конфликте в Мишн Сити и вернуться к нормальной жизни. Однако битва между Автоботами и Десептиконами, несмотря на гриф полной секретности, многое изменила...
- -Бюджет: $200 000 000
Сборы в США: $402 111 870
Сборы в мире: + $434 185 358 = $836 297 228
Сборы в России: $18 170 854-Премьера (мир): 19 июня 2009
Премьера (РФ): 21 июня 2009
Релиз на DVD: 3 ноября 2009
Релиз на Blu-Ray: 10 ноября 2009-Качество: BDRip
Формат: AVI
Видео: 720x304 (2.35:1), 23.976 fps, XviD, 2 311 Kbps
Аудио: AC3, 448 Kbps, 48.0 KHz, 6 ch

Format/Info : Audio Video Interleave
Format profile : OpenDML
File size : 2.91 GiB
Duration : 2h 30mn
Overall bit rate : 2 769 Kbps
Writing application : VirtualDubModRus 1.5.10.2 (build 2542/release)
Writing library : VirtualDubMod build 2542/release
Video
ID : 0
Format : MPEG-4 Visual
Format profile : Advanced [email protected]
Format settings, BVOP : Yes
Format settings, QPel : No
Format settings, GMC : No warppoints
Format settings, Matrix : Custom
Codec ID : XVID
Codec ID/Hint : XviD
Duration : 2h 30mn
Bit rate : 2 311 Kbps
Width : 720 pixels
Height : 304 pixels
Display aspect ratio : 2.35:1
Frame rate : 23.976 fps
Color space : YUV
Chroma subsampling : 4:2:0
Bit depth : 8 bits
Scan type : Progressive
Bits/(Pixel*Frame) : 0.440
Stream size : 2.43 GiB (83%)
Writing library : XviD 1.2.1 (UTC 2008-12-04)
Audio
ID : 1
Format : AC-3
Format/Info : Audio Coding 3
Mode extension : CM (complete main)
Codec ID : 2000
Duration : 2h 30mn
Bit rate mode : Constant
Bit rate : 448 Kbps
Channel(s) : 6 channels
Channel positions : Front: L C R, Side: L R, LFE
Sampling rate : 48.0 KHz
Bit depth : 16 bits
Stream size : 482 MiB (16%)
Alignment : Split accross interleaves
Interleave, duration : 42 ms (1.00 video frame)
Interleave, preload duration : 500 ms
-

☺ Для создания первой части «Трансформеров» пришлось задействовать 20 Тб дискового пространства. Для работы над вторым фильмом едва хватило 145 Тб. Для сравнения, 145 Тб – это объем 35000 DVD-дисков. Если сложить столько дисков без коробок друг на друга, то их высота составит 44 метра.
☺ В первой части было 14 роботов, на этот раз - 46.
☺ Экранное время спецэффектов от студии ILM - 51 минута.
☺ Рендеринг фильма на среднестатистическом домашнем компьютере образца 2009 года занял бы 16 тысяч лет.
☺ Съёмки начались на следующий день, после того как «Трансформеры» получили награду MTV в номинации «Лучший фильм».
☺ Майкл Бэй планировал снять кино с небольшим бюджетом в промежутке между фильмами о трансформерах. Однако, когда график съёмок второй части «Трансформеров» сдвинулся, Бэй отложил свой маленький проект, т.к. не хотел, чтобы сиквел снимал кто-то другой.
☺ Джоне Хилл предлагали роль в фильме, однако он отказался, прочитав всего лишь первые двадцать страниц сценария.
☺ Изначально Роберто Орси и Алекс Куртцман, написавшие сценарий первого фильма, отклонили предложение написать сценарий сиквела из-за занятости на других проектах. Однако, после того, как студия признала сценарии других авторов неприемлемыми, продюсерам удалось убедить Роберто и Алекса, поработать над вторым фильмом.
☺ Автобот Хаунд, трансформирующий в военный джип «Jeep Wrangler», был добавлен в фильм по просьбе Министерства обороны США, после того как они заметили, что в первой картине в основном в военную технику трансформировались десептиконы.
☺ Сиквел вполне мог пасть жертвой забастовки сценаристов, однако Роберто Орси, Алекс Куртцман и Эрен Крюгер успели закончить тритмент в ночь перед началом забастовки.
☺ В июле 2008 Шайа ЛаБаф попал в аварию. Сценаристам пришлось обыграть в фильме травму его руки.
☺ Алекс Куртцман придумал название фильма. Роберто Орси хотел, чтобы фильм назывался «Transformers: More Than Meets the Eye».
☺ Мэттью Мэрсден был фанатом комиксов о трансформерах в детстве.
☺ Эрен Крюгер присоединился к сценарной команде во многом благодаря своему энциклопедическому знанию вселенной трансформеров.
☺ Во время набора актеров и выбора мест съёмок фильм проходил под вымышленным названием «Prime Directive».
☺ Изначально автобот Арси должен был присутствовать в первом фильме.
☺ Десептикон Саундвэйв должен был присутствовать в первом фильме, однако работы над его внешним видом не были завершены в срок. В сиквеле он будет трансформироваться в спутник.
☺ Фильм приурочен к двадцатипятилетию «Трансформеров» (1984).
☺ Группа «Mute Math» записала рок-версию музыкальной темы «Трансформеров» (1984), которая должна была быть использована в первом фильме. Создатели так и не нашли для неё места, однако композиция будет использована в сиквеле.
☺ Три экшн-сцены были сняты камерами IMAX.
☺ По словам Стива Яблонски, в саундтреке сиквела будут присутствовать элементы оригинальной музтемы трансформеров. Стив собирался включить данные элементы в саундтрек первого фильма, однако его идею отклонили.
☺ В некоторых массовках участвовали настоящие моряки ВМФ США.
☺ Древний город Петра, где Сэм и автоботы находят тайник Праймов, также послужил для съемок кульминационной сцены фильма Стивена Спилберга «Индиана Джонс и последний крестовый поход».
☺ В фильме можно заметить постеры двух фильмов - «Монстро» и «Плохие парни 2». Постер первого фильма отсылает к сценаристам Курцману и Орси, которые постоянно сотрудничают с продюсером «Монстро» Дж.Дж Абрамсом. А постер второго фильма отсылает к режиссеру Майклу Бэю, снимавшего «Плохих парней 2».
☺ Робот Девастатор ростом с 10-ти этажное здание.
☺ Когда Девастатор наносит удар по пирамиде, его рука развивает скорость 626 км/час. Детали этого робота, поставленные одна на другую, образовали бы башню, высота которой была бы в 58 раз выше знаменитого Empire State Building в Нью-Йорке. Общая длина деталей Девастатора около 22 км.
☺ Во время пре-продакшна Майкл Бэй заявил, что будет специально инсценировать утечку в сеть различной фальшивой информации, чтобы подстегнуть шумиху вокруг фильма и обсуждение картины на различных киносайтах.
☺ По данному фильму была сделана одноименная игра.
☺ В фильме задействованы как последнее из сохранившихся «классических» семи чудес света - Пирамида Хеопса в Гизе, так и одно из «новых» 7-ми чудес света - Петра в Иордании.
☺ В комнате общежития колледжа висел постер к фильму «Плохие парни 2».
☺ Время обработки одного кадра IMAX - 72 часа каждый кадр.

Трансформеры 3: Тёмная сторона Луны / Transformers: Dark of the Moon«Последний шанс цивилизации»- Год выпуска: 2011
Страна: США
Жанр: фантастика, боевик
Продолжительность: 02:34:23
Перевод: Профессиональный (дублированный)-Режиссер:
Майкл Бэй / Michael Bay
-В ролях:
Шайа ЛаБаф
Джош Дюамель
Джон Туртурро
Тайриз Гибсон
Роузи Хантингтон-Уайтли
Патрик Демпси
Кевин Данн
Джули Уайт
Джон Малкович
Питер Каллен ...
-Описание:
Для наших героев наступили печальные будни: Сэм потерял Микаэлу, правительство выпускает законодательный акт о выселении Автоботов с Земли, а пока Мегатрон скрывается после позорного поражения Фоллена, десептикон Шокуэйв, правитель Кибертрона, готовится нанести визит нашей планете с совсем недобрыми намерениями. Действие заключительной части трилогии на этот раз охватит не только Землю, но и Луну, темная сторона которой хранит не менее темные тайны.
- -Бюджет: $195 000 000
Сборы в США: $352 390 543
Сборы в мире: + $771 355 820 = $1 123 746 363
Сборы в России: $45 192 675-Премьера (мир): 25 июня 2011
Премьера (РФ): 29 июня 2011
Релиз на DVD: 24 ноября 2011
Релиз на Blu-Ray: 24 ноября 2011-Качество: BDRip
Формат: AVI
Видео: 720x304 (2.35:1), 23.976 fps, XviD, 2 242 Kbps
Аудио: AC3, 448 Kbps, 48.0 KHz, 6 ch

Format : AVI
Format/Info : Audio Video Interleave
Format profile : OpenDML
File size : 2.91 GiB
Duration : 2h 34mn
Overall bit rate : 2 700 Kbps
Writing application : VirtualDubModRus 1.5.10.2 (build 2542/release)
Writing library : VirtualDubMod build 2542/release
Video
ID : 0
Format : MPEG-4 Visual
Format profile : Advanced [email protected]
Format settings, BVOP : Yes
Format settings, QPel : No
Format settings, GMC : No warppoints
Format settings, Matrix : Custom
Codec ID : XVID
Codec ID/Hint : XviD
Duration : 2h 34mn
Bit rate : 2 242 Kbps
Width : 720 pixels
Height : 304 pixels
Display aspect ratio : 2.35:1
Frame rate : 23.976 fps
Color space : YUV
Chroma subsampling : 4:2:0
Bit depth : 8 bits
Scan type : Progressive
Bits/(Pixel*Frame) : 0.427
Stream size : 2.42 GiB (83%)
Writing library : XviD 1.2.1 (UTC 2008-12-04)
Audio
ID : 1
Format : AC-3
Format/Info : Audio Coding 3
Mode extension : CM (complete main)
Codec ID : 2000
Duration : 2h 34mn
Bit rate mode : Constant
Bit rate : 448 Kbps
Channel(s) : 6 channels
Channel positions : Front: L C R, Side: L R, LFE
Sampling rate : 48.0 KHz
Bit depth : 16 bits
Stream size : 495 MiB (17%)
Alignment : Split accross interleaves
Interleave, duration : 42 ms (1.00 video frame)
Interleave, preload duration : 500 ms
-

☺ Мировая премьера фильма состоялась в Москве в рамках Московского международного кинофестиваля 23 июня 2011 года.
☺ Из-за конфликта с режиссером фильма Меган Фокс была вынуждена покинуть проект.
☺ 1 миллион американских долларов был потрачен в течение двух съемочных дней в Художественном музее Милуоки.
☺ Майкл Бэй - единственный режиссер, которому было разрешено дважды снять запуск космического шатла («Армагеддон» и «Трансформеры 3»).
☺ Трансформеры созданы компанией по производству игрушек Hasbro в 1984 году, позже ставших медиаимперией из мультсериалов и комиксов. Сегодня права на комиксы Трансформеров принадлежат издательству IDW и они дополняют как кинофраншизу, так и оригинальную вселенную Трансформеров.
☺ Сентинел Прайм (озвучивал в оригинале Леонард Нимой) перед финальной битвой с Оптимусом говорит: «Потребности большинства перекрывают потребности меньшинства». Примечательно, что это фраза является фразой Спока («Звёздный путь»), роль которого исполнял Леонард Нимой.
☺ Главными претендентками на роль Карли были Бруклин Декер и Сара Райт. Также её могли сыграть Джемма Артертон, Эшли Грин, Миранда Керр, Бар Рафаэли, Эмбер Херд, Камилла Белль, Кэти Кэссиди, Хайди Монтаг и Анна Кендрик.
☺ Майклу Бэю достается 8% от продаж всей мерчандайзинговой продукции - игрушек, сувениров, комиксов - связанной с фильмом. К оригинальным игрушкам Трансформеров, не брендированных в стиле кинофраншизы, это не относится.
☺ Во время съемок автомобильной сцены в штате Индиана лопнул буксировочный трос. Оторвавшись, он тяжело ранил водительницу. Габриэла Седийо осталась в живых, но лишилась глаза, получила серьезное повреждение головного мозга и оказалась наполовину парализована.
☺ За весь период съемок фильма было уничтожено 532 автомобиля.
☺ Одну из экшен-сцен Бэй планировал снять в Чикаго, на крыше небоскрёбов-близнецов Marina City, за что их владельцы потребовали $40 тыс. Казалось бы, незначительная по голливудским меркам сумма, но, по мнению Бэя, она была завышенной, и режиссер отказал «вымогателям».
Download / Скачать

Хотите скачать бесплатно? Зарегистрируйтесь на сайте (ссылка на регистрацию). Pirat.ca - самый быстрый торрент трекер в рунете!

Как скачивать  ·   Что такое торрент  ·   Рейтинг и ограничения



Последний раз редактировалось: Kaper (2012-05-05 08:09), всего редактировалось 1 раз

Пост 05-Май-2012 00:03 (спустя 6 часов)

Топик был перенесен из форума Художественные фильмы (Зарубежное кино) в форум Зарубежное Кино

erchine
 

kld

Лоцман

Пост 05-Май-2012 02:35 (спустя 9 часов)

[Q] 

ОФОРМЛЕНИЕ КЛАСС!!!! cy
[Профиль]  [ЛС] 

Egoist88

Штурман

Пост 27-Июн-2012 14:04 (спустя 1 месяц 22 дня)

[Q] 


_________________
~SERPENS QUI CANDAM DEVORAT~
[Профиль]  [ЛС] 

XAPOH

Гроза морей

Пост 02-Июл-2012 21:39 (спустя 5 дней)

[Q] 

Бочонок в комплекте. Надо посмотреть хоть раз от начала до конца ))

_________________

<<<Dolus an virtus quis in hoste requirat?>>>
Intel Core i7 2600, 16Gb Ram, GTX 670, SSD.
PS4.
[Профиль]  [ЛС] 

PEHA

Лоцман

Пост 05-Сен-2012 20:35 (спустя 2 месяца 2 дня)

[Q] 

Прошел игру, захотел пересмотреть))) Встанте на раздачу!
[Профиль]  [ЛС] 

Dj NIKI

Флибустьер

3041

Пост 23-Ноя-2012 08:33 (спустя 2 месяца 17 дней)

[Q] 

Господа раздающие, накиньте пожалуйста скорости...
Потому что качать так не вариант!

_________________
[Профиль]  [ЛС] 

maximusqu

Лоцман

Пост 05-Янв-2013 21:20 (спустя 1 месяц 12 дней)

[Q] 

Спасибо
[Профиль]  [ЛС] 

Fettel

Морской Волк

Пост 29-Апр-2013 18:08 (спустя 3 месяца 23 дня)

[Q] 

[Профиль]  [ЛС] 

kottom

Лоцман

Пост 09-Июл-2013 15:28 (спустя 2 месяца 9 дней)

[Q] 

Сидер,приди!
[Профиль]  [ЛС] 

Alexe10

Гроза морей

36

Пост 14-Дек-2013 13:54 (спустя 5 месяцев 4 дня)

[Q] 

эпично! !COOL!
[Профиль]  [ЛС] 

You NexT

Штурман

86

Пост 12-Мар-2014 16:25 (спустя 2 месяца 29 дней)

[Q] 

Всем качать!!! Спасибо!!! супер
[Профиль]  [ЛС] 

Farleyndia

Лоцман

Пост 26-Июн-2014 02:29 (спустя 3 месяца 13 дней)

[Q] 

Спасибо. Класс.
[Профиль]  [ЛС] 

sqquirrell

Шкипер

Пост 29-Июн-2014 23:44 (спустя 3 дня)

[Q] 

Пересмотримс.. Спасибо!!!
[Профиль]  [ЛС] 

The-PRinz:3

Шкипер

Пост 29-Июл-2014 11:55 (спустя 29 дней)

[Q] 

Глянем спасибо большое))) Супер!

_________________
[Профиль]  [ЛС] 

kalmyk73

Морской Волк

Пост 22-Ноя-2014 18:26 (спустя 3 месяца 24 дня)

[Q] 

Скорость как у черепахи НУ НИКАК

_________________
Я люблю тебя жизнь ну а ты меня СНОВА И СНОВА.
[Профиль]  [ЛС] 

hevard

Гроза морей

2109

Пост 05-Янв-2015 08:01 (спустя 1 месяц 12 дней)

[Q] 

А 4-ю часть в коллекцию?

_________________
-Я старый пират и не знаю слов лицензионного соглашения...
[Профиль]  [ЛС] 

xzxscorpxzx

Флибустьер

Пост 14-Сен-2015 05:54 (спустя 8 месяцев 8 дней)

[Q] 

спасибо) !COOL!
[Профиль]  [ЛС] 
Показать сообщения:    
Ответить на тему

Текущее время: Сегодня 20:01

Часовой пояс: GMT + 4



Вы не можете начинать темы
Вы не можете отвечать на сообщения
Вы не можете редактировать свои сообщения
Вы не можете удалять свои сообщения
Вы не можете голосовать в опросах
Вы не можете прикреплять файлы к сообщениям
Вы не можете скачивать файлы

▼ Вниз