ML
     
  Уважаемый Гость!
Вы можете поддержать проект и зарегистрироваться у наших партнеров - онлайн-стратегия MyLands. При регистрации в игре Вы получите код, который сможете активировать после регистрации на pirat.ca и получить 1000 дублонов.

Ваш код:
822959f93c00d34653763d5bbf9ee9a7134af98a
 
     

Назад в будущее: Трилогия / Back to the Future: Trilogy (Роберт Земекис / Robert Zemeckis) [1985-1990 г., фантастика, комедия, приключения, BDRIp-AVC] [internal release]

Ответить на тему
 
Автор
Сообщение

Пост 09-Май-2012 21:41

[Q] 

zyyx

--Назад в будущее / Back to the Future
«Семнадцатилетний Марти МакФлай пришел вчера домой пораньше. На 30 лет раньше.»
-- Год выпуска: 1985
Мировая премьера: 3 июля 1985
Производство: США
Жанр: фантастика, комедия, приключения
Продолжительность: 01:56:01
Перевод: Профессиональный (полное дублирование) [Лицензия]
Оригинальный аудиопоток: английский
Субтитры: отсутствуют
Режиссер: Роберт Земекис / Robert Zemeckis
В ролях
Майкл Дж. Фокс, Кристофер Ллойд, Лиа Томпсон, Криспин Гловер, Томас Ф. Уилсон, Клодия Уэллс, Марк МакКлюр, Уэнди Джо Спербер, Джордж ДиЧенцо, Фрэнсис Ли МакКейн
Описание
Подросток Марти с помощью машины времени, сооруженной его другом профессором доком Брауном, попадает из 80-х в далекие 50-е. Там он встречается со своими будущими родителями, еще подростками, и другом-профессором, совсем молодым.
Источник/Качество: BDRIp-AVC | Сэмпл | КиноПоиск
Формат: MKV
Видео кодек: H.264
Аудио кодек: AC3
Видео: 1008x544, 23.976fps, 1888 Kbps, 0.144 bit/pixel
Аудио: 48.0 KHz, 6 ch, 320 Kbps Rus/Eng
General
Unique ID : 170915114742548576546269232735116949184 (0x80950DC21BB057ADAB2D7F0281D576C0)
Complete name : O:\rips zyyx\Новая папка (2)\Back to the Future.1985.BDRip-AVC.mkv
Format : Matroska
Format version : Version 2
File size : 2.05 GiB
Duration : 1h 56mn
Overall bit rate : 2 528 Kbps
Movie name : Back to the Future Part I 1985 - Internal Release for Pirat.ca [zyyx]
Encoded date : UTC 2012-05-13 08:23:53
Writing application : mkvmerge v4.9.1 ('Ich will') сборка от Jul 11 2011 23:53:15
Writing library : libebml v1.2.1 + libmatroska v1.1.1
Video
ID : 1
Format : AVC
Format/Info : Advanced Video Codec
Format profile : [email protected]
Format settings, CABAC : Yes
Format settings, ReFrames : 11 frames
Muxing mode : Header stripping
Codec ID : V_MPEG4/ISO/AVC
Duration : 1h 56mn
Bit rate : 1 888 Kbps
Width : 1 008 pixels
Height : 544 pixels
Display aspect ratio : 1.853
Frame rate : 23.976 fps
Color space : YUV
Chroma subsampling : 4:2:0
Bit depth : 8 bits
Scan type : Progressive
Bits/(Pixel*Frame) : 0.144
Stream size : 1.49 GiB (73%)
Writing library : x264 core 116 r2044 392e762
Encoding settings : cabac=1 / ref=11 / deblock=1:-2:-1 / analyse=0x3:0x133 / me=umh / subme=9 / psy=1 / psy_rd=1.00:0.20 / mixed_ref=1 / me_range=32 / chroma_me=1 / trellis=2 / 8x8dct=1 / cqm=0 / deadzone=21,11 / fast_pskip=1 / chroma_qp_offset=-3 / threads=6 / sliced_threads=0 / nr=0 / decimate=1 / interlaced=0 / bluray_compat=0 / constrained_intra=0 / bframes=8 / b_pyramid=2 / b_adapt=2 / b_bias=0 / direct=3 / weightb=1 / open_gop=0 / weightp=2 / keyint=250 / keyint_min=23 / scenecut=40 / intra_refresh=0 / rc_lookahead=60 / rc=2pass / mbtree=1 / bitrate=1888 / ratetol=1.0 / qcomp=0.60 / qpmin=0 / qpmax=69 / qpstep=4 / cplxblur=20.0 / qblur=0.5 / ip_ratio=1.40 / aq=1:1.00
Default : Yes
Forced : No
Audio #1
ID : 2
Format : AC-3
Format/Info : Audio Coding 3
Mode extension : CM (complete main)
Muxing mode : Header stripping
Codec ID : A_AC3
Duration : 1h 56mn
Bit rate mode : Constant
Bit rate : 320 Kbps
Channel(s) : 6 channels
Channel positions : Front: L C R, Side: L R, LFE
Sampling rate : 48.0 KHz
Bit depth : 16 bits
Compression mode : Lossy
Stream size : 266 MiB (13%)
Title : rus
Default : Yes
Forced : No
Audio #2
ID : 3
Format : AC-3
Format/Info : Audio Coding 3
Mode extension : CM (complete main)
Muxing mode : Header stripping
Codec ID : A_AC3
Duration : 1h 56mn
Bit rate mode : Constant
Bit rate : 320 Kbps
Channel(s) : 6 channels
Channel positions : Front: L C R, Side: L R, LFE
Sampling rate : 48.0 KHz
Bit depth : 16 bits
Compression mode : Lossy
Stream size : 266 MiB (13%)
Title : eng
Default : No
Forced : No









--Назад в будущее 2 / Back to the Future Part II
«Все это о времени»
-- Год выпуска: 1989
Мировая премьера: 20 ноября 1989
Производство: США
Жанр: фантастика, комедия, приключения
Продолжительность: 01:47:59
Перевод: Профессиональный (полное дублирование) [Лицензия]
Оригинальный аудиопоток: английский
Субтитры: отсутствуют
Режиссер: Роберт Земекис / Robert Zemeckis
В ролях
Майкл Дж. Фокс, Кристофер Ллойд, Лиа Томпсон, Томас Ф. Уилсон, Элизабет Шу, Джеймс Толкан, Джеффри Вайсман, Кэйси Семашко, Билли Зейн, Дж.Дж. Коэн
Описание
Продолжение фантастической истории о приключениях американского подростка во времени. На этот раз с помощью модернизированной Доком машины времени Марти из 80-х попадает в будущее.
Дети Марти в беде, и их надо выручать. Приходится повозиться со злодеем…
Источник/Качество: BDRIp-AVC | Сэмпл | КиноПоиск
Формат: MKV
Видео кодек: H.264
Аудио кодек: AC3
Видео: 1008x544, 23.976fps, 2076 Kbps, 0.158 bit/pixel
Аудио: 48.0 KHz, 6 ch, 320 Kbps Rus/Eng
General
Unique ID : 190259341978769558976008962118482209521 (0x8F229DCBD78E938990B0B9BD6F912AF1)
Complete name : O:\rips zyyx\Новая папка (2)\Back to the Future Part 2.1989.BDRip-AVC.mkv
Format : Matroska
Format version : Version 2
File size : 2.05 GiB
Duration : 1h 47mn
Overall bit rate : 2 716 Kbps
Movie name : Back to the Future Part II 1989 - Internal Release for Pirat.ca [zyyx]
Encoded date : UTC 2012-05-13 09:06:58
Writing application : mkvmerge v4.9.1 ('Ich will') сборка от Jul 11 2011 23:53:15
Writing library : libebml v1.2.1 + libmatroska v1.1.1
Video
ID : 1
Format : AVC
Format/Info : Advanced Video Codec
Format profile : [email protected]
Format settings, CABAC : Yes
Format settings, ReFrames : 11 frames
Muxing mode : Header stripping
Codec ID : V_MPEG4/ISO/AVC
Duration : 1h 47mn
Bit rate : 2 076 Kbps
Width : 1 008 pixels
Height : 544 pixels
Display aspect ratio : 1.853
Frame rate : 23.976 fps
Color space : YUV
Chroma subsampling : 4:2:0
Bit depth : 8 bits
Scan type : Progressive
Bits/(Pixel*Frame) : 0.158
Stream size : 1.53 GiB (74%)
Writing library : x264 core 116 r2044 392e762
Encoding settings : cabac=1 / ref=11 / deblock=1:-2:-1 / analyse=0x3:0x133 / me=umh / subme=9 / psy=1 / psy_rd=1.00:0.20 / mixed_ref=1 / me_range=32 / chroma_me=1 / trellis=2 / 8x8dct=1 / cqm=0 / deadzone=21,11 / fast_pskip=1 / chroma_qp_offset=-3 / threads=6 / sliced_threads=0 / nr=0 / decimate=1 / interlaced=0 / bluray_compat=0 / constrained_intra=0 / bframes=8 / b_pyramid=2 / b_adapt=2 / b_bias=0 / direct=3 / weightb=1 / open_gop=0 / weightp=2 / keyint=250 / keyint_min=23 / scenecut=40 / intra_refresh=0 / rc_lookahead=60 / rc=2pass / mbtree=1 / bitrate=2076 / ratetol=1.0 / qcomp=0.60 / qpmin=0 / qpmax=69 / qpstep=4 / cplxblur=20.0 / qblur=0.5 / ip_ratio=1.40 / aq=1:1.00
Default : Yes
Forced : No
Audio #1
ID : 2
Format : AC-3
Format/Info : Audio Coding 3
Mode extension : CM (complete main)
Muxing mode : Header stripping
Codec ID : A_AC3
Duration : 1h 47mn
Bit rate mode : Constant
Bit rate : 320 Kbps
Channel(s) : 6 channels
Channel positions : Front: L C R, Side: L R, LFE
Sampling rate : 48.0 KHz
Bit depth : 16 bits
Compression mode : Lossy
Stream size : 247 MiB (12%)
Title : rus
Default : Yes
Forced : No
Audio #2
ID : 3
Format : AC-3
Format/Info : Audio Coding 3
Mode extension : CM (complete main)
Muxing mode : Header stripping
Codec ID : A_AC3
Duration : 1h 47mn
Bit rate mode : Constant
Bit rate : 320 Kbps
Channel(s) : 6 channels
Channel positions : Front: L C R, Side: L R, LFE
Sampling rate : 48.0 KHz
Bit depth : 16 bits
Compression mode : Lossy
Stream size : 247 MiB (12%)
Title : eng
Default : No
Forced : No









--Назад в будущее 3 / Back to the Future Part III
«Лучшее путешествие они оставили напоследок... Но в этот раз они зашли слишком далеко...»
-- Год выпуска: 1990
Мировая премьера: 25 мая 1990
Производство: США
Жанр: фантастика, комедия, приключения
Продолжительность: 01:58:18
Перевод: Профессиональный (полное дублирование) [Лицензия]
Оригинальный аудиопоток: английский
Субтитры: отсутствуют
Режиссер: Роберт Земекис / Robert Zemeckis
В ролях
Майкл Дж. Фокс, Кристофер Ллойд, Мэри Стинберген, Томас Ф. Уилсон, Лиа Томпсон, Элизабет Шу, Джеймс Толкан, Мэтт Кларк, Даб Тейлор, Гарри Кэри мл.
Описание
Из газет 1955 года Марти узнает, что доктор Браун погиб еще сто лет назад. Несмотря на просьбы Дока не навещать его в XIX веке, Марти вновь хочет вмешаться в ход событий и на машине времени уносится в 1885 год, навстречу Дикому Западу.
Это путешествие, как и все прежние, не обходится без опасных приключений, но смелый Марти, рискуя жизнью, предотвращает трагедию в жизни Эммета Брауна. Тот, в свою очередь, без памяти влюбляется в очаровательную незнакомку, которую спасает от гибели, и поездка домой — в будущее — теряет для него всякий смысл…
Источник/Качество: BDRIp-AVC | Сэмпл | КиноПоиск
Формат: MKV
Видео кодек: H.264
Аудио кодек: AC3
Видео: 1008x544, 23.976fps, 1840 Kbps, 0.140 bit/pixel
Аудио: 48.0 KHz, 6 ch, 320 Kbps Rus/Eng
General
Unique ID : 252567013483561982259414710702241029808 (0xBE02A32E2B7599C3A0ED1968D88D1EB0)
Complete name : O:\rips zyyx\Новая папка (2)\Back to the Future Part 3.1990.BDRip-AVC.mkv
Format : Matroska
Format version : Version 2
File size : 2.05 GiB
Duration : 1h 58mn
Overall bit rate : 2 481 Kbps
Movie name : Back to the Future Part III 1990 - Internal Release for Pirat.ca [zyyx]
Encoded date : UTC 2012-05-13 07:45:48
Writing application : mkvmerge v4.9.1 ('Ich will') сборка от Jul 11 2011 23:53:15
Writing library : libebml v1.2.1 + libmatroska v1.1.1
Video
ID : 1
Format : AVC
Format/Info : Advanced Video Codec
Format profile : [email protected]
Format settings, CABAC : Yes
Format settings, ReFrames : 11 frames
Muxing mode : Header stripping
Codec ID : V_MPEG4/ISO/AVC
Duration : 1h 58mn
Bit rate : 1 840 Kbps
Width : 1 008 pixels
Height : 544 pixels
Display aspect ratio : 1.853
Frame rate : 23.976 fps
Color space : YUV
Chroma subsampling : 4:2:0
Bit depth : 8 bits
Scan type : Progressive
Bits/(Pixel*Frame) : 0.140
Stream size : 1.48 GiB (72%)
Writing library : x264 core 116 r2044 392e762
Encoding settings : cabac=1 / ref=11 / deblock=1:-2:-1 / analyse=0x3:0x133 / me=umh / subme=9 / psy=1 / psy_rd=1.00:0.20 / mixed_ref=1 / me_range=32 / chroma_me=1 / trellis=2 / 8x8dct=1 / cqm=0 / deadzone=21,11 / fast_pskip=1 / chroma_qp_offset=-3 / threads=6 / sliced_threads=0 / nr=0 / decimate=1 / interlaced=0 / bluray_compat=0 / constrained_intra=0 / bframes=8 / b_pyramid=2 / b_adapt=2 / b_bias=0 / direct=3 / weightb=1 / open_gop=0 / weightp=2 / keyint=250 / keyint_min=23 / scenecut=40 / intra_refresh=0 / rc_lookahead=60 / rc=2pass / mbtree=1 / bitrate=1840 / ratetol=1.0 / qcomp=0.60 / qpmin=0 / qpmax=69 / qpstep=4 / cplxblur=20.0 / qblur=0.5 / ip_ratio=1.40 / aq=1:1.00
Default : Yes
Forced : No
Audio #1
ID : 2
Format : AC-3
Format/Info : Audio Coding 3
Mode extension : CM (complete main)
Muxing mode : Header stripping
Codec ID : A_AC3
Duration : 1h 58mn
Bit rate mode : Constant
Bit rate : 320 Kbps
Channel(s) : 6 channels
Channel positions : Front: L C R, Side: L R, LFE
Sampling rate : 48.0 KHz
Bit depth : 16 bits
Compression mode : Lossy
Stream size : 271 MiB (13%)
Title : rus
Default : Yes
Forced : No
Audio #2
ID : 3
Format : AC-3
Format/Info : Audio Coding 3
Mode extension : CM (complete main)
Muxing mode : Header stripping
Codec ID : A_AC3
Duration : 1h 58mn
Bit rate mode : Constant
Bit rate : 320 Kbps
Channel(s) : 6 channels
Channel positions : Front: L C R, Side: L R, LFE
Sampling rate : 48.0 KHz
Bit depth : 16 bits
Compression mode : Lossy
Stream size : 271 MiB (13%)
Title : eng
Default : No
Forced : No









Download / Скачать

Хотите скачать бесплатно? Зарегистрируйтесь на сайте (ссылка на регистрацию). Pirat.ca - самый быстрый торрент трекер в рунете!

Как скачивать  ·   Что такое торрент  ·   Рейтинг и ограничения

Пост 13-Май-2012 14:12 (спустя 3 дня)

Топик был перенесен из форума Художественные фильмы (Зарубежное кино) в форум Зарубежное Кино

ara1205
 

ZlobiN

Корсар

Пост 13-Май-2012 22:44 (спустя 4 дня)

[Q] 

[Профиль]  [ЛС] 

Vlad__treker

Морской Волк

184

Пост 22-Май-2012 15:32 (спустя 8 дней)

[Q] 


_________________
...:::Pirat.ca:::...
..:::The Best:::...
[Профиль]  [ЛС] 

assistentka

Морской Волк

10

Пост 15-Мар-2013 10:44 (спустя 9 месяцев 23 дня)

[Q] 


_________________
[Профиль]  [ЛС] 

Fettel

Морской Волк

Пост 29-Апр-2013 18:00 (спустя 1 месяц 14 дней)

[Q] 

[Профиль]  [ЛС] 

k_2

Шкипер

Пост 01-Июн-2014 23:34 (спустя 1 год 1 месяц)

[Q] 

Спасибо!!! Автору респект!!!
[Профиль]  [ЛС] 

Farleyndia

Лоцман

Пост 26-Июн-2014 02:23 (спустя 24 дня)

[Q] 

Отличное кино. Спасибо.
[Профиль]  [ЛС] 

xzxscorpxzx

Флибустьер

Пост 14-Сен-2015 06:34 (спустя 1 год 2 месяца)

[Q] 

отличный фильм! Супер!
[Профиль]  [ЛС] 
Показать сообщения:    
Ответить на тему

Текущее время: Сегодня 05:54

Часовой пояс: GMT + 4



Вы не можете начинать темы
Вы не можете отвечать на сообщения
Вы не можете редактировать свои сообщения
Вы не можете удалять свои сообщения
Вы не можете голосовать в опросах
Вы не можете прикреплять файлы к сообщениям
Вы не можете скачивать файлы

▼ Вниз