ML
     
  Уважаемый Гость!
Вы можете поддержать проект и зарегистрироваться у наших партнеров - онлайн-стратегия MyLands. При регистрации в игре Вы получите код, который сможете активировать после регистрации на pirat.ca и получить 1000 дублонов.

Ваш код:
4fbd9898b6f10799a3e8edf60f31febd2bc15453
 
     

Бой с тенью Трилогия (Алексей Сидоров, Антон Мегердичев) [2005-2011 г., боевик, драма, DVDRip]

Ответить на тему
 
Автор
Сообщение

Пост 21-Дек-2011 23:50

[Q] 

zyyx

--Бой с тенью Трилогия--
--Бой с тенью
«Удачного боя, брат»
-- Год выпуска: 2005
Мировая премьера: 17 марта 2005
Российская премьера: 17 марта 2005, «Централ Партнершип»
Дата выхода DVD: 28 мая 2009, «CP-Digital»
Страна: Россия
Жанр: боевик, драма
Продолжительность: 02:06:25
Перевод: Оригинал [Лицензия]
Режиссер: Алексей Сидоров
В ролях: Денис Никифоров, Андрей Панин, Елена Панова, Дмитрий Шевченко, Александр Кузнецов, Джон Эймос, Павел Деревянко, Сергей Безруков, Исаак Сулейманов, Иван Макаревич, Ольга Хохлова, Алексей Агрызков, Максим Литовченко, Михаил Хомяков, Виталий Кудрявцев
Описание: Артем Колчин был одним из многих, но он хотел славы. И он выбрал свой путь: он стал боксером. Теперь Артем претендент на чемпионский титул, боец, известный по всему миру, Большая Белая Надежда. Но главный бой в его жизни пошел не так, как он ожидал.
Теперь ему предстоит решать свои проблемы вне ринга. У него всего три дня, чтобы расквитаться с теми, кто его предал, защитить любимую женщину от наемных убийц и собрать огромную сумму денег. В реальном мире бьют без перчаток и без правил. Вместо ринга — злые улицы большого города. И нет рефери, который может остановить бой. Но боец остается бойцом.
Он знает, что такое страх, но способен не бояться. Он продолжает биться, даже когда надежда умерла. Счет идет на часы. И Артем начинает бой. За любовь. За друзей. За собственную жизнь.
Источник/Качество: DVDRip | Сэмпл
Формат: AVI
Видео кодек: XviD
Аудио кодек: AC3
Видео: 720x304 (2.37:1), 25 fps, XviD build 47, 1872 kbps avg, 0.34 bit/pixel
Аудио: 48 kHz, AC3 Dolby Digital, 3/2 (L,C,R,l,r) + LFE ch, 448 kbps
General
Complete name : D:\pirat.ca\Bst_Trylogy\Boj.s.Tenju.DVDRip.avi
Format : AVI
Format/Info : Audio Video Interleave
Format profile : OpenDML
File size : 2.06 GiB
Duration : 2h 6mn
Overall bit rate : 2 327 Kbps
Writing application : VirtualDubMod 1.5.4.1 (build 2178/release)
Writing library : VirtualDubMod build 2178/release
Video
ID : 0
Format : MPEG-4 Visual
Format profile : Advanced [email protected]
Format settings, BVOP : No
Format settings, QPel : No
Format settings, GMC : No warppoints
Format settings, Matrix : Custom
Codec ID : XVID
Codec ID/Hint : XviD
Duration : 2h 6mn
Bit rate : 1 870 Kbps
Width : 720 pixels
Height : 304 pixels
Display aspect ratio : 2.35:1
Frame rate : 25.000 fps
Color space : YUV
Chroma subsampling : 4:2:0
Bit depth : 8 bits
Scan type : Progressive
Compression mode : Lossy
Bits/(Pixel*Frame) : 0.342
Stream size : 1.65 GiB (80%)
Writing library : XviD 1.2.0.dev47 (UTC 2006-11-01)
Audio
ID : 1
Format : AC-3
Format/Info : Audio Coding 3
Mode extension : CM (complete main)
Codec ID : 2000
Duration : 2h 6mn
Bit rate mode : Constant
Bit rate : 448 Kbps
Channel(s) : 6 channels
Channel positions : Front: L C R, Side: L R, LFE
Sampling rate : 48.0 KHz
Bit depth : 16 bits
Compression mode : Lossy
Stream size : 405 MiB (19%)
Alignment : Split accross interleaves
Interleave, duration : 96 ms (2.40 video frames)
Interleave, preload duration : 96 ms
Language : Russian


-
--Бой с тенью 2: Реванш
«Один удар. Одна жизнь. Одна любовь.»
-- Год выпуска: 2007
Мировая премьера: 18 октября 2007
Российская премьера: 18 октября 2007, «Централ Партнершип»
Дата выхода DVD: 28 мая 2009, «CP-Digital»
Страна: Россия
Жанр: боевик, драма, криминал
Продолжительность: 02:10:43
Перевод: Оригинал [Лицензия]
Режиссер: Антон Мегердичев
В ролях: Денис Никифоров, Андрей Панин, Елена Панова, Иван Макаревич, Дмитрий Шевченко, Павел Деревянко, Михаил Горевой
Описание: Артем Колчин снова на ринге. Финальный бой за чемпионский титул он проведет в Америке. Но перед финалом ему предстоит бой с мексиканским боксером, который также рвется к вершине. После тяжелого поединка мексиканец умирает в госпитале. Но неприятности только начинаются.
Артему сообщают, что он забил на ринге приемного сына мексиканского наркобарона, который вынес суровый приговор: кровь Вики за кровь погибшего сына. На свете есть только один человек, который может помочь Колчину выпутаться из опасной переделки, и он — заклятый враг Артема…
Источник/Качество: DVDRip | Сэмпл
Формат: AVI
Видео кодек: DivX
Аудио кодек: AC3
Видео: 720x320 (2.25:1), 25 fps, DivX Codec 6.2.5, 1792 kbps avg, 0.31 bit/pixel
Аудио: 48 kHz, AC3 Dolby Digital, 3/2 (L,C,R,l,r) + LFE ch, 448 kbps
General
Complete name : D:\pirat.ca\Bst_Trylogy\Boj.s.tenju.2.Revansh.DVDRip.avi
Format : AVI
Format/Info : Audio Video Interleave
Format profile : OpenDML
File size : 2.05 GiB
Duration : 2h 10mn
Overall bit rate : 2 248 Kbps
Writing application : VirtualDubMod 1.5.4.1 (build 2178/release)
Writing library : VirtualDubMod build 2178/release
Video
ID : 0
Format : MPEG-4 Visual
Format settings, BVOP : 1
Format settings, QPel : No
Format settings, GMC : No warppoints
Format settings, Matrix : Default (H.263)
Muxing mode : Packed bitstream
Codec ID : DX50
Codec ID/Hint : DivX 5
Duration : 2h 10mn
Bit rate : 1 791 Kbps
Width : 720 pixels
Height : 320 pixels
Display aspect ratio : 2.25:1
Frame rate : 25.000 fps
Color space : YUV
Chroma subsampling : 4:2:0
Bit depth : 8 bits
Scan type : Progressive
Compression mode : Lossy
Bits/(Pixel*Frame) : 0.311
Stream size : 1.64 GiB (80%)
Writing library : DivX 6.2.5 (UTC 2006-07)
Audio
ID : 1
Format : AC-3
Format/Info : Audio Coding 3
Mode extension : CM (complete main)
Codec ID : 2000
Duration : 2h 10mn
Bit rate mode : Constant
Bit rate : 448 Kbps
Channel(s) : 6 channels
Channel positions : Front: L C R, Side: L R, LFE
Sampling rate : 48.0 KHz
Bit depth : 16 bits
Compression mode : Lossy
Stream size : 419 MiB (20%)
Alignment : Split accross interleaves
Interleave, duration : 96 ms (2.40 video frames)
Interleave, preload duration : 96 ms
Language : Russian


-
--Бой с тенью 3D: Последний раунд
«Последний раунд решает всё»
-- Год выпуска: 2011
Мировая премьера: 22 декабря 2011, «Новый Диск»
Российская премьера: 17 ноября 2011, «Централ Партнершип»
Дата выхода DVD: 28 мая 2009, «CP-Digital»
Страна: Россия
Жанр: боевик, драма, криминал, приключения
Продолжительность: 02:01:25
Перевод: Оригинал [Лицензия]
Режиссер: Алексей Сидоров
В ролях: Денис Никифоров, Андрей Панин, Елена Панова, Бату Хасиков, Михаил Горевой, Дмитрий Шевченко, Ольга Дибцева, Софья Мицкевич
Описание: Боксер-чемпион Артем Колчин достиг всех мыслимых вершин и стал национальным героем. На ринг он больше не выходит, предпочитая тренерскую работу и бурную светскую жизнь с постоянным мельканием на ТВ, тусовками и интрижками. А дома его по утрам встречают дочка и жена Вика, которая больше не узнает в нем того Артема, которого она когда-то полюбила…
Внешне благополучному существованию Колчина приходит конец, когда его подопечного чуть не убивает в бою знаменитый Куэрте. Артем подозревает, что тот использует некую запрещенную технику. За доказательствами ему приходится отправиться в Гонконг, где его ждет старый знакомый Вагит Валиев: он знает о Куэрте то, чего не знает больше ни один человек. Чтобы победить, Артему придется снова выйти на ринг.
Источник/Качество: DVDRip | Сэмпл
Формат: AVI
Видео кодек: XviD
Аудио кодек: AC3
Видео: 720x400 (1.80:1), 25 fps, XviD build 47, 1962 kbps avg, 0.27 bit/pixel
Аудио: 48 kHz, AC3 Dolby Digital, 3/2 (L,C,R,l,r) + LFE ch, 448 kbps
General
Complete name : D:\pirat.ca\Bst_Trylogy\Boj.s.tenju.3D.Poslednij.raund..DVDRip.avi
Format : AVI
Format/Info : Audio Video Interleave
Format profile : OpenDML
File size : 2.05 GiB
Duration : 2h 1mn
Overall bit rate : 2 417 Kbps
Movie name : Boj.s.tenju.3D.Poslednij.raund.2011.O.DVDRip
Writing application : VirtualDubMod 1.5.10.2 (build 2540/release)
Video
ID : 0
Format : MPEG-4 Visual
Format profile : Advanced [email protected]
Format settings, BVOP : 2
Format settings, QPel : No
Format settings, GMC : No warppoints
Format settings, Matrix : Custom
Codec ID : XVID
Codec ID/Hint : XviD
Duration : 2h 1mn
Bit rate : 1 957 Kbps
Width : 720 pixels
Height : 400 pixels
Display aspect ratio : 16:9
Frame rate : 25.000 fps
Color space : YUV
Chroma subsampling : 4:2:0
Bit depth : 8 bits
Scan type : Progressive
Compression mode : Lossy
Bits/(Pixel*Frame) : 0.272
Stream size : 1.66 GiB (81%)
Writing library : XviD 1.2.0.dev47 (UTC 2006-11-01)
Audio
ID : 1
Format : AC-3
Format/Info : Audio Coding 3
Mode extension : CM (complete main)
Codec ID : 2000
Duration : 2h 1mn
Bit rate mode : Constant
Bit rate : 448 Kbps
Channel(s) : 6 channels
Channel positions : Front: L C R, Side: L R, LFE
Sampling rate : 48.0 KHz
Bit depth : 16 bits
Compression mode : Lossy
Stream size : 389 MiB (19%)
Alignment : Split accross interleaves
Interleave, duration : 40 ms (1.00 video frame)
Interleave, preload duration : 500 ms


Download / Скачать

Хотите скачать бесплатно? Зарегистрируйтесь на сайте (ссылка на регистрацию). Pirat.ca - самый быстрый торрент трекер в рунете!

Как скачивать  ·   Что такое торрент  ·   Рейтинг и ограничения

Пост 22-Дек-2011 07:07 (спустя 7 часов)

Топик был перенесен из форума Наше Кино в форум Наше кино

Skinwalker
 

dmchichirin

Лоцман

Пост 22-Дек-2011 11:47 (спустя 11 часов)

[Q] 

Дата выхода DVD: 28 мая 2009, «CP-Digital»
Странно как-то
[Профиль]  [ЛС] 

xen0borg

Лоцман

Пост 25-Дек-2011 22:08 (спустя 3 дня)

[Q] 

dmchichirin, да просто автор в описании забыл поменять даты выхода :)
[Профиль]  [ЛС] 

Zha-pol

Легенда

Пост 18-Янв-2012 00:14 (спустя 23 дня)

[Q] 

Спасибо

_________________
[Профиль]  [ЛС] 

C0y0te

1418

Пост 04-Фев-2012 16:16 (спустя 17 дней)

[Q] 

[Профиль]  [ЛС] 

RIIDDIK

Шкипер

84

Пост 10-Фев-2012 11:33 (спустя 5 дней)

[Q] 

[Профиль]  [ЛС] 

CeT

Лоцман

Пост 14-Фев-2012 02:47 (спустя 3 дня)

[Q] 

Народ, встаньте на раздачу пожалуйста!
А то скорости вообще нету...
[Профиль]  [ЛС] 

Evgeniy3102

Корсар

3

Пост 16-Июл-2012 23:08 (спустя 5 месяцев 2 дня)

[Q] 

[Профиль]  [ЛС] 

Evgeniy3102

Корсар

3

Пост 16-Июл-2012 23:21 (спустя 13 минут)

[Q] 

Качать не буду !!! Не скорость, а какая то матня !!!
[Профиль]  [ЛС] 

maxx6661

Корсар

Пост 18-Ноя-2012 15:16 (спустя 4 месяца 1 день)

[Q] 

[Профиль]  [ЛС] 

vovec79

Шкипер

Пост 18-Ноя-2012 19:29 (спустя 4 часа)

[Q] 

[Профиль]  [ЛС] 

славненький

Корсар

5

Пост 07-Дек-2012 19:41 (спустя 19 дней)

[Q] 

прикольный фильмец
[Профиль]  [ЛС] 

SCORPION.

Морской Волк

Пост 31-Дек-2012 12:57 (спустя 23 дня)

[Q] 

[Профиль]  [ЛС] 

Илья.ru

Морской Волк

Пост 14-Янв-2013 15:47 (спустя 14 дней)

[Q] 

[Профиль]  [ЛС] 

Илья.ru

Морской Волк

Пост 15-Янв-2013 14:31 (спустя 22 часа)

[Q] 

[Профиль]  [ЛС] 

egismac

Гроза морей

Пост 18-Янв-2013 01:18 (спустя 2 дня 10 часов)

[Q] 

Спасибо, посмотрим.
[Профиль]  [ЛС] 

gaom

Лоцман

Пост 27-Апр-2013 07:59 (спустя 3 месяца 9 дней)

[Q] 

спасибо качаю
[Профиль]  [ЛС] 

Fettel

Морской Волк

Пост 29-Апр-2013 14:03 (спустя 2 дня 6 часов)

[Q] 

[Профиль]  [ЛС] 

Billy_Bons

Шкипер

Пост 12-Июн-2013 10:25 (спустя 1 месяц 12 дней)

[Q] 

[Профиль]  [ЛС] 

xu4ok

Лоцман

Пост 30-Июл-2013 12:02 (спустя 1 месяц 18 дней)

[Q] 

Вы лучшие!
[Профиль]  [ЛС] 

Су-34

Гроза морей

10390

Пост 30-Июл-2013 22:55 (спустя 10 часов)

[Q] 

Всем качать!!!
На форуме  [Профиль]  [ЛС] 

Sakoru

Корсар

Пост 03-Окт-2013 04:41 (спустя 2 месяца 3 дня)

[Q] 

Спасибо всем вернувшимся на раздачу!

_________________
[Профиль]  [ЛС] 

alex denver71

Флибустьер

Пост 19-Ноя-2014 17:33 (спустя 1 год 1 месяц)

[Q] 

Автору респект!!! Хорошая трилогия cy
[Профиль]  [ЛС] 

R_O_Z_A

Морской Волк

Пост 26-Фев-2015 22:41 (спустя 3 месяца 7 дней)

[Q] 

Спасибо, посмотрим.
[Профиль]  [ЛС] 

Великолепный

Шкипер

39

Пост 11-Мар-2015 11:57 (спустя 12 дней)

[Q] 

Сейчас оценим
[Профиль]  [ЛС] 
Показать сообщения:    
Ответить на тему

Текущее время: Сегодня 20:00

Часовой пояс: GMT + 4



Вы не можете начинать темы
Вы не можете отвечать на сообщения
Вы не можете редактировать свои сообщения
Вы не можете удалять свои сообщения
Вы не можете голосовать в опросах
Вы не можете прикреплять файлы к сообщениям
Вы не можете скачивать файлы

▼ Вниз