ML
     
  Уважаемый Гость!
Вы можете поддержать проект и зарегистрироваться у наших партнеров - онлайн-стратегия MyLands. При регистрации в игре Вы получите код, который сможете активировать после регистрации на pirat.ca и получить 1000 дублонов.

Ваш код:
ea554e7ed3eacceeae87a8b30a9de3f086c18a84
 
     

Богдан Ступка(1941 - 2012 г.г.) Фильмография. Часть 1 (SATRip, DVDRip)

Ответить на тему
 
Автор
Сообщение

Пост 18-Ноя-2013 14:32

[Q] 

canfly

-Богдан Ступка. Фильмография. Часть 1- -Дата рождения: 27 августа, 1941
Дата смерти: 22 июля, 2012 | 70 лет
Место рождения: Куликово, Львовская область, СССР (Украина)
Профессия: Актер
Жанр: Драма, мелодрама, история
Супруга: Лариса Корниенко (один ребенок)
Семья: Остап Ступка (сын), Дмитрий Ступка (внук)
Богдан Сильвестрович Ступка родился в селе Куликове Львовской области. Окончил студию при театре им. М. Заньковецкой (1961) и театроведческий факультет Киевского театрального института им. И. К. Карпенко-Карого (1984). С 1961 – актер Львовского украинского театра драмы им. М. Заньковецкой, с 1978 – академического театра им. И. Франко.
Впервые на театральные подмостки Богдан Ступка попал в далеком 1955 году. 14-летний подросток, уроженец села Кулыкив, дебютировал на львовской сцене в пьесе Михаила Булгакова «Дни Турбиных» в постановке московского театра имени Станиславского. И хотя маленький Богдан участвовал лишь в массовке – вместе с другими статистами выносил со сцены толстого гетмана Скоропадского – наверняка именно тогда он заразился магией актерской профессии.
Несмотря на сельское происхождение, Богдан рос в артистической среде. Его отец Сильвестр Дмитриевич пел в хоре Львовского театра оперы и балета имени Ивана Франко. Именно он пристроил сына на сцену к московским гастролерам, определив его дальнейшую судьбу. Богдан поступил в Киевский театральный институт имени Карпенка-Карого и стал одним из ярких представителей богемной львовской тусовки, которую в советской прессе именовали презрительным словом «стиляги». На самом деле это были модные и образованные молодые люди, которые пытались хоть как-то разукрасить однообразный советский быт.
На базе львовского мединститута была создана украинская джаз-банда «Медикус», и начинающий актер Богдан Ступка был у них ведущим. После серии подпольных джазовых и рок-н-ролльных концертов «Медикус» был разгромлен. Его участники были расписаны в львовских «Окнах сатиры» как «буржуазные подголоски, стиляги и западная гниль».
Богдана чуть не выперли из театрального института. Ступку спасло только то, что спектакль с его участием уже был заявлен в неделе украинской культуры в Москве.
В январе 2011 года актёру сделали операцию на сердце в Германии; в октябре он снова уехал на лечение в Германию.
22 июля 2012 года в 7:45 утра актёр скончался в киевской больнице «Феофания» после продолжительной болезни. Причиной смерти Богдана Ступки стала острая сердечная недостаточность, вызванная последней стадией рака костей, диагностированного у него в январе 2012 года. Соболезнования в связи с кончиной актёра выразили многие именитые персоны, президенты России, Украины и Белоруссии, а также коллеги Ступки по сцене и съёмочной площадке. Режиссёр Тигран Кеосаян, снимавший Богдана Сильвестровича в ленте «Заяц над бездной», сказал: "Нужно скорбеть о том, что ушел из жизни поистине великий человек, великий артист. Когда уходит гений, то не то что грустно, это необратимо, невозвратно, эту потерю невозможно измерить никакими мерилами. К этому невозможно привыкнуть. У меня ощущение, что я потерял родного человека". -Награды и премии
Золотой орел, 2012 год
Победитель: Лучшая мужская роль второго плана («Дом»)

Золотой орел, 2010 год

Победитель: Лучшая мужская роль («Тарас Бульба»)
Золотой орел, 2008 год
Номинации: Лучший актер на ТВ («Сонька Золотая Ручка»)
Золотой орел, 2005 год
Победитель: Лучшая мужская роль второго плана («Водитель для Веры»)
Номинации: Лучшая мужская роль («Свои»)
Ника, 2005 год
Победитель: Лучшая мужская роль («Свои»)
Номинации: Лучшая мужская роль («Водитель для Веры»)
ММКФ, 2004 год
Победитель: Лучшая мужская роль - Серебряный «Святой Георгий» («Свои»)
Европейская киноакадемия, 2004 год
Номинации: Лучшая мужская роль («Свои»)
2000 Назначен министром культуры Украины
1992 Лауреат Государственной премии Украинской ССР им. Т. Г. Шевченко (за театральную работу)
1991 Народный артист СССР
1980 Лауреат Государственной премии СССР ( за театральную работу)
-В первую часть вошли следующие фильмы:-
Жанр: Драма
Год выпуска: 1972
Продолжительность: 01:30:25
Режиссёр: Михаил Ульянов
В ролях: Михаил Ульянов, Борис Чинкин, Вячеслав Невинный, Татьяна Кулиш, Ирина Бунина, Николай Граббе, Виктор Зозулин, Нина Твердынская, Л. Жигалин, Игорь Кашинцев, Николай Парфёнов, Владимир Носик, Алла Парфаньяк, Богдан Ступка, Александра Харитонова, Александр Ширшов, Эрнст Зорин, Сергей Пономарев
Описание: По одноименному произведению Бориса Васильева.
Бывший фронтовик, четверть века проработавший на своем посту, участковый уполномоченный лейтенант Семен Митрофанович Ковалев, отправляясь утром в управление, больше всего грустил о том, что завтра ему уже не надо будет идти на службу: завтра он будет на пенсии…
Качество видео: TVRip
Формат видео: AVI
Видео: 688x352 (1.95:1), 25 fps, XviD MPEG-4 ~1964 kbps avg
Аудио: 48 kHz, MPEG Layer 3, 2 ch, ~192.00 kbps avg
Общее
Полное имя : E:\Богдан Ступка Vol 1\Samiy_posledniy_den`.avi
Формат : AVI
Формат/Информация : Audio Video Interleave
Размер файла : 1,37 Гбайт
Продолжительность : 1 ч. 30 м.
Общий поток : 2167 Кбит/сек
Программа кодирования : VirtualDubModRus 1.5.10.2 (build 2542/release)
Библиотека кодирования : VirtualDubMod build 2542/release
Видео
Идентификатор : 0
Формат : MPEG-4 Visual
Профиль формата : Advanced [email protected]
Параметр BVOP формата : 2
Параметр QPel формата : Нет
Параметр GMC формата : Без точки перехода
Параметр матрицы формата : Default (MPEG)
Режим смешивания : Сжатый битовый поток
Идентификатор кодека : XVID
Идентификатор кодека/Подсказка : XviD
Продолжительность : 1 ч. 30 м.
Битрейт : 1965 Кбит/сек
Ширина : 688 пикселей
Высота : 352 пикселя
Соотношение сторон : 1,955
Частота кадров : 25,000 кадров/сек
Цветовое пространство : YUV
Субдискретизация насыщенности : 4:2:0
Битовая глубина : 8 бит
Тип развёртки : Прогрессивная
Метод сжатия : С потерями
Бит/(Пиксели*Кадры) : 0.325
Размер потока : 1,24 Гбайт (91%)
Библиотека кодирования : XviD 64
Аудио
Идентификатор : 1
Формат : MPEG Audio
Версия формата : Version 1
Профиль формата : Layer 3
Режим : Joint stereo
Расширение режима : MS Stereo
Идентификатор кодека : 55
Идентификатор кодека/Подсказка : MP3
Продолжительность : 1 ч. 30 м.
Вид битрейта : Постоянный
Битрейт : 192 Кбит/сек
Каналы : 2 канала
Частота : 48,0 КГц
Метод сжатия : С потерями
Размер потока : 124 Мбайт (9%)
Выравнивание : Соединение по промежуткам
Продолжительность промежутка : 40 мс. (1,00 видеокадр)
Время предзагрузки промежутка : 504 мс.
Библиотека кодирования : LAME3.97
Настройки программы : -m j -V 4 -q 0 -b 192
Жанр: Драма
Год выпуска: 1973
Продолжительность: 01:06:52
Режиссёр: Василий Ильяшенко
В ролях: Иван Гаврилюк, Александр Гай, Аркадий Гашинский, Людмила Гнилова, Николай Гринько, Тамара Кротова, Вилорий Пащенко, Николай Сектименко, Василий Симчич, Людмила Сосюра, Богдан Ступка, Ирина Шевчук
Описание: О жизни подольского села, где каждый испокон веков привык работать только на свое хозяйство, о военных годах, когда многие тихие люди проявляли чудеса героизма, а всеобщие любимцы становились нацистскими "марионетками".
Качество видео: VHSRip
Формат видео: AVI
Видео: DivX 5 704x320 25.00fps 2139kbps
Аудио: Dolby AC3 48000Hz stereo 192kbps
Общее
Полное имя : E:\Богдан Ступка Vol 1\Novoselje.avi
Формат : AVI
Формат/Информация : Audio Video Interleave
Размер файла : 1,09 Гбайт
Продолжительность : 1 ч. 6 м.
Общий поток : 2341 Кбит/сек
Режиссёр : Rip by Xamasas
Программа кодирования : VirtualDubMod 1.5.10.2 (build 2540/release)
Видео
Идентификатор : 0
Формат : MPEG-4 Visual
Параметр BVOP формата : Нет
Параметр QPel формата : Нет
Параметр GMC формата : Без точки перехода
Параметр матрицы формата : Default (H.263)
Идентификатор кодека : DX50
Идентификатор кодека/Подсказка : DivX 5
Продолжительность : 1 ч. 6 м.
Битрейт : 2139 Кбит/сек
Ширина : 704 пикселя
Высота : 320 пикселей
Соотношение сторон : 2,2:1
Частота кадров : 25,000 кадров/сек
Цветовое пространство : YUV
Субдискретизация насыщенности : 4:2:0
Битовая глубина : 8 бит
Тип развёртки : Прогрессивная
Метод сжатия : С потерями
Бит/(Пиксели*Кадры) : 0.380
Размер потока : 1023 Мбайт (91%)
Библиотека кодирования : DivX 5.2.1 (WaffleDay) (UTC 2004-09-08)
Аудио
Идентификатор : 1
Формат : AC-3
Формат/Информация : Audio Coding 3
Расширение режима : CM (complete main)
Параметр Endianness формата : Big
Идентификатор кодека : 2000
Продолжительность : 1 ч. 6 м.
Вид битрейта : Постоянный
Битрейт : 192 Кбит/сек
Каналы : 2 канала
Расположение каналов : Front: L R
Частота : 48,0 КГц
Битовая глубина : 16 бит
Метод сжатия : С потерями
Размер потока : 91,8 Мбайт (8%)
Выравнивание : Разделение по промежуткам
Продолжительность промежутка : 40 мс. (1,00 видеокадр)
Время предзагрузки промежутка : 500 мс.
Жанр: драма, исторический
Производство: СССР - Югославия
Год выпуска: 1972
Продолжительность: 01:15:53Режиссёр: Юрий ИльенкоВ ролях: Владимир (Владо) Попович, Лариса Кадочникова, Иван Миколайчук, Борис Хмельницкий, Дара Джурашкович, Богдан Ступка, Лев Перфилов, Саша Роганович, Владимир Шакало, Владимир Волков, Федор Панасенко, Василий Симчич, Юрий Дубровин, Валерий ЛущевскийОписание:
Исторический фильм об освободительной борьбе черногорцев против турецкого владычества в конце XVIII века, за единство и независимость, о их дружбе с Россией.
1784 год. Петр Первый Негош возвращается из России на родину. Чтобы спасти страну от голода, он продает церковную утварь и таким образом приобретает еще одного врага - русский Синод. Обойдя пешком всю страну и собрав деньги на строительство собора, Петр Первый Негош объединяет страну в борьбе с национальной оппозицией и разбивает армию турок.Доп. информация:
Фильм культового украинского режиссера, известного своими неординарными работами («Родник для жаждущих», «Вечер накануне Ивана Купала», «Белая птица с черной отметиной»). Совместное производство Киевской киностудии художественных фильм им. Александра Довженко (СССР) и "Филмски студио", Титоград (Filmski studio, Titograd) (Югославия).
Качество видео: SATRip
Формат видео: AVI
Видео: 720x544 (1.32:1), 25 fps, XviD build 47 ~1526 kbps avg, 0.16 bit/pixel
Аудио: 48 kHz, MPEG Layer 3, 2 ch, ~128.00 kbps avg
Общее
Полное имя : E:\Богдан Ступка Vol 1\naperekor.vsemu..avi
Формат : AVI
Формат/Информация : Audio Video Interleave
Размер файла : 904 Мбайт
Продолжительность : 1 ч. 15 м.
Общий поток : 1665 Кбит/сек
Программа кодирования : VirtualDubMod 1.5.4.1 (build 2178/release)
Библиотека кодирования : VirtualDubMod build 2178/release
Примечание : Ripped by Ищинкум
Видео
Идентификатор : 0
Формат : MPEG-4 Visual
Профиль формата : Advanced [email protected]
Параметр BVOP формата : 2
Параметр QPel формата : Нет
Параметр GMC формата : Без точки перехода
Параметр матрицы формата : Default (H.263)
Идентификатор кодека : XVID
Идентификатор кодека/Подсказка : XviD
Продолжительность : 1 ч. 15 м.
Битрейт : 1527 Кбит/сек
Ширина : 720 пикселей
Высота : 544 пикселя
Соотношение сторон : 4:3
Частота кадров : 25,000 кадров/сек
Цветовое пространство : YUV
Субдискретизация насыщенности : 4:2:0
Битовая глубина : 8 бит
Тип развёртки : Прогрессивная
Метод сжатия : С потерями
Бит/(Пиксели*Кадры) : 0.156
Размер потока : 829 Мбайт (92%)
Библиотека кодирования : XviD 1.2.0.dev47 (UTC 2006-11-01)
Аудио
Идентификатор : 1
Формат : MPEG Audio
Версия формата : Version 1
Профиль формата : Layer 3
Режим : Joint stereo
Расширение режима : MS Stereo
Идентификатор кодека : 55
Идентификатор кодека/Подсказка : MP3
Продолжительность : 1 ч. 15 м.
Вид битрейта : Постоянный
Битрейт : 128 Кбит/сек
Каналы : 2 канала
Частота : 48,0 КГц
Метод сжатия : С потерями
Размер потока : 69,5 Мбайт (8%)
Выравнивание : Разделение по промежуткам
Продолжительность промежутка : 40 мс. (1,00 видеокадр)
Время предзагрузки промежутка : 500 мс.
Библиотека кодирования : LAME3.97ЄЄЄЄЄЄЄЄЄЄЄЄ
Год выпуска: 1971
Жанр: Драма
Продолжительность: 01:32:50
Режиссер: Юрий Ильенко
В ролях: Лариса Кадочникова, Иван Миколайчук, Богдан Ступка, Юрий Миколайчук, Наталья Наум, Джемма Фирсова, Александр Плотников, Василий Симчич, Олег Полствин, Михаил Ильенко, Леонид Бакштаев, Владимир Шакало, Константин Степанков, Николай Олейник
Описание: В пограничном украинском селении живет многодетная семья Леся Звонаря. Разошлись пути его сыновей: Петр примкнул к Красной Армии, Орест подался к бандитам-националистам, младший остался в стороне. Но не раз встретятся они и не раз пересекутся их судьбы - то в любви к поповой дочке, то в горах с оружием в руках... События фильма происходят в 1937-1947 годы.
Качество: DVDRip
Формат: AVI
Видео кодек: DivX
Аудио кодек: MP3
Видео: Video: 672x512 (1.31:1), 25 fps, DivX Codec 5.x or 6.x ~1971 kbps avg, 0.23 bit/pixel
Аудио: Audio: 44.100 kHz, MPEG Layer 3, 2 ch, ~128.00 kbps avg
Общее
Полное имя : E:\Богдан Ступка Vol 1\Belaja_ptica.avi
Формат : AVI
Формат/Информация : Audio Video Interleave
Размер файла : 1,37 Гбайт
Продолжительность : 1 ч. 32 м.
Общий поток : 2109 Кбит/сек
Библиотека кодирования : VirtualDub build 24442/release
Видео
Идентификатор : 0
Формат : MPEG-4 Visual
Параметр BVOP формата : 1
Параметр QPel формата : Нет
Параметр GMC формата : Без точки перехода
Параметр матрицы формата : Default (H.263)
Режим смешивания : Сжатый битовый поток
Идентификатор кодека : DX50
Идентификатор кодека/Подсказка : DivX 5
Продолжительность : 1 ч. 32 м.
Битрейт : 1971 Кбит/сек
Ширина : 672 пикселя
Высота : 512 пикселей
Соотношение сторон : 4:3
Частота кадров : 25,000 кадров/сек
Цветовое пространство : YUV
Субдискретизация насыщенности : 4:2:0
Битовая глубина : 8 бит
Тип развёртки : Прогрессивная
Метод сжатия : С потерями
Бит/(Пиксели*Кадры) : 0.229
Размер потока : 1,28 Гбайт (93%)
Библиотека кодирования : DivX 6.2.5 (UTC 2006-07)
Аудио
Идентификатор : 1
Формат : MPEG Audio
Версия формата : Version 1
Профиль формата : Layer 3
Режим : Joint stereo
Расширение режима : MS Stereo
Идентификатор кодека : 55
Идентификатор кодека/Подсказка : MP3
Продолжительность : 1 ч. 32 м.
Вид битрейта : Постоянный
Битрейт : 128 Кбит/сек
Каналы : 2 канала
Частота : 48,0 КГц
Метод сжатия : С потерями
Размер потока : 85,0 Мбайт (6%)
Выравнивание : Разделение по промежуткам
Продолжительность промежутка : 40 мс. (1,00 видеокадр)
Время предзагрузки промежутка : 500 мс.
Год выпуска: 1977
Жанр: Драма
Продолжительность: 01:23:11
Режиссер: Анатолий Слесаренко
В ролях: Андрей Поддубинский, Ирина Шевчук, Богдан Ступка, Костянтин Степанков, Валентин Белохвостик, Володимир Козел, Борис Болдыревский, Федор Панасенко, Вилорий Пащенко, Дмитрий Капка, Леонид Слисаренко, Людмила Алфимова
Описание: По разные стороны баррикад разводит земляков, украинских переселенцев на Дальний Восток, гражданская война и любовь к одной женщине.
Качество: SATRip
Формат: AVI
Видео кодек: XviD
Аудио кодек: MP3
Видео: 704x384 (1.83:1), 25 fps, XviD MPEG-4 ~1848 kbps avg, 0.27 bit/pixel
Аудио: 48 kHz, MPEG Layer 3, 2 ch, ~128.00 kbps avg
Жанр: военный, драма
Год выпуска: 1977
Продолжительность: 01:26:07 + 01:40:32 + 01:40:49 + 01:44:43
Режиссёр: Юрий Озеров
В ролях: Стефан Гецов, Богус Пасторек, Хорст Пройскер, Яков Трипольский, Любомир Кабакчиев, Борис Белов, Петр Стефанов, Владлен Давыдов, Станислав Яскевич, Фриц Диц, Станислав Микульский, Николай Ерёменко старший, Богдан Ступка, Иван Любезнов, Виктор Авдюшко, Евгений Буренков, Михаил Ульянов, Владимир Самойлов, Галикс (Георгий) Колчицкий, Николай Караченцов, Евгений Матвеев, Василий Лановой, Николай Рушковский, Николай Манохин, Геннадий Корольков, Александр Барушной, Лидия Драновская, Борис Арабов, Николай Засухин, Валентина Толкунова, Владимир Носик, Николай Пеньков, Виктор Филиппов, Артем Карапетян, Владимир Тихонов, Иван Переверзев, Владимир Заманский, Виктор Маркин, Надежда Семенцова
Описание: Картина состоит из четырех частей. Снятый в жанре исторической хроники, фильм отражает следующие события Великой Отечественной войны: капитуляция армии Паулюса; подготовка Народного восстания в Словакии; переговоры польских коммунистов с правительством Сикорского о совместной борьбе с фашизмом; создание Национального комитета Отечественного фронта в Болгарии и подготовка подпольщиками-коммунистами вооруженного восстания, развертывание партизанского движения; провал очередной попытки гитлеровцев разделаться с Народно-освободительной армией Тито; одна из крупнейших военных операций - "Багратион"; начало освобождения Польши, создание Народного правительства в Люблине, Варшавское восстание; капитуляция Бур-Комаровского и поражение польских патриотов, вступление советских и польских войск в Варшаву.
Качество видео: DVDRip
Формат видео: AVI
Видео: 720x288 (2.50:1), 25 fps, XviD build 50, 1863 kbps avg, 0.36 bit/pixel
Аудио: 48 kHz, AC3 Dolby Digital, 2/0 (L,R) ch, 192.00 kbps avg
Общее
Полное имя : E:\Богдан Ступка Vol 1\Soldati.svobodi\Soldati.svobodi.(1s).1977..avi
Формат : AVI
Формат/Информация : Audio Video Interleave
Размер файла : 1,24 Гбайт
Продолжительность : 1 ч. 26 м.
Общий поток : 2065 Кбит/сек
Программа кодирования : VirtualDubMod 1.5.10.3 | www.virtualdub-fr.org || (build 2550/release)
Библиотека кодирования : VirtualDubMod build 2550/release
Видео
Идентификатор : 0
Формат : MPEG-4 Visual
Профиль формата : Advanced [email protected]
Параметр BVOP формата : 1
Параметр QPel формата : Нет
Параметр GMC формата : Без точки перехода
Параметр матрицы формата : Default (H.263)
Идентификатор кодека : XVID
Идентификатор кодека/Подсказка : XviD
Продолжительность : 1 ч. 26 м.
Битрейт : 1864 Кбит/сек
Ширина : 720 пикселей
Высота : 288 пикселей
Соотношение сторон : 2,500
Частота кадров : 25,000 кадров/сек
Цветовое пространство : YUV
Субдискретизация насыщенности : 4:2:0
Битовая глубина : 8 бит
Тип развёртки : Прогрессивная
Метод сжатия : С потерями
Бит/(Пиксели*Кадры) : 0.360
Размер потока : 1,12 Гбайт (90%)
Библиотека кодирования : XviD 1.2.1 (UTC 2008-12-04)
Аудио
Идентификатор : 1
Формат : AC-3
Формат/Информация : Audio Coding 3
Расширение режима : CM (complete main)
Параметр Endianness формата : Big
Идентификатор кодека : 2000
Продолжительность : 1 ч. 25 м.
Вид битрейта : Постоянный
Битрейт : 192 Кбит/сек
Каналы : 2 канала
Расположение каналов : Front: L R
Частота : 48,0 КГц
Битовая глубина : 16 бит
Метод сжатия : С потерями
Размер потока : 118 Мбайт (9%)
Выравнивание : Разделение по промежуткам
Продолжительность промежутка : 40 мс. (1,00 видеокадр)
Время предзагрузки промежутка : 500 мс.
Год выпуска: 1976
Жанр: Приключения, Экранизация
Продолжительность: 01:07:36 + 01:05:49 + 01:03:04 + 00:58:08 + 01:14:08 + 01:13:39 + 01:03:33 + 01:12:46
Режиссер: Артур Войтецкий, Олег Гойда, Вячеслав Криштофович
В ролях: Вадим Кузнецов, Эдуард Купоросов, Виталик Агарков, Олег Табаков, Евгений Леонов-Гладышев, Владимир Волков, Степан Хацкевич, Иван Миколайчук, Алексей Петренко, Эрнст Романов, Ада Роговцева, Сергей Никоненко, Юрий Саранцев, Наталья Наум, Евгений Весник, Галина Волчек, Федор Панасенко, Тамара Трач, Галина Федотова, Сергей Подгорный, Ирина Бразговка, И. Латта, Александр Лазарев (старший), Тамара Невская, Лилия Гурова, Анатолий Адоскин, Сергей Иванов, Татьяна Зарицкая, Виталий Дорошенко, Виктор Маляревич, Николай Мерзликин, Алексей Чернов, Маргарита Кошелева, Богдан Ступка, Светлана Кондратова, Таня Надемская
Описание: По мотивам трех романов тетралогии "Волны Черного моря" Валентина Катаева: "Белеет парус одинокий", "Зимний ветер", "Катакомбы". 8-мь серий.
Киностудия им. Довженко, ТО "Луч", 1975-76 гг.
Главными героями фильма стали одесские мальчишки - гимназист Петя Бачей и маленький сын рыбака Гаврик Черноиваненко, отчаянно смелый, энергичный, предприимчивый, находчивый. Два юных героя невольно оказываются в центре событий, происходящих в стране в начале двадцатого века – на их глазах вершится история грядущего Октябрьского переворота.
Рядом с ними персонажи взрослых: матрос с броненосца "Потемкин" Родион Жуков, отец Пети - учитель Василий Петрович Бачей , торговка с привоза мадам Стороженко, дедушка Гаврика. И, конечно, сама Одесса и море.
Потом ребята вырастут, пройдут через революцию и гражданскую войну, а в годы Великой Отечественной станут подпольщиками в оккупированной Одессе...
Качество: DVDRip
Формат: AVI
Видео кодек: DivX
Аудио кодек: MP3
Видео: 688x512 (1.34:1), 25 fps, DivX Codec 5.x or 6.x ~1604 kbps avg
Аудио: 48 kHz, MPEG Layer 3, 2 ch, ~128.00 kbps avg
Общее
Полное имя : E:\Богдан Ступка Vol 1\Volni_Chernogo_morja\01_Volni_Chernogo_morja_DVDRip.avi
Формат : AVI
Формат/Информация : Audio Video Interleave
Размер файла : 842 Мбайт
Продолжительность : 1 ч. 7 м.
Общий поток : 1742 Кбит/сек
Программа кодирования : VirtualDubModRus 1.5.10.2 (build 2542/release)
Библиотека кодирования : VirtualDubMod build 2542/release
Видео
Идентификатор : 0
Формат : MPEG-4 Visual
Параметр BVOP формата : 1
Параметр QPel формата : Нет
Параметр GMC формата : Без точки перехода
Параметр матрицы формата : Default (H.263)
Режим смешивания : Сжатый битовый поток
Идентификатор кодека : DX50
Идентификатор кодека/Подсказка : DivX 5
Продолжительность : 1 ч. 7 м.
Битрейт : 1604 Кбит/сек
Ширина : 688 пикселей
Высота : 512 пикселей
Соотношение сторон : 4:3
Частота кадров : 25,000 кадров/сек
Цветовое пространство : YUV
Субдискретизация насыщенности : 4:2:0
Битовая глубина : 8 бит
Тип развёртки : Прогрессивная
Метод сжатия : С потерями
Бит/(Пиксели*Кадры) : 0.182
Размер потока : 776 Мбайт (92%)
Библиотека кодирования : DivX 6.8.3-6.8.4 (UTC 2008-06-07)
Аудио
Идентификатор : 1
Формат : MPEG Audio
Версия формата : Version 1
Профиль формата : Layer 3
Режим : Joint stereo
Расширение режима : MS Stereo
Идентификатор кодека : 55
Идентификатор кодека/Подсказка : MP3
Продолжительность : 1 ч. 7 м.
Вид битрейта : Постоянный
Битрейт : 128 Кбит/сек
Каналы : 2 канала
Частота : 48,0 КГц
Метод сжатия : С потерями
Размер потока : 61,9 Мбайт (7%)
Выравнивание : Соединение по промежуткам
Продолжительность промежутка : 40 мс. (1,00 видеокадр)
Время предзагрузки промежутка : 504 мс.
Библиотека кодирования : LAME3.97
Настройки программы : -m j -V 4 -q 1 -b 128
Год выпуска: 1981
Жанр: Киноповесть
Продолжительность: 01:05:13
Режиссер: Борис Савченко
В ролях: Владимир Антоник, Наталья Андрейченко, Елена Драпеко, Александр Галибин, Александр Кавалеров, Ирина Алфёрова, Светлана Суховей, Владимир Ставицкий, Александр Белина, Виктор Маляревич, Сергей Подгорный, Федор Шмаков, Богдан Ступка, Валерий Ивченко, Коста Туриев, Александр Мовчан, Михаил Голубович, Николай Сектименко, Виктор Панченко, Нина Ильина, Василий Очеретяный, Виктор Полищук, Вероника Изотова, Болот Бейшеналиев, Виталий Дорошенко, Елена Павловская, Сергей Свечников, Нина Набока, Борис Болдыревский, Евгений Буренков, Наталия Сумская, Александр Толстых, Анатолий Юрченко, Валентина Ананьина
Описание: По одноименному роману Веры Кетлинской. О строительстве в тайге нового города Комсомольска-на-Амуре в 1932 году, об энтузиазме строителей-комсомольцев. В фильме использованы документальные кинокадры эпохи первых пятилеток молодой советской республики. Вступительное слово к фильму - международного обозревателя...
Качество: DVDRip
Формат: AVI
Видео: XviD, ~ 2000 Кбит/с, 688x512
Аудио: AC3, 2 ch, 256 Кбит/с
Общее
Полное имя : E:\Богдан Ступка Vol 1\Muschestvo.(7.seriy.iz.7)\Muschestvo.(01.seriya.iz.7).avi
Формат : AVI
Формат/Информация : Audio Video Interleave
Размер файла : 1,10 Гбайт
Продолжительность : 1 ч. 5 м.
Общий поток : 2397 Кбит/сек
Программа кодирования : VirtualDubMod 1.5.4.1 (build 2178/release)
Библиотека кодирования : VirtualDubMod build 2178/release
Видео
Идентификатор : 0
Формат : MPEG-4 Visual
Профиль формата : Advanced [email protected]
Параметр BVOP формата : 1
Параметр QPel формата : Нет
Параметр GMC формата : Без точки перехода
Параметр матрицы формата : Выборочная
Идентификатор кодека : XVID
Идентификатор кодека/Подсказка : XviD
Продолжительность : 1 ч. 5 м.
Битрейт : 2131 Кбит/сек
Ширина : 688 пикселей
Высота : 512 пикселей
Соотношение сторон : 4:3
Частота кадров : 25,000 кадров/сек
Цветовое пространство : YUV
Субдискретизация насыщенности : 4:2:0
Битовая глубина : 8 бит
Тип развёртки : Прогрессивная
Метод сжатия : С потерями
Бит/(Пиксели*Кадры) : 0.242
Размер потока : 1000 Мбайт (89%)
Библиотека кодирования : XviD 1.2.1 (UTC 2008-12-04)
Аудио
Идентификатор : 1
Формат : AC-3
Формат/Информация : Audio Coding 3
Расширение режима : CM (complete main)
Параметр Endianness формата : Big
Идентификатор кодека : 2000
Продолжительность : 1 ч. 5 м.
Вид битрейта : Постоянный
Битрейт : 256 Кбит/сек
Каналы : 2 канала
Расположение каналов : Front: L R
Частота : 48,0 КГц
Битовая глубина : 16 бит
Метод сжатия : С потерями
Задержка видео : 24 мс.
Размер потока : 120 Мбайт (11%)
Выравнивание : Разделение по промежуткам
Продолжительность промежутка : 40 мс. (1,00 видеокадр)
Время предзагрузки промежутка : 500 мс.
Год выпуска: 1982
Жанр: Исторический
Продолжительность:
1-й фильм - 2:08:05
1-я серия 2-го фильма - 1:03:32
2-я серия 2-го фильма - 1:07:24
Режиссер: Сергей Бондарчук
В ролях: Валерий Баринов, Елена Финогеева, Ирина Скобцева, Галина Левченко, Вячеслав Бутенко, Богдан Ступка, Франко Неро, Витаутас Томкус, Григорий Дунаев, Галис Колчицкий, Урсула Андресс, Лариса Барабанова, Александр Сайко, Владимир Седов, Юрий Лазарев, Владимир Эренберг, Виктор Чеботарев, Юльен Балмусов, Янис Клушс, Виктор Мамаев
Описание: Первая часть дилогии посвящена Мексиканской революции 1910-1911 годов. Вторая часть дилогии воссоздает события в России с 3 апреля по 26 октября 1917 года: с момента приезда В.И. Ленина в Петроград до начала Второго Всероссийского Съезда Советов. События, о которых рассказывается в фильмах, показаны глазами американского журналиста Джона Рида, автора книг "Восставшая Мексика" и "Десять дней, которые потрясли мир".
Доп. информация: Данный релиз - киноверсия, 4 серии. В 1984 году была смонтирована еще телеверсия, 7 серий, есть в ГТРФ.
1-й файл - фильм "Мексика в огне", 1-я и 2-я серии.
2-й файл - фильм "Я видел рождение нового мира", 1-я серия.
3-й файл - фильм "Я видел рождение нового мира", 2-я серия.
Качество: DVDRip
Формат: AVI
Видео кодек: DivX
Аудио кодек: MP3
Видео: 688x528 (1.30:1), 25 fps, DivX Codec 5.2 (DrDivX105) ~1383 kbps avg, 0.15 bit/pixel
Аудио: 44.100 kHz, MPEG Layer 3, 2 ch, ~128.00 kbps avg
Общее
Полное имя : E:\Богдан Ступка Vol 1\krasnye_kolokola\krasnye_kolokola_1.avi
Формат : AVI
Формат/Информация : Audio Video Interleave
Размер файла : 1,36 Гбайт
Продолжительность : 2 ч. 8 м.
Режим общего битрейта : Переменный
Общий поток : 1525 Кбит/сек
Видео
Идентификатор : 0
Формат : MPEG-4 Visual
Параметр BVOP формата : 1
Параметр QPel формата : Нет
Параметр GMC формата : Без точки перехода
Параметр матрицы формата : Default (H.263)
Режим смешивания : Сжатый битовый поток
Идентификатор кодека : DX50
Идентификатор кодека/Подсказка : DivX 5
Продолжительность : 2 ч. 8 м.
Битрейт : 1377 Кбит/сек
Ширина : 688 пикселей
Высота : 528 пикселей
Соотношение сторон : 4:3
Частота кадров : 25,000 кадров/сек
Цветовое пространство : YUV
Субдискретизация насыщенности : 4:2:0
Битовая глубина : 8 бит
Тип развёртки : Прогрессивная
Метод сжатия : С потерями
Бит/(Пиксели*Кадры) : 0.152
Размер потока : 1,23 Гбайт (90%)
Заголовок : Video
Библиотека кодирования : DivX 5.2.0 (DrDivX 105) (UTC 2004-07-17)
Аудио
Идентификатор : 1
Формат : MPEG Audio
Версия формата : Version 1
Профиль формата : Layer 3
Режим : Joint stereo
Расширение режима : MS Stereo
Идентификатор кодека : 55
Идентификатор кодека/Подсказка : MP3
Продолжительность : 2 ч. 8 м.
Вид битрейта : Переменный
Битрейт : 128 Кбит/сек
Каналы : 2 канала
Частота : 44,1 КГц
Метод сжатия : С потерями
Размер потока : 124 Мбайт (9%)
Выравнивание : Соединение по промежуткам
Продолжительность промежутка : 26 мс. (0,65 видеокадр)
Время предзагрузки промежутка : 505 мс.
Заголовок : Audio
Жанр: Экранизация, Военный
Год выпуска: 1984
Продолжительность: 02:06:25
Режиссёр: Анатолий Буковский
В ролях: Сергей Буковский, Сергей Каденский, Нина Антонова, Анатолий Барчук, Богдан Ступка, Владимир Лизунов, Виктория Корсун, Ирина Жалыбина, Юрий Медведев, Зинаида Воркуль, Георгий Назаренко, Юрий Назаров, Андрей Подубинский, Гедиминас Гирдвайнис, Ирина Мельник, А. Усабеков, Елена Антонова
Описание: По роману Анатолия Буковского и Владимира Федорова "Вся Володькина жизнь". 2-е серии.
О саратовском парне Володе Плесове. В шестнадцать лет мальчишка добровольцем ушел на фронт, воевал так, как воюют взрослые. Нашел много друзей, потерял любимую девушку. В канун Победы попал в госпиталь, получил орден и подумал, что надо возвращаться домой…
Качество видео: TVRip
Формат видео: AVI
Видео: 656x496 (1.32:1), 25 fps, XviD MPEG-4 ~1455 kbps avg
Аудио: 48 kHz, MPEG Layer 3, 2 ch, ~192.00 kbps avg
Общее
Полное имя : E:\Богдан Ступка Vol 1\Volod`kina_zhizn`.avi
Формат : AVI
Формат/Информация : Audio Video Interleave
Размер файла : 1,46 Гбайт
Продолжительность : 2 ч. 6 м.
Общий поток : 1657 Кбит/сек
Программа кодирования : VirtualDubModRus 1.5.10.2 (build 2542/release)
Библиотека кодирования : VirtualDubMod build 2542/release
Видео
Идентификатор : 0
Формат : MPEG-4 Visual
Профиль формата : Advanced [email protected]
Параметр BVOP формата : 2
Параметр QPel формата : Нет
Параметр GMC формата : Без точки перехода
Параметр матрицы формата : Default (MPEG)
Режим смешивания : Сжатый битовый поток
Идентификатор кодека : XVID
Идентификатор кодека/Подсказка : XviD
Продолжительность : 2 ч. 6 м.
Битрейт : 1455 Кбит/сек
Ширина : 656 пикселей
Высота : 496 пикселей
Соотношение сторон : 4:3
Частота кадров : 25,000 кадров/сек
Цветовое пространство : YUV
Субдискретизация насыщенности : 4:2:0
Битовая глубина : 8 бит
Тип развёртки : Прогрессивная
Метод сжатия : С потерями
Бит/(Пиксели*Кадры) : 0.179
Размер потока : 1,29 Гбайт (88%)
Библиотека кодирования : XviD 64
Аудио
Идентификатор : 1
Формат : MPEG Audio
Версия формата : Version 1
Профиль формата : Layer 3
Режим : Joint stereo
Расширение режима : MS Stereo
Идентификатор кодека : 55
Идентификатор кодека/Подсказка : MP3
Продолжительность : 2 ч. 6 м.
Вид битрейта : Постоянный
Битрейт : 192 Кбит/сек
Каналы : 2 канала
Частота : 48,0 КГц
Метод сжатия : С потерями
Размер потока : 174 Мбайт (12%)
Выравнивание : Соединение по промежуткам
Продолжительность промежутка : 40 мс. (1,00 видеокадр)
Время предзагрузки промежутка : 504 мс.
Библиотека кодирования : LAME3.97
Настройки программы : -m j -V 4 -q 0 -b 192
Год выпуска: 1985
Жанр: Драма
Продолжительность: 01:25:44 + 01:21:26
Режиссер: Леонид Пчелкин
В ролях: Алла Демидова, Евгения Симонова, Иннокентий Смоктуновский, Богдан Ступка, Наталья Гундарева, Мария Скворцова, Елена Цыплакова, Борис Невзоров, Петр Щербаков, В. Васильев, Александр Лазарев, Татьяна Рудина, Роман Филиппов, Э. Осипович, Григорий Острин, Андрей Гусев
Описание: По одноименной пьесе А.М. Горького. Сценарий Иннокентий Смоктуновский. 2-е серии.
В эпоху перемен так трудно поймать мимолетное счастье… Начало XX века - это период расцвета науки и искусства и вместе с тем предвестие великой катастрофы. В своей пьесе "Дети солнца" Максим Горький поднимает вечные темы любви, одиночества, отчуждения и надежды на фоне того удивительного времени.
Качество: DVDRip
Формат: AVI
Видео кодек: DivX
Аудио кодек: MP3
Видео: 640x480 (1.33:1), 25 fps, DivX Codec 5.x or 6.x ~1032 kbps avg
Аудио: 48 kHz, MPEG Layer 3, 2 ch, ~128.00 kbps avg
Общее
Полное имя : E:\Богдан Ступка Vol 1\Deti_solnca\01_Deti_solnca_DVDRip_1.36GB.avi
Формат : AVI
Формат/Информация : Audio Video Interleave
Размер файла : 718 Мбайт
Продолжительность : 1 ч. 25 м.
Общий поток : 1170 Кбит/сек
Программа кодирования : VirtualDubModRus 1.5.10.2 (build 2542/release)
Библиотека кодирования : VirtualDubMod build 2542/release
Видео
Идентификатор : 0
Формат : MPEG-4 Visual
Параметр BVOP формата : 1
Параметр QPel формата : Нет
Параметр GMC формата : Без точки перехода
Параметр матрицы формата : Default (H.263)
Режим смешивания : Сжатый битовый поток
Идентификатор кодека : DX50
Идентификатор кодека/Подсказка : DivX 5
Продолжительность : 1 ч. 25 м.
Битрейт : 1033 Кбит/сек
Ширина : 640 пикселей
Высота : 480 пикселей
Соотношение сторон : 4:3
Частота кадров : 25,000 кадров/сек
Цветовое пространство : YUV
Субдискретизация насыщенности : 4:2:0
Битовая глубина : 8 бит
Тип развёртки : Прогрессивная
Метод сжатия : С потерями
Бит/(Пиксели*Кадры) : 0.134
Размер потока : 633 Мбайт (88%)
Библиотека кодирования : DivX 6.8.3-6.8.4 (UTC 2008-06-07)
Аудио
Идентификатор : 1
Формат : MPEG Audio
Версия формата : Version 1
Профиль формата : Layer 3
Режим : Joint stereo
Расширение режима : MS Stereo
Идентификатор кодека : 55
Идентификатор кодека/Подсказка : MP3
Продолжительность : 1 ч. 25 м.
Вид битрейта : Постоянный
Битрейт : 128 Кбит/сек
Каналы : 2 канала
Частота : 48,0 КГц
Метод сжатия : С потерями
Размер потока : 78,5 Мбайт (11%)
Выравнивание : Соединение по промежуткам
Продолжительность промежутка : 40 мс. (1,00 видеокадр)
Время предзагрузки промежутка : 504 мс.
Библиотека кодирования : LAME3.97
Настройки программы : -m j -V 4 -q 1 -b 128
Год выпуска: 1986
Жанр: Детектив
Продолжительность: 01:03:20 + 01:02:55
Режиссер: Андрей Бенкендорф
В ролях: Армен Джигарханян, Богдан Ступка, Татьяна Лаврова, Николай Засухин, Михаил Рогов, Анатолий Лукьяненко
Описание: В милицию поступило заявление о пропаже колхозного заготовителя Петра Царькова с большой суммой денег. Это и послужило основанием для расследования сложного уголовного дела, связанного с крупными хищениями и убийством. Дело ведет следователь по особо важным делам Стасенко. Односельчане считали Царькова честным и порядочным человеком. Но расследование показало, что он был замешан в крупных махинациях.
Качество: DVDRip
Формат: AVI
Видео кодек: XviD
Аудио кодек: MP3
Видео:
1ая серия - 560x416 (1.35:1), 25 fps, XviD Final 1.0 (build 34) ~1411 kbps avg, 0.24 bit/pixel
2ая серия - 640x480 (1.33:1), 25 fps, XviD Final 1.0 (build 34) ~1421 kbps avg, 0.19 bit/pixel
Аудио:
1ая серия - 48 kHz, MPEG Layer 3, 2 ch, ~119.88 kbps avg
2ая серия - 48 kHz, MPEG Layer 3, 2 ch, ~120.35 kbps avg
Общее
Полное имя : E:\Богдан Ступка Vol 1\К расследованию приступить. Клевета\К расследованию приступить. Клевета. Серия 1.avi
Формат : AVI
Формат/Информация : Audio Video Interleave
Размер файла : 700 Мбайт
Продолжительность : 1 ч. 6 м.
Режим общего битрейта : Переменный
Общий поток : 1472 Кбит/сек
Программа кодирования : VirtualDubMod 1.5.4.1 (build 2178/release)
Библиотека кодирования : VirtualDubMod build 2178/release
Видео
Идентификатор : 0
Формат : MPEG-4 Visual
Профиль формата : Advanced [email protected]
Параметр BVOP формата : 1
Параметр QPel формата : Нет
Параметр GMC формата : Без точки перехода
Параметр матрицы формата : Выборочная
Идентификатор кодека : XVID
Идентификатор кодека/Подсказка : XviD
Продолжительность : 1 ч. 6 м.
Битрейт : 1339 Кбит/сек
Ширина : 640 пикселей
Высота : 480 пикселей
Соотношение сторон : 4:3
Частота кадров : 25,000 кадров/сек
Цветовое пространство : YUV
Субдискретизация насыщенности : 4:2:0
Битовая глубина : 8 бит
Тип развёртки : Прогрессивная
Метод сжатия : С потерями
Бит/(Пиксели*Кадры) : 0.174
Размер потока : 637 Мбайт (91%)
Библиотека кодирования : XviD 1.0.0 (UTC 2004-05-09)
Аудио
Идентификатор : 1
Формат : MPEG Audio
Версия формата : Version 1
Профиль формата : Layer 3
Режим : Joint stereo
Расширение режима : MS Stereo
Идентификатор кодека : 55
Идентификатор кодека/Подсказка : MP3
Продолжительность : 1 ч. 6 м.
Вид битрейта : Переменный
Битрейт : 119 Кбит/сек
Номинальный битрейт : 128 Кбит/сек
Каналы : 2 канала
Частота : 48,0 КГц
Метод сжатия : С потерями
Размер потока : 56,8 Мбайт (8%)
Выравнивание : Соединение по промежуткам
Продолжительность промежутка : 24 мс. (0,60 видеокадр)
Время предзагрузки промежутка : 154 мс.
Библиотека кодирования : LAME3.90.
Настройки программы : -m j -V 4 -q 2 -lowpass 17.6 --abr 128
Язык : Russian
Год выпуска: 1986
Жанр: детектив
Продолжительность: 01:06:30 + 01:09:25
Режиссер: Андрей Бенкендорф
В ролях: А. Джигарханян, Б. Ступка, Т. Лаврова, А.Горбунов, Ю.Яковлев, Н.Гринько, С.Немоляева, А.Ромашин, И.Лиепа
Описание: В течение нескольких лет руководителя крупного строительного треста Мельникова в анонимных письмах обвиняли в хищениях, взятках и аморальном поведении. В результате проверок многочисленными комиссиями все эти "сигналы" не подтверждались. Мельников, не выдержав нападок и клеветы, скончался от инфаркта. Следователю Джангирову удается разоблачить клеветника.
Качество: DVDRip
Формат: AVI
Видео кодек: XviD
Аудио кодек: MP3
Видео: 640x480 (1.33:1), 25 fps, XviD Final 1.0 (build 34) ~1338 kbps avg, 0.17 bit/pixel
Аудио: 48 kHz, MPEG Layer 3, 2 ch, ~119.44 kbps avg
Общее
Полное имя : E:\Богдан Ступка Vol 1\К расследованию приступить. Клевета\К расследованию приступить. Клевета. Серия 1.avi
Формат : AVI
Формат/Информация : Audio Video Interleave
Размер файла : 700 Мбайт
Продолжительность : 1 ч. 6 м.
Режим общего битрейта : Переменный
Общий поток : 1472 Кбит/сек
Программа кодирования : VirtualDubMod 1.5.4.1 (build 2178/release)
Библиотека кодирования : VirtualDubMod build 2178/release
Видео
Идентификатор : 0
Формат : MPEG-4 Visual
Профиль формата : Advanced [email protected]
Параметр BVOP формата : 1
Параметр QPel формата : Нет
Параметр GMC формата : Без точки перехода
Параметр матрицы формата : Выборочная
Идентификатор кодека : XVID
Идентификатор кодека/Подсказка : XviD
Продолжительность : 1 ч. 6 м.
Битрейт : 1339 Кбит/сек
Ширина : 640 пикселей
Высота : 480 пикселей
Соотношение сторон : 4:3
Частота кадров : 25,000 кадров/сек
Цветовое пространство : YUV
Субдискретизация насыщенности : 4:2:0
Битовая глубина : 8 бит
Тип развёртки : Прогрессивная
Метод сжатия : С потерями
Бит/(Пиксели*Кадры) : 0.174
Размер потока : 637 Мбайт (91%)
Библиотека кодирования : XviD 1.0.0 (UTC 2004-05-09)
Аудио
Идентификатор : 1
Формат : MPEG Audio
Версия формата : Version 1
Профиль формата : Layer 3
Режим : Joint stereo
Расширение режима : MS Stereo
Идентификатор кодека : 55
Идентификатор кодека/Подсказка : MP3
Продолжительность : 1 ч. 6 м.
Вид битрейта : Переменный
Битрейт : 119 Кбит/сек
Номинальный битрейт : 128 Кбит/сек
Каналы : 2 канала
Частота : 48,0 КГц
Метод сжатия : С потерями
Размер потока : 56,8 Мбайт (8%)
Выравнивание : Соединение по промежуткам
Продолжительность промежутка : 24 мс. (0,60 видеокадр)
Время предзагрузки промежутка : 154 мс.
Библиотека кодирования : LAME3.90.
Настройки программы : -m j -V 4 -q 2 -lowpass 17.6 --abr 128
Язык : Russian
Жанр: драма, история
Год выпуска: 1987
Продолжительность: 01:33:17
Режиссёр: Ярослав Лупий
В ролях:
Виктор Евграфов
Иван Гаврилюк
Сергей Быстрицкий
Михаил Горносталь
Нурмухан Жантурин
Болот Бейшеналиев
Эрнст Романов
Богдан Ступка
Юрий Гребенщиков
Т. Гайдук
Описание: Одно за другим склоняются русские княжества перед полчищами монголо — татар. На западных пограничных Галицко — Волынских землях осели тысячи людей, спасающихся от жестокости кочевников. Некоторое время князю Даниилу удается сохранять относительную независимость. Но вот Батый призывает Даниила в Орду.
Гордостью, смелостью суждений князь производит на хана большое впечатление, и тот отпускает его с миром, даруя право и дальше княжить в Галиче. Вернувшись на родину, Даниил начинает готовиться к войне с Ордой: заключает союз с венгерским королем, привлекает на свою сторону литовцев, поляков и немцев. Но Папа Римский запрещает западным государствам воевать с Батыем. А у Даниила времени на раздумья уже нет: кочевники вторгаются на русские земли. Дружина князя принимает бой.
Качество видео: DVDRip
Формат видео: AVI
Видео: 704x528 (1.33:1), 25 fps, XviD build 65 ~1774 kbps avg, 0.19 bit/pixel
Аудио: 48 kHz, AC3 Dolby Digital, 3/2 (L,C,R,l,r) + LFE ch, ~448 kbps
Общее
Полное имя : E:\Богдан Ступка Vol 1\Даниил - князь Галицкий.avi
Формат : AVI
Формат/Информация : Audio Video Interleave
Размер файла : 1,45 Гбайт
Продолжительность : 1 ч. 33 м.
Общий поток : 2233 Кбит/сек
Программа кодирования : VirtualDubMod 1.5.10.3 | www.virtualdub-fr.org || (build 2550/release)
Библиотека кодирования : VirtualDubMod build 2550/release
Видео
Идентификатор : 0
Формат : MPEG-4 Visual
Профиль формата : Advanced [email protected]
Параметр BVOP формата : 1
Параметр QPel формата : Нет
Параметр GMC формата : Без точки перехода
Параметр матрицы формата : Выборочная
Идентификатор кодека : XVID
Идентификатор кодека/Подсказка : XviD
Продолжительность : 1 ч. 33 м.
Битрейт : 1775 Кбит/сек
Ширина : 704 пикселя
Высота : 528 пикселей
Соотношение сторон : 4:3
Частота кадров : 25,000 кадров/сек
Цветовое пространство : YUV
Субдискретизация насыщенности : 4:2:0
Битовая глубина : 8 бит
Тип развёртки : Прогрессивная
Метод сжатия : С потерями
Бит/(Пиксели*Кадры) : 0.191
Размер потока : 1,16 Гбайт (79%)
Библиотека кодирования : XviD 65
Аудио
Идентификатор : 1
Формат : AC-3
Формат/Информация : Audio Coding 3
Расширение режима : CM (complete main)
Параметр Endianness формата : Big
Идентификатор кодека : 2000
Продолжительность : 1 ч. 33 м.
Вид битрейта : Постоянный
Битрейт : 448 Кбит/сек
Каналы : 6 каналов
Расположение каналов : Front: L C R, Side: L R, LFE
Частота : 48,0 КГц
Битовая глубина : 16 бит
Метод сжатия : С потерями
Размер потока : 299 Мбайт (20%)
Выравнивание : Разделение по промежуткам
Продолжительность промежутка : 40 мс. (1,00 видеокадр)
Время предзагрузки промежутка : 500 мс.
Год выпуска: 1987
Страна: СССР
Выпущено: Укртелефильм
Жанр: Фильм-спектакль, драма
Продолжительность: 01:25:35
Режиссер: Борис Квашнев
По мотивам одноименной повести Тараса Шевченко.
Действующие лица и исполнители: Богдан Ступка, Александра Белина, Елена Блинникова, Владимир Волков, Игорь Щербак, Владимир , Георгий Гавриленко, Андрей Пархоменко, Нина Колчина.
О спектакле:
Путешествующий писатель однажды знакомится с удивительной женщиной, которую ее муж называет Капитанша. Писатель жаждет узнать побольше об этой женщине. Отец его друга соглашается рассказать эту удивительную историю, продолжавшуюся много лет, и в которой он принимал непосредственное участие.
Качество видео: TVRip
Формат: AVI
Видео: 688x512 (1.34:1), 25 fps, XviD build 47 ~1702 kbps avg, 0.19 bit/pixel
Аудио: 48 kHz, MPEG Layer 3, 2 ch, ~128.00 kbps avg
Общее
Полное имя : E:\Богдан Ступка Vol 1\Kapitansha..avi
Формат : AVI
Формат/Информация : Audio Video Interleave
Размер файла : 1,10 Гбайт
Продолжительность : 1 ч. 25 м.
Общий поток : 1840 Кбит/сек
Программа кодирования : VirtualDubMod 1.5.10.2 (build 2540/release)
Библиотека кодирования : VirtualDub build 28292/release
Видео
Идентификатор : 0
Формат : MPEG-4 Visual
Профиль формата : Advanced [email protected]
Параметр BVOP формата : 3
Параметр QPel формата : Да
Параметр GMC формата : 3 точки перехода
Параметр матрицы формата : Default (H.263)
Идентификатор кодека : XVID
Идентификатор кодека/Подсказка : XviD
Продолжительность : 1 ч. 25 м.
Битрейт : 1703 Кбит/сек
Ширина : 688 пикселей
Высота : 512 пикселей
Соотношение сторон : 4:3
Частота кадров : 25,000 кадров/сек
Цветовое пространство : YUV
Субдискретизация насыщенности : 4:2:0
Битовая глубина : 8 бит
Тип развёртки : Прогрессивная
Метод сжатия : С потерями
Бит/(Пиксели*Кадры) : 0.193
Размер потока : 1,02 Гбайт (93%)
Библиотека кодирования : XviD 1.2.0.dev47 (UTC 2006-11-01)
Аудио
Идентификатор : 1
Формат : MPEG Audio
Версия формата : Version 1
Профиль формата : Layer 3
Идентификатор кодека : 55
Идентификатор кодека/Подсказка : MP3
Продолжительность : 1 ч. 25 м.
Вид битрейта : Постоянный
Битрейт : 128 Кбит/сек
Каналы : 2 канала
Частота : 48,0 КГц
Метод сжатия : С потерями
Размер потока : 78,3 Мбайт (7%)
Выравнивание : Соединение по промежуткам
Продолжительность промежутка : 40 мс. (1,00 видеокадр)
Время предзагрузки промежутка : 504 мс.
Библиотека кодирования : LAME3.97
Настройки программы : -m s -V 4 -q 2 -lowpass 17 -b 128
Год выпуска: 1989
Жанр: Мелодрама
Продолжительность: 01:04:36
Режиссер: Виктор Живолуб
В ролях: Богдан Ступка, Евгений Паперный, Александра Назарова, Лев Перфилов, Остап Ступка
Описание: В центре фильма - история любви журналистки Елены Голициной и актера Сергея Муратова. Их связывает большое взаимное чувство, но у Сергея есть жена и сын. Даже понимая, что Елена - его единственная настоящая любовь, Муратов все-таки не решается оставить семью.
Качество: TVRip
Формат: AVI
Видео кодек: XviD
Аудио кодек: MP3
Видео: XviD, 688x512, 25.00fps, 1378Kbps
Аудио: MP3, 48000Hz, 2 ch, 128.0Kbps
Общее
Полное имя : E:\Богдан Ступка Vol 1\Teatralnyj_sezon.avi
Формат : AVI
Формат/Информация : Audio Video Interleave
Размер файла : 699 Мбайт
Продолжительность : 1 ч. 4 м.
Общий поток : 1513 Кбит/сек
Программа кодирования : VirtualDubMod 1.5.4.1 (build 2178/release)
Библиотека кодирования : VirtualDubMod build 2178/release
Видео
Идентификатор : 0
Формат : MPEG-4 Visual
Профиль формата : Advanced [email protected]
Параметр BVOP формата : 1
Параметр QPel формата : Нет
Параметр GMC формата : Без точки перехода
Параметр матрицы формата : Выборочная
Идентификатор кодека : XVID
Идентификатор кодека/Подсказка : XviD
Продолжительность : 1 ч. 4 м.
Битрейт : 1378 Кбит/сек
Ширина : 688 пикселей
Высота : 512 пикселей
Соотношение сторон : 4:3
Частота кадров : 25,000 кадров/сек
Цветовое пространство : YUV
Субдискретизация насыщенности : 4:2:0
Битовая глубина : 8 бит
Тип развёртки : Прогрессивная
Метод сжатия : С потерями
Бит/(Пиксели*Кадры) : 0.156
Размер потока : 637 Мбайт (91%)
Библиотека кодирования : XviD 1.2.1 (UTC 2008-12-04)
Аудио
Идентификатор : 1
Формат : MPEG Audio
Версия формата : Version 1
Профиль формата : Layer 3
Режим : Joint stereo
Расширение режима : MS Stereo
Идентификатор кодека : 55
Идентификатор кодека/Подсказка : MP3
Продолжительность : 1 ч. 4 м.
Вид битрейта : Постоянный
Битрейт : 128 Кбит/сек
Каналы : 2 канала
Частота : 48,0 КГц
Метод сжатия : С потерями
Размер потока : 59,2 Мбайт (8%)
Выравнивание : Соединение по промежуткам
Продолжительность промежутка : 80 мс. (2,00 видеокадра)
Время предзагрузки промежутка : 504 мс.
Библиотека кодирования : LAME3.93
Жанр: Драма, Экранизация
Год выпуска: 1988
Продолжительность: 02:09:02
Режиссёр: Виктор Жилко
В ролях: Андрей Зайков, Александр Коптев, Богдан Ступка, Тарас Мороз, Кэтэлин Петраки, Тарас Мельник, Анатолий Суханов, Геннадий Свитич, Арсений Назаренко, Андрей Луговский, Николай Гринько, Андрей Болтнев, Юрис Стренга, Илья Иванов, Петр Бенюк, Север Гансовский, Сергей Иушин, Алексей Миронов, Борислав Брондуков, Хелга Данцберга, Саша Жилко, Мирон Завийский, Александр Кавалеров, Елена Чухаленок, Наталья Шостак, Стефания Станюта, Владимир Сошальский, Светлана Панфилова, Лев Перфилов, Юрий Дубровин, Игорь Слободской, Николай Цуцура, Александр Вокач, Остап Ступка
Описание: По мотивам повести Василия Авенариуса "Гоголь-гимназист". 2-е серии.
Николай Васильевич Гоголь, уже состоявшийся как писатель, вспоминает о лицейских проказах юного Никоши Гоголя с друзьями лицеистами в Неженском лицее и его педагогах; о домашнем любительском театре отца-писателя Василия Гоголя в имении Васильевка на Украине.
На протяжении фильма между юным и зрелым Гоголем - диалог о смысле жизни и творчества писателя...
Качество видео: TVRip
Формат видео: AVI
Видео: 656x496 (1.32:1), 25 fps, XviD MPEG-4 ~1419 kbps avg
Аудио: 48 kHz, MPEG Layer 3, 2 ch, ~192.00 kbps avg
Общее
Полное имя : E:\Богдан Ступка Vol 1\General`naja_repeticija.avi
Формат : AVI
Формат/Информация : Audio Video Interleave
Размер файла : 1,46 Гбайт
Продолжительность : 2 ч. 9 м.
Общий поток : 1622 Кбит/сек
Программа кодирования : VirtualDubModRus 1.5.10.2 (build 2542/release)
Библиотека кодирования : VirtualDubMod build 2542/release
Видео
Идентификатор : 0
Формат : MPEG-4 Visual
Профиль формата : Advanced [email protected]
Параметр BVOP формата : 2
Параметр QPel формата : Нет
Параметр GMC формата : Без точки перехода
Параметр матрицы формата : Default (MPEG)
Режим смешивания : Сжатый битовый поток
Идентификатор кодека : XVID
Идентификатор кодека/Подсказка : XviD
Продолжительность : 2 ч. 9 м.
Битрейт : 1420 Кбит/сек
Ширина : 656 пикселей
Высота : 496 пикселей
Соотношение сторон : 4:3
Частота кадров : 25,000 кадров/сек
Цветовое пространство : YUV
Субдискретизация насыщенности : 4:2:0
Битовая глубина : 8 бит
Тип развёртки : Прогрессивная
Метод сжатия : С потерями
Бит/(Пиксели*Кадры) : 0.175
Размер потока : 1,28 Гбайт (88%)
Библиотека кодирования : XviD 64
Аудио
Идентификатор : 1
Формат : MPEG Audio
Версия формата : Version 1
Профиль формата : Layer 3
Режим : Joint stereo
Расширение режима : MS Stereo
Идентификатор кодека : 55
Идентификатор кодека/Подсказка : MP3
Продолжительность : 2 ч. 9 м.
Вид битрейта : Постоянный
Битрейт : 192 Кбит/сек
Каналы : 2 канала
Частота : 48,0 КГц
Метод сжатия : С потерями
Размер потока : 177 Мбайт (12%)
Выравнивание : Соединение по промежуткам
Продолжительность промежутка : 40 мс. (1,00 видеокадр)
Время предзагрузки промежутка : 504 мс.
Библиотека кодирования : LAME3.97
Настройки программы : -m j -V 4 -q 0 -b 192
Год выпуска: 1990
Страна: СССР - Германия
Жанр: Драма
Продолжительность: 07:35:00
Режиссер: Александр Прошкин. Сценарий: Сергей Дьяченко, Юрий Арабов. Композитор: Владимир Мартынов.
В ролях: Костас Сморигинас, Богдан Ступка, Ирина Купченко, Ингеборга Дапкунайте, Николай Лавров, Ирина Калиновская, Тамара Дегтярева, Алексей Бурыкин, В. Шуранов, Кирилл Вац, Вячеслав Езепов, Ион Унгуряну, Михаил Хмуров, Валентина Салтовская, Николай Аверюшкин, Рим Аюпов, Сергей Газаров, Георгий Кавтарадзе, Юрий Комаров, Андрей Мартынов, Юрий Рудченко, Георгий Саакян, Нина Усатова, Игорь Иванов, Иван Мурадханов, Сергей Плотников.
Описание: О великом советском ученом-биологе, первом президенте ВАСХНИЛ, Николае Вавилове (1887-1943).
Качество: SATRip
Формат: AVI
Видео кодек: XviD
Аудио кодек: MP3
Видео: 640x480 (1.33:1), 25 fps, XviD build 50 ~1177 kbps avg, 0.16 bit/pixel
Аудио: 48 kHz, MPEG Layer 3, 2 ch, ~192.00 kbps avg
Общее
Полное имя : E:\Богдан Ступка Vol 1\КУЛЬТУРА_Николай Вавилов\Культура_Николай Вавилов_1_Семья.avi
Формат : AVI
Формат/Информация : Audio Video Interleave
Размер файла : 649 Мбайт
Продолжительность : 1 ч. 6 м.
Общий поток : 1374 Кбит/сек
Программа кодирования : VirtualDubMod 1.5.10.2 (build 2540/release)
Примечание : Rip by iriston
Видео
Идентификатор : 0
Формат : MPEG-4 Visual
Профиль формата : Advanced [email protected]
Параметр BVOP формата : 1
Параметр QPel формата : Нет
Параметр GMC формата : Без точки перехода
Параметр матрицы формата : Выборочная
Идентификатор кодека : XVID
Идентификатор кодека/Подсказка : XviD
Продолжительность : 1 ч. 6 м.
Битрейт : 1172 Кбит/сек
Ширина : 640 пикселей
Высота : 480 пикселей
Соотношение сторон : 4:3
Частота кадров : 25,000 кадров/сек
Цветовое пространство : YUV
Субдискретизация насыщенности : 4:2:0
Битовая глубина : 8 бит
Тип развёртки : Прогрессивная
Метод сжатия : С потерями
Бит/(Пиксели*Кадры) : 0.153
Размер потока : 554 Мбайт (85%)
Библиотека кодирования : XviD 1.2.1 (UTC 2008-12-04)
Аудио
Идентификатор : 1
Формат : MPEG Audio
Версия формата : Version 1
Профиль формата : Layer 3
Идентификатор кодека : 55
Идентификатор кодека/Подсказка : MP3
Продолжительность : 1 ч. 6 м.
Вид битрейта : Постоянный
Битрейт : 192 Кбит/сек
Каналы : 2 канала
Частота : 48,0 КГц
Метод сжатия : С потерями
Размер потока : 90,8 Мбайт (14%)
Выравнивание : Соединение по промежуткам
Продолжительность промежутка : 40 мс. (1,00 видеокадр)
Время предзагрузки промежутка : 504 мс.
Библиотека кодирования : LAME3.98r
Настройки программы : -m s -V 4 -q 2 -lowpass 18.6 -b 192
Год выпуска: 2006
Производство: к\к "Черома Фильм"
Жанр: Историческая драма
Продолжительность: 12 х ~52 минуты
Режиссёр: Игорь Черницкий
В ролях: Илья Иосифов, Анатолий Просалов, Игорь Черницкий, Антон Сорокин, Алена Бабенко, Ольга Арнтгольц, Светлана Крючкова, Лариса Лужина, Александр Михайлов, Богдан Ступка, Григорий Антипенко, Дарья Барская, Ирина Барская, Марина Богомолова, Даниил Воробьев
Описание: Россия на рубеже веков 1900 — 1910 годы. Знаменитое московское Александровское военное училище. Юноши — без пяти минут офицеры с главным героем фильма юнкером Александровым. Их воспитатели — наставники в недавнем прошлом боевые офицеры. Складывается мир будущего художника и офицера. У него все происходит впервые: первый бал, первая любовь, первый поединок, отпор негодяю, готовность пожертвовать собой ради друга и защитить слабого.
Качество: DVDRip
Формат: AVI
Видео кодек: XviD
Аудио кодек: MP3
Видео: XviD, 704x384, 25.000 fps, 1300 kbps, 0,192 bit/pixel
Аудио: MP3, 48000 Hz, 2 ch, 128 kbps
Общее
Полное имя : E:\Богдан Ступка Vol 1\Yunkera\Yunkera(2006)_01.avi
Формат : AVI
Формат/Информация : Audio Video Interleave
Размер файла : 535 Мбайт
Продолжительность : 52 м.
Общий поток : 1438 Кбит/сек
Программа кодирования : VirtualDubMod 1.5.10.3 | www.virtualdub-fr.org || (build 2550/release)
Библиотека кодирования : VirtualDub build 32661/release
Видео
Идентификатор : 0
Формат : MPEG-4 Visual
Профиль формата : Advanced [email protected]
Параметр BVOP формата : 2
Параметр QPel формата : Нет
Параметр GMC формата : Без точки перехода
Параметр матрицы формата : Default (H.263)
Идентификатор кодека : XVID
Идентификатор кодека/Подсказка : XviD
Продолжительность : 52 м.
Битрейт : 1300 Кбит/сек
Ширина : 704 пикселя
Высота : 384 пикселя
Соотношение сторон : 1,85:1
Частота кадров : 25,000 кадров/сек
Цветовое пространство : YUV
Субдискретизация насыщенности : 4:2:0
Битовая глубина : 8 бит
Тип развёртки : Прогрессивная
Метод сжатия : С потерями
Бит/(Пиксели*Кадры) : 0.192
Размер потока : 484 Мбайт (90%)
Библиотека кодирования : XviD 1.2.1 (UTC 2008-12-04)
Аудио
Идентификатор : 1
Формат : MPEG Audio
Версия формата : Version 1
Профиль формата : Layer 3
Идентификатор кодека : 55
Идентификатор кодека/Подсказка : MP3
Продолжительность : 52 м.
Вид битрейта : Постоянный
Битрейт : 128 Кбит/сек
Каналы : 2 канала
Частота : 48,0 КГц
Метод сжатия : С потерями
Размер потока : 47,6 Мбайт (9%)
Выравнивание : Соединение по промежуткам
Продолжительность промежутка : 40 мс. (1,00 видеокадр)
Время предзагрузки промежутка : 504 мс.
Библиотека кодирования : LAME3.99
Настройки программы : -m s -V 4 -q 2 -lowpass 17 -b 128
Год выпуска: 2007
Страна: Россия, Украина
Жанр: Драма / Комедия
Продолжительность: 02:04:32
Режиссер: Кира Муратова
В ролях: Наталья Бузько, Рената Литвинова, Нина Русланова, Богдан Ступка, Александр Баширов, Сергей Бехтерев, Владимир Горянский
Описание: Фильм состоит из двух новелл.
На сцене театра повесился актер. Как-то в этом замешан рабочий сцены. Но тело лицедея в петле — далеко не единственная, да и не самая захватывающая интрига, раздирающая труппу. Настоящая смерть пришла в мир условности, и уже невозможно предположить, куда заведет череда событий. И понять, сколько еще смертей ждет эту труппу. А может быть, среди этих людей и не было живых?
Но шоу должно продолжаться — во что бы то ни стало, и оно продолжается. Стареющий ловелас не может смириться с одиночеством. У него есть все, кроме того, в чем он отчаянно нуждается — женщине его жизни. Он готов искать ее до изнеможения. До смерти. Единственная женщина рядом с ним — его дочь, которой приходиться терпеть все издержки такого положения. Не выдерживая напряжения, она приводит в дом свою подругу, простодушную работницу трамвайного депо. Дверь за ними закрывается, и единственный ключ, который позволит им вырваться — это акт любви — или смерти. Но может ли умереть настоящая любовь?
Качество: DVDRip
Формат: AVI
Видео: XVID 640x384 25.00fps
Аудио: MPEG Audio Layer 3 48000Hz stereo 128Kbps
Общее
Полное имя : E:\Богдан Ступка Vol 1\dva_v_odnom_DVDRip.avi
Формат : AVI
Формат/Информация : Audio Video Interleave
Размер файла : 1,46 Гбайт
Продолжительность : 2 ч. 4 м.
Общий поток : 1684 Кбит/сек
Программа кодирования : VirtualDubMod 1.5.10.2 (build 2540/release)
Правообладатель : DVDRip by Grig
Примечание : DVDRip by Grig
Видео
Идентификатор : 0
Формат : MPEG-4 Visual
Профиль формата : Advanced [email protected]
Параметр BVOP формата : 1
Параметр QPel формата : Нет
Параметр GMC формата : Без точки перехода
Параметр матрицы формата : Default (H.263)
Режим смешивания : Сжатый битовый поток
Идентификатор кодека : XVID
Идентификатор кодека/Подсказка : XviD
Продолжительность : 2 ч. 4 м.
Битрейт : 1547 Кбит/сек
Ширина : 640 пикселей
Высота : 384 пикселя
Соотношение сторон : 1,667
Частота кадров : 25,000 кадров/сек
Цветовое пространство : YUV
Субдискретизация насыщенности : 4:2:0
Битовая глубина : 8 бит
Тип развёртки : Прогрессивная
Метод сжатия : С потерями
Бит/(Пиксели*Кадры) : 0.252
Размер потока : 1,35 Гбайт (92%)
Библиотека кодирования : XviD 1.1.2 (UTC 2006-11-01)
Аудио
Идентификатор : 1
Формат : MPEG Audio
Версия формата : Version 1
Профиль формата : Layer 3
Режим : Joint stereo
Расширение режима : MS Stereo
Идентификатор кодека : 55
Идентификатор кодека/Подсказка : MP3
Продолжительность : 2 ч. 4 м.
Вид битрейта : Постоянный
Битрейт : 128 Кбит/сек
Каналы : 2 канала
Частота : 48,0 КГц
Метод сжатия : С потерями
Размер потока : 114 Мбайт (8%)
Выравнивание : Соединение по промежуткам
Продолжительность промежутка : 40 мс. (1,00 видеокадр)
Время предзагрузки промежутка : 504 мс.
Библиотека кодирования : LAME3.93
Настройки программы : -m j -V 4 -q 2 -lowpass 15.3 -b 128
Скачивать все не обязательно. Вы можете скачать только нужные Вам фильмы.
Огромная благодарность erchine за помощь в поиске материала и оформлении раздачи, и людям, которые сохранили это для нас.
Download / Скачать

Хотите скачать бесплатно? Зарегистрируйтесь на сайте (ссылка на регистрацию). Pirat.ca - самый быстрый торрент трекер в рунете!

Как скачивать  ·   Что такое торрент  ·   Рейтинг и ограничения



Последний раз редактировалось: canfly (2013-11-19 17:44), всего редактировалось 19 раз(а)

viktor41

Шкипер

Пост 18-Ноя-2013 23:20 (спустя 8 часов)

[Q] 

canfly, Спасибо ! Автору респект!!! Всем качать!!!
[Профиль]  [ЛС] 

canfly ®

506

Пост 18-Ноя-2013 23:49 (спустя 28 минут)

[Q] 

viktor41, aa

_________________
[Профиль]  [ЛС] 

Пост 19-Ноя-2013 19:02 (спустя 19 часов)

Топик был перенесен из форума Наше кино (Трюм) в форум Наше кино
erchine
 

Mandrik2011

Штурман

17

Пост 07-Апр-2014 17:46 (спустя 4 месяца 18 дней)

[Q] 

Для любителей Ступки, самое оно!!! На любителя
[Профиль]  [ЛС] 

DRUMSER

Корсар

Пост 14-Май-2014 12:49 (спустя 1 месяц 6 дней)

[Q] 

Точно)) на любителя))
[Профиль]  [ЛС] 

seriousstas

Лоцман

Пост 17-Дек-2015 03:58 (спустя 1 год 7 месяцев)

[Q] 

Человек и актёр с Большой буквы !
[Профиль]  [ЛС] 

canfly ®

506

Пост 17-Дек-2015 19:00 (спустя 15 часов)

[Q] 

Поскольку нет возможности раздавать, теперь сижу на мопеде от мтс, сорри всем, но если хорошо поискать, то найти можно, спасибо за понимание..

_________________
[Профиль]  [ЛС] 

Саламон

Матрос

Пост 03-Июл-2016 16:25 (спустя 6 месяцев 16 дней)

[Q] 

canfly, Огромное спасибо за труд!!!!! Супер! Лови бочку
[Профиль]  [ЛС] 
Показать сообщения:    
Ответить на тему

Текущее время: Сегодня 12:07

Часовой пояс: GMT + 4



Вы не можете начинать темы
Вы не можете отвечать на сообщения
Вы не можете редактировать свои сообщения
Вы не можете удалять свои сообщения
Вы не можете голосовать в опросах
Вы не можете прикреплять файлы к сообщениям
Вы не можете скачивать файлы

▼ Вниз