ML
     
  Уважаемый Гость!
Вы можете поддержать проект и зарегистрироваться у наших партнеров - онлайн-стратегия MyLands. При регистрации в игре Вы получите код, который сможете активировать после регистрации на pirat.ca и получить 1000 дублонов.

Ваш код:
8b752b428cf60a012c159dcae592cd1392170115
 
     

Золотая коллекция. Шерлок Холмс и доктор Ватсон (Игорь Масленников) [1979-1986гг., СССР, Ленфильм, криминал, детектив, DVDRip]

Ответить на тему
 
Автор
Сообщение

Пост 04-Апр-2012 19:26

[Q] 

Андря

Золотая коллекция. Весь Шерлок Холмс и доктор Ватсон *
Год выхода: 1979-1986гг.
Жанр: криминал, детектив
Производство: СССР, Ленфильм
Перевод: не требуется
Общая продолжительность: 12:46:12
Режиссер: Игорь Масленников
Сценарий: Игорь Масленников, Артур Конан Дойл
В главных ролях: Василий Ливанов, Виталий Соломин, Рина Зеленая,
Мария Соломина, Геннадий Богачёв, Федор Одиноков, Кэтрин Шелл,
Борислав Брондуков, Валентина Панина, Игорь Дмитриев, Виктор Аристов,
Виталий Баганов, Адольф Ильин, Николай Караченцов, Борислав Брондуков,
Борис Рыжухин, Борис Клюев, Анатолий Подшивалов, Светлана Крючкова,
Виктор Евграфов, Александр Захаров, Иннокентий Смоктуновский,
Лариса Гузеева, Виктор Корецкий, Аркадий Коваль, Леонид Куравлёв
Качество: DVDRip
Формат: AVI
Видео кодек: XVID
Аудио кодек: MP3
Знакомство
Год выхода: 1979
Жанр: криминал, детектив
Производство: СССР, Ленфильм
Продолжительность: 01:07:37
Перевод: не требуется
Мировая премьера: 22 марта 1980
Релиз на DVD: 2 февраля 2010, «Lizard Cinema Trade»
Режиссер: Игорь Масленников
Сценарий: Юлий Дунский, Валерий Фрид, Артур Конан Дойл
Директор фильма: Григорий Прусовский
Оператор: Юрий Векслер
Композитор: Владимир Дашкевич
Художник: Марк Каплан
В главных ролях: Василий Ливанов, Виталий Соломин, Рина Зеленая, Мария Соломина, Геннадий Богачёв, Федор Одиноков, Кэтрин Шелл
Молодой доктор по фамилии Ватсон возвратился из Афганистана в родной туманный Лондон. Ему нужно недорогое жилье. И вот, по совету друга, он поселяется в маленьком домике на Бейкер-стрит. Его хозяйка — милая чудаковатая старушка миссис Хадсон. Также там имеется сосед — некий мистер Шерлок Холмс. Это непонятная и таинственная личность — к нему в гости приходят оборванцы и бандиты, а иногда полицейские и лорды. Кто же он? Доктор в растерянности…
Качество: DVDRip
Формат: AVI
Видео кодек: XVID
Аудио кодек: МР3
Видео: XviD, 808 Кбит/сек, 720х576, 5:4, 23,976 кадра/сек, 8 бит, 0.081 Бит/Пиксел
Аудио: MPEG Audio Layer 3, 96,0 Кбит/сек, 2 канала, 44,1 КГц
Общее
Полное имя : Приключения Шерлока Холмса и доктора Ватсона\1. Знакомство.avi
Формат : AVI
Формат/Информация : Audio Video Interleave
Размер файла : 442 Мбайт
Продолжительность : 1 ч. 7 м.
Общий поток : 913 Кбит/сек
Видео
Идентификатор : 0
Формат : MPEG-4 Visual
Профиль формата : Advanced [email protected]
Параметр BVOP формата : 2
Параметр QPel формата : Нет
Параметр GMC формата : Без точки перехода
Параметр матрицы формата : Default (H.263)
Режим смешивания : Сжатый битовый поток
Идентификатор кодека : XVID
Идентификатор кодека/Подсказка : XviD
Продолжительность : 1 ч. 7 м.
Битрейт : 808 Кбит/сек
Ширина : 720 пикселей
Высота : 576 пикселей
Соотношение сторон : 5:4
Частота кадров : 23,976 кадра/сек
Стандарт вещания : PAL
Цветовое пространство : YUV
Субдискретизация насыщенности : 4:2:0
Битовая глубина : 8 бит
Тип развёртки : Прогрессивная
Метод сжатия : С потерями
Бит/(Пиксели*Кадры) : 0.081
Размер потока : 391 Мбайт (88%)
Библиотека кодирования : XviD 1.1.0 (UTC 2005-11-22)
Аудио
Идентификатор : 1
Формат : MPEG Audio
Версия формата : Version 1
Профиль формата : Layer 3
Идентификатор кодека : 55
Идентификатор кодека/Подсказка : MP3
Продолжительность : 1 ч. 7 м.
Вид битрейта : Постоянный
Битрейт : 96,0 Кбит/сек
Каналы : 2 канала
Частота : 44,1 КГц
Метод сжатия : С потерями
Задержка видео : 26 мс.
Размер потока : 46,4 Мбайт (11%)
Выравнивание : Разделение по промежуткам
Продолжительность промежутка : 42 мс. (1,00 видеокадр)
Заголовок : Audio Stream
Библиотека кодирования : LAME3.92



Кровавая надпись Год выхода: 1979
Жанр: криминал, детектив
Производство: СССР, Ленфильм
Продолжительность: 01:05:56
Перевод: не требуется
Мировая премьера: 22 марта 1980
Релиз на DVD: 1 апреля 2011, «Парадиз Видео»
Режиссер: Игорь Масленников
Сценарий: Юлий Дунский, Валерий Фрид, Артур Конан Дойл
Директор фильма: Григорий Прусовский
Оператор: Анатолий Лапшов, Юрий Векслер
Композитор: Владимир Дашкевич
Художник: Марк Каплан, Нелли Лев
Монтаж: Людмила Образумова
В главных ролях: Василий Ливанов, Виталий Соломин, Рина Зеленая, Борислав Брондуков, Валентина Панина, Игорь Дмитриев, Виктор Аристов, Виталий Баганов, Адольф Ильин, Николай Караченцов
В первой серии мы оказываемся свидетелями знакомства Шерлока Холмса с доктором Ватсоном. Во второй — Шерлок Холмс раскроет тайну «кровавой надписи» и выследит загадочного неуловимого убийцу.
Качество: DVDRip
Формат: AVI
Видео кодек: XVID
Аудио кодек: МР3
Видео: XviD, 711 Кбит/сек, 720х576, 5:4, 23,976 кадра/сек, 8 бит, 0.071 Бит/Пиксел
Аудио: MPEG Audio Layer 3, 96,0 Кбит/сек, 2 канала, 44,1 КГц
Общее
Полное имя : Приключения Шерлока Холмса и доктора Ватсона\2. Кровавая надпись.avi
Формат : AVI
Формат/Информация : Audio Video Interleave
Размер файла : 385 Мбайт
Продолжительность : 1 ч. 5 м.
Общий поток : 816 Кбит/сек
Видео
Идентификатор : 0
Формат : MPEG-4 Visual
Профиль формата : Advanced [email protected]
Параметр BVOP формата : 2
Параметр QPel формата : Нет
Параметр GMC формата : Без точки перехода
Параметр матрицы формата : Default (H.263)
Режим смешивания : Сжатый битовый поток
Идентификатор кодека : XVID
Идентификатор кодека/Подсказка : XviD
Продолжительность : 1 ч. 5 м.
Битрейт : 711 Кбит/сек
Ширина : 720 пикселей
Высота : 576 пикселей
Соотношение сторон : 5:4
Частота кадров : 23,976 кадра/сек
Стандарт вещания : PAL
Цветовое пространство : YUV
Субдискретизация насыщенности : 4:2:0
Битовая глубина : 8 бит
Тип развёртки : Прогрессивная
Метод сжатия : С потерями
Бит/(Пиксели*Кадры) : 0.071
Размер потока : 335 Мбайт (87%)
Библиотека кодирования : XviD 1.1.0 (UTC 2005-11-22)
Аудио
Идентификатор : 1
Формат : MPEG Audio
Версия формата : Version 1
Профиль формата : Layer 3
Идентификатор кодека : 55
Идентификатор кодека/Подсказка : MP3
Продолжительность : 1 ч. 5 м.
Вид битрейта : Постоянный
Битрейт : 96,0 Кбит/сек
Каналы : 2 канала
Частота : 44,1 КГц
Метод сжатия : С потерями
Задержка видео : 26 мс.
Размер потока : 45,3 Мбайт (12%)
Выравнивание : Разделение по промежуткам
Продолжительность промежутка : 42 мс. (1,00 видеокадр)
Заголовок : Audio Stream
Библиотека кодирования : LAME3.92



Король шантажа
Год выхода: 1980
Жанр: криминал, детектив
Производство: СССР, Ленфильм
Продолжительность: 01:03:24
Перевод: не требуется
Релиз на DVD: 1 апреля 2011, «Парадиз Видео»
Режиссер: Игорь Масленников
Сценарий: Владимир Валуцкий, Артур Конан Дойл
Директор фильма: Григорий Прусовский
Оператор: Анатолий Лапшов, Юрий Векслер
Композитор: Владимир Дашкевич
Художник: Марк Каплан, Нелли Лев, С. Сергеев
Монтаж: Людмила Образумова
В главных ролях: Василий Ливанов, Виталий Соломин, Рина Зеленая, Валентина Панина, Борислав Брондуков, Борис Рыжухин, Борис Клюев, Анатолий Подшивалов, Светлана Крючкова
К Шерлоку Холмсу за помощью обращается некая леди Брекуэлл, одна из жертв известного лондонского шантажиста по имени Чарльз Огестос Милвертон. Если великий сыщик не остановит циничного негодяя, семейное благополучие молодой леди окажется под угрозой. Шерлок Холмс и доктор Ватсон как истинные джентельмены не могут отказать в помощи беззащитной женщине.
Качество: DVDRip
Формат: AVI
Видео кодек: XVID
Аудио кодек: МР3
Видео: XviD, 957 Кбит/сек, 720х576, 5:4, 23,976 кадра/сек, 8 бит, 0.096 Бит/Пиксел
Аудио: MPEG Audio Layer 3, 96,0 Кбит/сек, 2 канала, 44,1 КГц
Общее
Полное имя : Приключения Шерлока Холмса и доктора Ватсона\3. Король шантажа.avi
Формат : AVI
Формат/Информация : Audio Video Interleave
Размер файла : 482 Мбайт
Продолжительность : 1 ч. 3 м.
Общий поток : 1062 Кбит/сек
Видео
Идентификатор : 0
Формат : MPEG-4 Visual
Профиль формата : Advanced [email protected]
Параметр BVOP формата : 2
Параметр QPel формата : Нет
Параметр GMC формата : Без точки перехода
Параметр матрицы формата : Default (H.263)
Режим смешивания : Сжатый битовый поток
Идентификатор кодека : XVID
Идентификатор кодека/Подсказка : XviD
Продолжительность : 1 ч. 3 м.
Битрейт : 957 Кбит/сек
Ширина : 720 пикселей
Высота : 576 пикселей
Соотношение сторон : 5:4
Частота кадров : 23,976 кадра/сек
Стандарт вещания : PAL
Цветовое пространство : YUV
Субдискретизация насыщенности : 4:2:0
Битовая глубина : 8 бит
Тип развёртки : Прогрессивная
Метод сжатия : С потерями
Бит/(Пиксели*Кадры) : 0.096
Размер потока : 434 Мбайт (90%)
Библиотека кодирования : XviD 1.1.0 (UTC 2005-11-22)
Аудио
Идентификатор : 1
Формат : MPEG Audio
Версия формата : Version 1
Профиль формата : Layer 3
Идентификатор кодека : 55
Идентификатор кодека/Подсказка : MP3
Продолжительность : 1 ч. 3 м.
Вид битрейта : Постоянный
Битрейт : 96,0 Кбит/сек
Каналы : 2 канала
Частота : 44,1 КГц
Метод сжатия : С потерями
Задержка видео : 26 мс.
Размер потока : 43,5 Мбайт (9%)
Выравнивание : Разделение по промежуткам
Продолжительность промежутка : 42 мс. (1,00 видеокадр)
Заголовок : Audio Stream
Библиотека кодирования : LAME3.92



Смертельная схватка Год выхода: 1980
Жанр: криминал, детектив
Производство: СССР, Ленфильм
Продолжительность: 01:04:38
Перевод: не требуется
Режиссер: Игорь Масленников
Сценарий: Владимир Валуцкий, Артур Конан Дойл
Директор фильма: Григорий Прусовский
Оператор: Анатолий Лапшов, Юрий Векслер
Композитор: Владимир Дашкевич
Художник: Марк Каплан, Нелли Лев, В. Сергеев
Монтаж: Людмила Образумова
В главных ролях: Василий Ливанов, Виталий Соломин, Рина Зеленая, Борислав Брондуков, Виктор Евграфов, Александр Захаров, Борис Клюев, Николай Крюков, Алексей Кожевников, Игнат Лейрер
Шерлок Холмс вступил в смертельную схватку с главарем английской преступности профессором Мориарти. В сети полиции попали все, кроме главаря, и друзья на время решили укрыться в тихой Швейцарии. Но от гнева Мориарти ещё не ускользал никто.
Качество: DVDRip
Формат: AVI
Видео кодек: XVID
Аудио кодек: МР3
Видео: XviD, 1363 Кбит/сек, 720х576, 5:4, 23,976 кадра/сек, 8 бит, 0.137 Бит/Пиксел
Аудио: MPEG Audio Layer 3, 96,0 Кбит/сек, 2 канала, 44,1 КГц
Общее
Полное имя : Приключения Шерлока Холмса и доктора Ватсона\4. Смертельная схватка.avi
Формат : AVI
Формат/Информация : Audio Video Interleave
Размер файла : 679 Мбайт
Продолжительность : 1 ч. 4 м.
Общий поток : 1468 Кбит/сек
Видео
Идентификатор : 0
Формат : MPEG-4 Visual
Профиль формата : Advanced [email protected]
Параметр BVOP формата : 2
Параметр QPel формата : Нет
Параметр GMC формата : Без точки перехода
Параметр матрицы формата : Default (H.263)
Режим смешивания : Сжатый битовый поток
Идентификатор кодека : XVID
Идентификатор кодека/Подсказка : XviD
Продолжительность : 1 ч. 4 м.
Битрейт : 1363 Кбит/сек
Ширина : 720 пикселей
Высота : 576 пикселей
Соотношение сторон : 5:4
Частота кадров : 23,976 кадра/сек
Стандарт вещания : PAL
Цветовое пространство : YUV
Субдискретизация насыщенности : 4:2:0
Битовая глубина : 8 бит
Тип развёртки : Прогрессивная
Метод сжатия : С потерями
Бит/(Пиксели*Кадры) : 0.137
Размер потока : 630 Мбайт (93%)
Библиотека кодирования : XviD 1.1.0 (UTC 2005-11-22)
Аудио
Идентификатор : 1
Формат : MPEG Audio
Версия формата : Version 1
Профиль формата : Layer 3
Идентификатор кодека : 55
Идентификатор кодека/Подсказка : MP3
Продолжительность : 1 ч. 4 м.
Вид битрейта : Постоянный
Битрейт : 96,0 Кбит/сек
Каналы : 2 канала
Частота : 44,1 КГц
Метод сжатия : С потерями
Задержка видео : 26 мс.
Размер потока : 44,4 Мбайт (7%)
Выравнивание : Разделение по промежуткам
Продолжительность промежутка : 42 мс. (1,00 видеокадр)
Заголовок : Audio Stream
Библиотека кодирования : LAME3.92



Охота на тигра
Год выхода: 1980
Жанр: криминал, детектив
Производство: СССР, Ленфильм
Продолжительность: 01:04:33
Перевод: не требуется
Режиссер: Игорь Масленников
Сценарий: Владимир Валуцкий, Артур Конан Дойл
Директор фильма: Григорий Прусовский
Оператор: Анатолий Лапшов, Юрий Векслер
Композитор: Владимир Дашкевич
Художник: Марк Каплан, Нелли Лев, В. Сергеев
Монтаж: Людмила Образумова
В главных ролях: Василий Ливанов, Виталий Соломин, Рина Зеленая, Борислав Брондуков, Игорь Дмитриев, Виктор Евграфов, Александр Захаров, Алексей Кожевников, Борис Клюев, Николай Крюков
Доктор Ватсон рано похоронил своего друга в водах Рейхенбахского водопада. Шерлок Холмс не так прост. Он воскрес из мертвых, чтобы вступить в схватку с последним безжалостным убийцей из шайки гения преступного мира профессора Мориарти…
Качество: DVDRip
Формат: AVI
Видео кодек: XVID
Аудио кодек: МР3
Видео: XviD, 718 Кбит/сек, 720х576, 5:4, 23,976 кадра/сек, 8 бит, 0.072 Бит/Пиксел
Аудио: MPEG Audio Layer 3, 96,0 Кбит/сек, 2 канала, 44,1 КГц
Общее
Полное имя : Приключения Шерлока Холмса и доктора Ватсона\5. Охота на тигра.avi
Формат : AVI
Формат/Информация : Audio Video Interleave
Размер файла : 380 Мбайт
Продолжительность : 1 ч. 4 м.
Общий поток : 823 Кбит/сек
Видео
Идентификатор : 0
Формат : MPEG-4 Visual
Профиль формата : Advanced [email protected]
Параметр BVOP формата : 2
Параметр QPel формата : Нет
Параметр GMC формата : Без точки перехода
Параметр матрицы формата : Default (H.263)
Режим смешивания : Сжатый битовый поток
Идентификатор кодека : XVID
Идентификатор кодека/Подсказка : XviD
Продолжительность : 1 ч. 4 м.
Битрейт : 718 Кбит/сек
Ширина : 720 пикселей
Высота : 576 пикселей
Соотношение сторон : 5:4
Частота кадров : 23,976 кадра/сек
Стандарт вещания : PAL
Цветовое пространство : YUV
Субдискретизация насыщенности : 4:2:0
Битовая глубина : 8 бит
Тип развёртки : Прогрессивная
Метод сжатия : С потерями
Бит/(Пиксели*Кадры) : 0.072
Размер потока : 331 Мбайт (87%)
Библиотека кодирования : XviD 1.1.0 (UTC 2005-11-22)
Аудио
Идентификатор : 1
Формат : MPEG Audio
Версия формата : Version 1
Профиль формата : Layer 3
Идентификатор кодека : 55
Идентификатор кодека/Подсказка : MP3
Продолжительность : 1 ч. 4 м.
Вид битрейта : Постоянный
Битрейт : 96,0 Кбит/сек
Каналы : 2 канала
Частота : 44,1 КГц
Метод сжатия : С потерями
Задержка видео : 26 мс.
Размер потока : 44,3 Мбайт (12%)
Выравнивание : Разделение по промежуткам
Продолжительность промежутка : 42 мс. (1,00 видеокадр)
Заголовок : Audio Stream
Библиотека кодирования : LAME3.92




Собака Баскервилей
Год выхода: 1981
Жанр: криминал, детектив
Производство: СССР, Ленфильм
Продолжительность: 01:13:58 + 01:12:31
Перевод: не требуется
Мировая премьера: 25 июля 1981
Релиз на DVD: 1 апреля 2011, «Парадиз Видео»
Режиссер: Игорь Масленников
Сценарий: Игорь Масленников, Артур Конан Дойл
Директор фильма: Григорий Прусовский
Оператор: Дмитрий Долинин, Владимир Ильин
Композитр: Владимир Дашкевич
Художник: Берта Маневич, Нелли Лев, Р. Штиль
Монтаж: Людмила Образумова
В главных ролях: Василий Ливанов, Виталий Соломин, Рина Зеленая, Ирина Купченко, Никита Михалков, Алла Демидова, Светлана Крючкова, Александр Адабашьян, Борислав Брондуков, Евгений Стеблов
Труп Чарльза Баскервиля обнаруживают неподалеку от его родового поместья. Выражение нечеловеческого ужаса на лице покойника и следы крупной собаки поблизости заставляют вспомнить старинную легенду о проклятии, тяготеющем над родом Баскервилей. Шерлоку Холмсу предстоит докопаться до истины…
Качество: DVDRip
Формат: AVI
Видео кодек: XVID
Аудио кодек: МР3
Видео: DivX, ~1200 Кбит/сек, 512х384, 4:3, 25,000 кадров/сек, 8 бит, ~0.240 Бит/Пиксел
Аудио: MPEG Audio Layer 3, 128 Кбит/сек, 2 канала, 44,1 КГц
Общее
Полное имя : Приключения Шерлока Холмса и доктора Ватсона\6. Собака Баскервилей (1.серия).avi
Формат : AVI
Формат/Информация : Audio Video Interleave
Размер файла : 695 Мбайт
Продолжительность : 1 ч. 13 м.
Общий поток : 1313 Кбит/сек
Библиотека кодирования : VirtualDub build 13130/release
Видео
Идентификатор : 0
Формат : MPEG-4 Visual
Параметр BVOP формата : Да
Параметр QPel формата : Нет
Параметр GMC формата : Без точки перехода
Параметр матрицы формата : Default (H.263)
Идентификатор кодека : DIVX
Идентификатор кодека/Информация : Project Mayo
Идентификатор кодека/Подсказка : DivX 4
Продолжительность : 1 ч. 13 м.
Битрейт : 1175 Кбит/сек
Ширина : 512 пикселей
Высота : 384 пикселя
Соотношение сторон : 4:3
Частота кадров : 25,000 кадров/сек
Цветовое пространство : YUV
Субдискретизация насыщенности : 4:2:0
Битовая глубина : 8 бит
Тип развёртки : Прогрессивная
Метод сжатия : С потерями
Бит/(Пиксели*Кадры) : 0.239
Размер потока : 622 Мбайт (90%)
Аудио
Идентификатор : 1
Формат : MPEG Audio
Версия формата : Version 1
Профиль формата : Layer 3
Идентификатор кодека : 55
Идентификатор кодека/Подсказка : MP3
Продолжительность : 1 ч. 13 м.
Вид битрейта : Постоянный
Битрейт : 128 Кбит/сек
Каналы : 2 канала
Частота : 44,1 КГц
Метод сжатия : С потерями
Размер потока : 67,6 Мбайт (10%)
Выравнивание : Разделение по промежуткам
Продолжительность промежутка : 40 мс. (1,00 видеокадр)
Время предзагрузки промежутка : 467 мс.
Общее
Полное имя : Приключения Шерлока Холмса и доктора Ватсона\6. Собака Баскервилей (2.серия).avi
Формат : AVI
Формат/Информация : Audio Video Interleave
Размер файла : 694 Мбайт
Продолжительность : 1 ч. 12 м.
Общий поток : 1338 Кбит/сек
Библиотека кодирования : VirtualDub build 13130/release
Видео
Идентификатор : 0
Формат : MPEG-4 Visual
Параметр BVOP формата : Да
Параметр QPel формата : Нет
Параметр GMC формата : Без точки перехода
Параметр матрицы формата : Default (H.263)
Идентификатор кодека : DIVX
Идентификатор кодека/Информация : Project Mayo
Идентификатор кодека/Подсказка : DivX 4
Продолжительность : 1 ч. 12 м.
Битрейт : 1201 Кбит/сек
Ширина : 512 пикселей
Высота : 384 пикселя
Соотношение сторон : 4:3
Частота кадров : 25,000 кадров/сек
Цветовое пространство : YUV
Субдискретизация насыщенности : 4:2:0
Битовая глубина : 8 бит
Тип развёртки : Прогрессивная
Метод сжатия : С потерями
Бит/(Пиксели*Кадры) : 0.244
Размер потока : 623 Мбайт (90%)
Аудио
Идентификатор : 1
Формат : MPEG Audio
Версия формата : Version 1
Профиль формата : Layer 3
Идентификатор кодека : 55
Идентификатор кодека/Подсказка : MP3
Продолжительность : 1 ч. 12 м.
Вид битрейта : Постоянный
Битрейт : 128 Кбит/сек
Каналы : 2 канала
Частота : 44,1 КГц
Метод сжатия : С потерями
Размер потока : 66,2 Мбайт (10%)
Выравнивание : Разделение по промежуткам
Продолжительность промежутка : 40 мс. (1,00 видеокадр)
Время предзагрузки промежутка : 467 мс.







Сокровища Агры
Год выхода: 1983
Жанр: криминал, детектив
Производство: СССР, Ленфильм
Продолжительность: 01:11:59 + 01:12:47
Перевод: не требуется
Мировая премьера: 25 июня 1983
Релиз на DVD: 1 апреля 2011, «Парадиз Видео»
Режиссер: Игорь Масленников
Сценарий: Игорь Масленников, Артур Конан Дойл
Директор фильма: Евгения Дихнова
Оператор: Юрий Векслер
Композитор: Владимир Дашкевич
Художник: Берта Маневич, Нелли Лев
Монтаж: Людмила Образумова
В главных ролях: Василий Ливанов, Виталий Соломин, Рина Зеленая, Борислав Брондуков, Екатерина Зинченко, Виктор Проскурин, Сергей Шакуров, Павел Кадочников, Валентина Кособуцкая, Нина Юрасова
Двухсерийный художественный фильм снят по мотивам рассказов Артура Конан-Дойля «Знак Четырех» и «Скандал в Богемии». Здесь есть все — таинственные обстоятельства убийства, сверкающие драгоценности, колоритнейшие фигуры.
Но главное — в ходе расследования доктор Ватсон встречает женщину, с которой, быть может, надолго свяжет свою жизнь…
Качество: DVDRip
Формат: AVI
Видео кодек: XVID
Аудио кодек: МР3
Видео: XviD, ~1210 Кбит/сек, 640х480, 4:3, 25,000 кадров/сек, 8 бит, ~0.158 Бит/Пиксел
Аудио: MPEG Audio Layer 3, 128 Кбит/сек, 2 канала, 48,0 КГц
Общее
Полное имя : Приключения Шерлока Холмса и доктора Ватсона\7. Сокровища Агры (1 серия).avi
Формат : AVI
Формат/Информация : Audio Video Interleave
Размер файла : 698 Мбайт
Продолжительность : 1 ч. 11 м.
Общий поток : 1355 Кбит/сек
Программа кодирования : VirtualDubMod 1.5.10.1 (build 2439/release)
Библиотека кодирования : VirtualDubMod build 2439/release
Видео
Идентификатор : 0
Формат : MPEG-4 Visual
Профиль формата : [email protected]
Параметр BVOP формата : 1
Параметр QPel формата : Нет
Параметр GMC формата : Без точки перехода
Параметр матрицы формата : Default (MPEG)
Идентификатор кодека : XVID
Идентификатор кодека/Подсказка : XviD
Продолжительность : 1 ч. 11 м.
Битрейт : 1217 Кбит/сек
Ширина : 640 пикселей
Высота : 480 пикселей
Соотношение сторон : 4:3
Частота кадров : 25,000 кадров/сек
Цветовое пространство : YUV
Субдискретизация насыщенности : 4:2:0
Битовая глубина : 8 бит
Тип развёртки : Прогрессивная
Метод сжатия : С потерями
Бит/(Пиксели*Кадры) : 0.158
Размер потока : 627 Мбайт (90%)
Библиотека кодирования : XviD 1.0.2 (UTC 2004-08-29)
Аудио
Идентификатор : 1
Формат : MPEG Audio
Версия формата : Version 1
Профиль формата : Layer 3
Режим : Joint stereo
Расширение режима : MS Stereo
Идентификатор кодека : 55
Идентификатор кодека/Подсказка : MP3
Продолжительность : 1 ч. 11 м.
Вид битрейта : Постоянный
Битрейт : 128 Кбит/сек
Каналы : 2 канала
Частота : 48,0 КГц
Метод сжатия : С потерями
Размер потока : 65,9 Мбайт (9%)
Выравнивание : Соединение по промежуткам
Продолжительность промежутка : 40 мс. (1,00 видеокадр)
Время предзагрузки промежутка : 504 мс.
Общее
Полное имя : Приключения Шерлока Холмса и доктора Ватсона\7. Сокровища Агры (2 серия).avi
Формат : AVI
Формат/Информация : Audio Video Interleave
Размер файла : 698 Мбайт
Продолжительность : 1 ч. 12 м.
Общий поток : 1340 Кбит/сек
Программа кодирования : VirtualDubMod 1.5.10.1 (build 2439/release)
Библиотека кодирования : VirtualDubMod build 2439/release
Видео
Идентификатор : 0
Формат : MPEG-4 Visual
Профиль формата : [email protected]
Параметр BVOP формата : 1
Параметр QPel формата : Нет
Параметр GMC формата : Без точки перехода
Параметр матрицы формата : Default (MPEG)
Идентификатор кодека : XVID
Идентификатор кодека/Подсказка : XviD
Продолжительность : 1 ч. 12 м.
Битрейт : 1202 Кбит/сек
Ширина : 640 пикселей
Высота : 480 пикселей
Соотношение сторон : 4:3
Частота кадров : 25,000 кадров/сек
Цветовое пространство : YUV
Субдискретизация насыщенности : 4:2:0
Битовая глубина : 8 бит
Тип развёртки : Прогрессивная
Метод сжатия : С потерями
Бит/(Пиксели*Кадры) : 0.157
Размер потока : 626 Мбайт (90%)
Библиотека кодирования : XviD 1.0.2 (UTC 2004-08-29)
Аудио
Идентификатор : 1
Формат : MPEG Audio
Версия формата : Version 1
Профиль формата : Layer 3
Режим : Joint stereo
Расширение режима : MS Stereo
Идентификатор кодека : 55
Идентификатор кодека/Подсказка : MP3
Продолжительность : 1 ч. 12 м.
Вид битрейта : Постоянный
Битрейт : 128 Кбит/сек
Каналы : 2 канала
Частота : 48,0 КГц
Метод сжатия : С потерями
Размер потока : 66,6 Мбайт (10%)
Выравнивание : Соединение по промежуткам
Продолжительность промежутка : 40 мс. (1,00 видеокадр)
Время предзагрузки промежутка : 504 мс.







Двадцатый век начинается
Год выхода: 1986
Жанр: криминал, детектив
Производство: СССР, Ленфильм
Продолжительность: 01:17:19 + 01:11:30
Перевод: не требуется
Мировая премьера: 1 апреля 1987
Релиз на DVD: 1 апреля 2011, «Парадиз Видео»
Режиссер: Игорь Масленников
Сценарий: Игорь Масленников, Артур Конан Дойл
Директор фильма: Игорь Визгин
Оператор: Юрий Векслер
Композитор: Владимир Дашкевич
Художник: Исаак Каплан, Нелли Лев, Аркадий Тигай
Монтаж: Людмила Образумова
В главных ролях: Василий Ливанов, Виталий Соломин, Борислав Брондуков, Иннокентий Смоктуновский, Рина Зеленая, Борис Клюев, Лариса Гузеева, Виктор Корецкий, Аркадий Коваль, Леонид Куравлёв
Заключительный фильм телесериала «Приключения Шерлока Холмса и доктора Ватсона». В основе его — поздние и малоизвестные рассказы Артура Конан Дойля, объединенные темой приближающейся мировой войны и борьбы легендарного детектива с иностранными шпионами.
Качество: DVDRip
Формат: AVI
Видео кодек: XVID
Аудио кодек: МР3
Видео: XviD, ~1125 Кбит/сек, 640х480, 4:3, 25,000 кадров/сек, 8 бит,: ~0.150 Бит/Пиксел
Аудио: MPEG Audio Layer 3, 128 Кбит/сек, 2 канала, 48,0 КГц
Общее
Полное имя : Приключения Шерлока Холмса и доктора Ватсона\8. Двадцатый век начинается (1 серия).avi
Формат : AVI
Формат/Информация : Audio Video Interleave
Размер файла : 697 Мбайт
Продолжительность : 1 ч. 17 м.
Общий поток : 1261 Кбит/сек
Программа кодирования : VirtualDubMod 1.5.10.1 (build 2439/release)
Библиотека кодирования : VirtualDubMod build 2439/release
Видео
Идентификатор : 0
Формат : MPEG-4 Visual
Профиль формата : [email protected]
Параметр BVOP формата : 1
Параметр QPel формата : Нет
Параметр GMC формата : Без точки перехода
Параметр матрицы формата : Default (MPEG)
Идентификатор кодека : XVID
Идентификатор кодека/Подсказка : XviD
Продолжительность : 1 ч. 17 м.
Битрейт : 1123 Кбит/сек
Ширина : 640 пикселей
Высота : 480 пикселей
Соотношение сторон : 4:3
Частота кадров : 25,000 кадров/сек
Цветовое пространство : YUV
Субдискретизация насыщенности : 4:2:0
Битовая глубина : 8 бит
Тип развёртки : Прогрессивная
Метод сжатия : С потерями
Бит/(Пиксели*Кадры) : 0.146
Размер потока : 621 Мбайт (89%)
Библиотека кодирования : XviD 1.0.2 (UTC 2004-08-29)
Аудио
Идентификатор : 1
Формат : MPEG Audio
Версия формата : Version 1
Профиль формата : Layer 3
Режим : Joint stereo
Расширение режима : MS Stereo
Идентификатор кодека : 55
Идентификатор кодека/Подсказка : MP3
Продолжительность : 1 ч. 17 м.
Вид битрейта : Постоянный
Битрейт : 128 Кбит/сек
Каналы : 2 канала
Частота : 48,0 КГц
Метод сжатия : С потерями
Размер потока : 70,8 Мбайт (10%)
Выравнивание : Соединение по промежуткам
Продолжительность промежутка : 40 мс. (1,00 видеокадр)
Время предзагрузки промежутка : 504 мс.
Общее
Полное имя : Приключения Шерлока Холмса и доктора Ватсона\8. Двадцатый век начинается (2 серия).avi
Формат : AVI
Формат/Информация : Audio Video Interleave
Размер файла : 697 Мбайт
Продолжительность : 1 ч. 11 м.
Общий поток : 1364 Кбит/сек
Программа кодирования : VirtualDubMod 1.5.10.1 (build 2439/release)
Библиотека кодирования : VirtualDubMod build 2439/release
Видео
Идентификатор : 0
Формат : MPEG-4 Visual
Профиль формата : [email protected]
Параметр BVOP формата : 1
Параметр QPel формата : Нет
Параметр GMC формата : Без точки перехода
Параметр матрицы формата : Default (MPEG)
Идентификатор кодека : XVID
Идентификатор кодека/Подсказка : XviD
Продолжительность : 1 ч. 11 м.
Битрейт : 1226 Кбит/сек
Ширина : 640 пикселей
Высота : 480 пикселей
Соотношение сторон : 4:3
Частота кадров : 25,000 кадров/сек
Цветовое пространство : YUV
Субдискретизация насыщенности : 4:2:0
Битовая глубина : 8 бит
Тип развёртки : Прогрессивная
Метод сжатия : С потерями
Бит/(Пиксели*Кадры) : 0.160
Размер потока : 627 Мбайт (90%)
Библиотека кодирования : XviD 1.0.2 (UTC 2004-08-29)
Аудио
Идентификатор : 1
Формат : MPEG Audio
Версия формата : Version 1
Профиль формата : Layer 3
Режим : Joint stereo
Расширение режима : MS Stereo
Идентификатор кодека : 55
Идентификатор кодека/Подсказка : MP3
Продолжительность : 1 ч. 11 м.
Вид битрейта : Постоянный
Битрейт : 128 Кбит/сек
Каналы : 2 канала
Частота : 48,0 КГц
Метод сжатия : С потерями
Размер потока : 65,5 Мбайт (9%)
Выравнивание : Соединение по промежуткам
Продолжительность промежутка : 40 мс. (1,00 видеокадр)
Время предзагрузки промежутка : 504 мс.







* 8 фильмов ( 5 фильмов + 3 фильма по 2 серии )
Download / Скачать

Хотите скачать бесплатно? Зарегистрируйтесь на сайте (ссылка на регистрацию). Pirat.ca - самый быстрый торрент трекер в рунете!

Как скачивать  ·   Что такое торрент  ·   Рейтинг и ограничения



Последний раз редактировалось: Андря (2014-10-30 02:03), всего редактировалось 4 раз(а)

Пост 05-Апр-2012 19:18 (спустя 23 часа)

Топик был перенесен из форума Наше Кино в форум Советское кино

Linnan
 

Webclient

Штурман

Пост 07-Апр-2012 21:50 (спустя 3 дня)

[Q] 

Скачал первые 2 серии. Качество картинки не очень. Картинка при этом вытянутая, но это возможно моя вина.
Дальше качать не буду.
[Профиль]  [ЛС] 

сергей65

Штурман

Пост 28-Апр-2012 18:22 (спустя 20 дней)

[Q] 

благодарю
[Профиль]  [ЛС] 

derecter

Корсар

4

Пост 04-Июл-2012 11:34 (спустя 2 месяца 5 дней)

[Q] 


_________________
Пошли удачу нам в бою, 'Весёлый Роджер'!
[Профиль]  [ЛС] 

miner804

Морской Волк

Пост 14-Июл-2012 20:04 (спустя 10 дней)

[Q] 

Супер!!!
[Профиль]  [ЛС] 

SCORPION.

Морской Волк

Пост 31-Дек-2012 12:58 (спустя 5 месяцев 16 дней)

[Q] 

[Профиль]  [ЛС] 

agheron

Морской Волк

Пост 05-Янв-2013 02:14 (спустя 4 дня)

[Q] 

[Профиль]  [ЛС] 

Bile

4188

Пост 10-Янв-2013 17:10 (спустя 5 дней)

[Q] 

[Профиль]  [ЛС] 

egismac

Гроза морей

Пост 18-Янв-2013 02:06 (спустя 7 дней)

[Q] 

Спасибо, будем смотреть.
[Профиль]  [ЛС] 

Lex_94

Штурман

Пост 20-Янв-2013 00:10 (спустя 1 день 22 часа)

[Q] 

Отдельное спасибо за скорость))
[Профиль]  [ЛС] 

oleg55555

Штурман

Пост 26-Мар-2013 09:42 (спустя 2 месяца 6 дней)

[Q] 

Шедевр, есть шедевр.
[Профиль]  [ЛС] 

tommek

Морской Волк

231

Пост 25-Авг-2013 21:43 (спустя 4 месяца 30 дней)

[Q] 

раритет...

_________________
[Профиль]  [ЛС] 

СерКат

Корсар

Пост 27-Янв-2014 16:42 (спустя 5 месяцев 1 день)

[Q] 

да ,это хороший фильм,жалко не реставрирован,в некоторых местах невидно,что происходит,смотрел реставрированный совсем другое дело
[Профиль]  [ЛС] 

beetle

Морской Волк

Пост 09-Фев-2014 18:45 (спустя 13 дней)

[Q] 

Супер!
[Профиль]  [ЛС] 

UncleFather

Легенда

Пост 10-Май-2014 06:42 (спустя 3 месяца)

[Q] 

Отличная коллекция. Отличные фильмы. Отличные актеры. Спасибо!

_________________
Одни боялись Пью, другие - Билли Бонса, а меня... меня боялся сам Флинт
[Профиль]  [ЛС] 

krem123

Морской Волк

Пост 15-Май-2014 16:34 (спустя 5 дней)

[Q] 

С Детства Обожаю Нашего холмса)
[Профиль]  [ЛС] 

Police_3000

Морской Волк

Пост 21-Дек-2014 03:03 (спустя 7 месяцев 5 дней)

[Q] 

Старая, добрая классика!!!
[Профиль]  [ЛС] 

alenfr

Пост 15-Фев-2015 02:29 (спустя 1 месяц 24 дня)

[Q] 

Жаль что они не стали снимать ещё....................
Самый лучший Шерлок Холмс
РОМ В ТРЮМ !!!!!

_________________
Кто может — делает, кто не может — учит.
______________________________________
Держи порох сухим, а шпагу острой.
[Профиль]  [ЛС] 

Vlado

Лоцман

Пост 16-Апр-2015 15:57 (спустя 2 месяца 1 день)

[Q] 

Огромное спасибо за величайшее произведение в трекере. ВСЕМ РОМУ, 3 БОЧКИ
[Профиль]  [ЛС] 

Анна Браун

Морской Волк

Пост 02-Май-2015 12:12 (спустя 15 дней)

[Q] 

Надо посмотреть! Раздающему респект!
[Профиль]  [ЛС] 

lozz

Шкипер

Пост 30-Июл-2015 22:19 (спустя 2 месяца 28 дней)

[Q] 

Автору респект!!! !COOL! ВСЕМ КАЧАТЬ)
[Профиль]  [ЛС] 
Показать сообщения:    
Ответить на тему

Текущее время: Сегодня 06:18

Часовой пояс: GMT + 4



Вы не можете начинать темы
Вы не можете отвечать на сообщения
Вы не можете редактировать свои сообщения
Вы не можете удалять свои сообщения
Вы не можете голосовать в опросах
Вы не можете прикреплять файлы к сообщениям
Вы не можете скачивать файлы

▼ Вниз