ML
     
  Уважаемый Гость!
Вы можете поддержать проект и зарегистрироваться у наших партнеров - онлайн-стратегия MyLands. При регистрации в игре Вы получите код, который сможете активировать после регистрации на pirat.ca и получить 1000 дублонов.

Ваш код:
34514219cfad5497a1822ecc1269bea77988f9aa
 
     

Интердевочка (Петр Тодоровский) [1989 г., мелодрама, DVDRip-AVC]

Ответить на тему
 
Автор
Сообщение

Пост 18-Июн-2012 23:56

[Q] 

megamastor

Интердевочка
Год выпуска: 1989
Российская премьера: 21 января 1989
Производство: Мосфильм
Жанр: мелодрама
Продолжительность: 02:22:50
Режиссер: Петр Тодоровский
В ролях
Елена Яковлева, Томас Лаустиола, Анастасия Немоляева, Ирина Розанова, Валерий Хромушкин, Всеволод Шиловский, Лариса Малеванная, Любовь Полищук, Ингеборга Дапкунайте, Мартыньш Вилсонс, Зиновий Гердт, Мария Виноградова, Сергей Бехтерев
Описание
Шведский клиент валютной проститутки и одновременно медсестры из Ленинграда Тани Зайцевой неожиданно делает ей предложение руки и сердца. После очередной беседы в милиции она с радостной вестью возвращается домой к матери, которая думает, что её дочь всего лишь медсестра. Таня не скрывает, что она выходит замуж не по любви, а потому что хочет иметь квартиру, машину, деньги и мечтает «посмотреть мир своими глазами». В разговоре с матерью она доказывает, что проституция свойственна всем профессиям: «все продают себя». Однако мать и представить себе не может, что Татьяна торгует собой в прямом смысле слова.
Бывший клиент, а теперь жених Тани Эд Ларсен (в книге Эдуард Ларсен) — это пропуск Тани в западный мир грёз. Однако на её пути встает советская бюрократия: для выезда в Швецию Тане необходимы справки. Самой тяжёлой ценой ей достается справка от отца, которого она уже не видела 20 лет. Он требует 3 тысячи рублей — огромные деньги по тем временам. Тане приходится вновь заняться проституцией, чтобы добыть эти деньги.
Швеция очень быстро наскучивает героине. Единственной отдушиной для неё становится русский водитель-дальнобойщик, работающий в «Совтрансавто», через которого она пересылает подарки своей маме в Ленинград. Шведские «друзья» ни на миг не забывают, как зарабатывала Таня в СССР. Она мечтает навестить свою мать. Тем временем подруга-проститутка сообщает Тане по телефону, что в СССР на неё заведено дело по статье «спекуляция» (за незаконные операции с валютой была другая статья, с очень строгими санкциями) за незаконный обмен валюты. Следователи приходят к Таниной маме и открывают тайну высоких заработков её дочери. Морально сломленная мать-учительница пытается покончить с собой, отравившись бытовым газом в своей квартире в Весёлом посёлке, на Дыбенко, 32 (на самом деле этот дом не жилой). Лялька, соседка Тани, чувствует запах газа на площадке, врывается в квартиру, выбивает окно и поднимает тревогу. В этот момент в Швеции Татьяна «шестым чувством» понимает, что случилось что-то страшное. В панике она «прыгает» в машину, едет в аэропорт, попадает в аварию и погибает. Драматизм финального эпизода усиливает русская народная песня «Бродяга» («По диким степям Забайкалья…»), являющаяся лейтмотивом фильма.
КиноПоиск
Источник/Качество: DVDRip-AVC
Формат: MKV
Видео кодек: VC-1
Аудио кодек: AC3
Видео: 720х566 25.000 fps 2450кб/с
Аудио: AС3 5.1ch 48,0 КГц 448 Кбит/сек
1989 — Елена Яковлева лучшая актриса года по версии журнала «Советский экран»
1989 — премия «Ника» лучшей актрисе (Елена Яковлева).
1989 — премия Токийского кинофестиваля лучшей актрисе (Елена Яковлева).
специальный приз жюри фестиваля (Пётр Тодоровский)
Формат : Matroska
Версия формата : Version 2
Размер файла : 2,94 Гбайт
Продолжительность : 2 ч. 22 м.
Общий поток : 2943 Кбит/сек
Дата кодирования : UTC 2010-05-28 20:52:39
Программа кодирования : mkvmerge v3.3.0 ('Language') built on Mar 24 2010 14:59:24
Библиотека кодирования : libebml v0.8.0 + libmatroska v0.9.0
Видео
Идентификатор : 1
Формат : AVC
Формат/Информация : Advanced Video Codec
Профиль формата : [email protected]
Параметр CABAC формата : Да
Параметр ReFrames формата : 8 кадров
Идентификатор кодека : V_MPEG4/ISO/AVC
Продолжительность : 2 ч. 22 м.
Битрейт : 2436 Кбит/сек
Ширина : 720 пикселей
Высота : 556 пикселей
Соотношение сторон : 1,381
Частота кадров : 25,000 кадров/сек
Цветовое пространство : YUV
Субдискретизация насыщенности : 4:2:0
Битовая глубина : 8 бит
Тип развёртки : Прогрессивная
Бит/(Пиксели*Кадры) : 0.243
Размер потока : 2,43 Гбайт (83%)
Библиотека кодирования : x264 core 95 r1592 95aacc4
Настройки программы : cabac=1 / ref=8 / deblock=1:-2:-1 / analyse=0x3:0x133 / me=umh / subme=10 / psy=1 / psy_rd=0.90:0.20 / mixed_ref=1 / me_range=24 / chroma_me=1 / trellis=2 / 8x8dct=1 / cqm=0 / deadzone=21,11 / fast_pskip=1 / chroma_qp_offset=-3 / threads=6 / sliced_threads=0 / nr=0 / decimate=1 / interlaced=0 / constrained_intra=0 / bframes=8 / b_pyramid=2 / b_adapt=2 / b_bias=0 / direct=3 / weightb=1 / weightp=2 / keyint=250 / keyint_min=25 / scenecut=40 / intra_refresh=0 / rc_lookahead=40 / rc=crf / mbtree=1 / crf=19.0 / qcomp=0.70 / qpmin=10 / qpmax=51 / qpstep=4 / ip_ratio=1.40 / aq=2:1.20
Язык : Russian
Default : Нет
Forced : Нет
Аудио
Идентификатор : 2
Формат : AC-3
Формат/Информация : Audio Coding 3
Расширение режима : CM (complete main)
Параметр Endianness формата : Big
Идентификатор кодека : A_AC3
Продолжительность : 2 ч. 22 м.
Вид битрейта : Постоянный
Битрейт : 448 Кбит/сек
Каналы : 6 каналов
Расположение каналов : Front: L C R, Side: L R, LFE
Частота : 48,0 КГц
Битовая глубина : 16 бит
Метод сжатия : С потерями
Задержка видео : 171 мс.
Размер потока : 458 Мбайт (15%)
Заголовок : Оригинал
Язык : Russian
Default : Да
Forced : Нет
Download / Скачать

Хотите скачать бесплатно? Зарегистрируйтесь на сайте (ссылка на регистрацию). Pirat.ca - самый быстрый торрент трекер в рунете!

Как скачивать  ·   Что такое торрент  ·   Рейтинг и ограничения

Пост 19-Июн-2012 00:04 (спустя 8 минут)

Топик был перенесен из форума Наше Кино в форум Советское кино

erchine
 
Показать сообщения:    
Ответить на тему

Текущее время: Сегодня 07:55

Часовой пояс: GMT + 4



Вы не можете начинать темы
Вы не можете отвечать на сообщения
Вы не можете редактировать свои сообщения
Вы не можете удалять свои сообщения
Вы не можете голосовать в опросах
Вы не можете прикреплять файлы к сообщениям
Вы не можете скачивать файлы

▼ Вниз