ML
     
  Уважаемый Гость!
Вы можете поддержать проект и зарегистрироваться у наших партнеров - онлайн-стратегия MyLands. При регистрации в игре Вы получите код, который сможете активировать после регистрации на pirat.ca и получить 1000 дублонов.

Ваш код:
193c38d0130f05c24de871678ea3ac181461757d
 
     

Хозяин тайги (Владимир Назаров) [1968 г., детектив, DVDRip]

Ответить на тему
 
Автор
Сообщение

Пост 20-Июн-2012 11:41

[Q] 

megamastor

Хозяин тайги
Год выпуска: 1968
Российская премьера: 8 июля 1969
Производство: Мосфильм
Жанр: детектив
Продолжительность: 01:18:19
Режиссер: Владимир Назаров
В ролях
Валерий Золотухин, Владимир Высоцкий, Лионелла Пырьева, Михаил Кокшенов, Дмитрий Масанов, Леонид Кмит, Эдуард Бредун, Иван Косых, Павел Шпрингфельд, Владимир Липпарт
Описание
Участковый уполномоченный старшина милиции Сережкин еще молод, но уже достаточно хорошо разбирается в людях и обладает природной смекалкой. Беспокойна его служба - охрана общественного порядка и соблюдение социалистической законности на огромном участке сибирской тайги. В таежном поселке, на лесосплаве, где каждый на виду, происходит почти невероятное - ограблен местный магазин. Сережкин, несмотря на глухую ночь и проливной дождь, отправляется на место происшествия. В краже подозревается сплавщик Ипатов, но молодому участковому не дают покоя кое-какие "нестыковки". И в конце концов он выходит на след подлинных участников преступления...
КиноПоиск
Источник/Качество: DVDRip
Формат: AVI
Видео кодек: DivX
Аудио кодек: AC3
Видео: 720x320 (2.25:1), 25 fps, DivX Codec 5.2.1, 2300 kbps avg, 0.40 bit/pixel
Аудио: 48 kHz, AC3 Dolby Digital, 2/0 (L,R) ch, 192.00 kbps avg
Формат : AVI
Формат/Информация : Audio Video Interleave
Размер файла : 1,37 Гбайт
Продолжительность : 1 ч. 18 м.
Общий поток : 2499 Кбит/сек
Программа кодирования : VirtualDubMod 1.5.4.1 (build 2178/release)
Библиотека кодирования : VirtualDubMod build 2178/release
Видео
Идентификатор : 0
Формат : MPEG-4 Visual
Параметр BVOP формата : Нет
Параметр QPel формата : Нет
Параметр GMC формата : Без точки перехода
Параметр матрицы формата : Default (H.263)
Идентификатор кодека : DX50
Идентификатор кодека/Подсказка : DivX 5
Продолжительность : 1 ч. 18 м.
Битрейт : 2300 Кбит/сек
Ширина : 720 пикселей
Высота : 320 пикселей
Соотношение сторон : 2,25:1
Частота кадров : 25,000 кадров/сек
Цветовое пространство : YUV
Субдискретизация насыщенности : 4:2:0
Битовая глубина : 8 бит
Тип развёртки : Прогрессивная
Метод сжатия : С потерями
Бит/(Пиксели*Кадры) : 0.399
Размер потока : 1,26 Гбайт (92%)
Библиотека кодирования : DivX 5.2.1 (WaffleDay) (UTC 2004-09-08)
Аудио
Идентификатор : 1
Формат : AC-3
Формат/Информация : Audio Coding 3
Расширение режима : CM (complete main)
Параметр Endianness формата : Big
Идентификатор кодека : 2000
Продолжительность : 1 ч. 18 м.
Вид битрейта : Постоянный
Битрейт : 192 Кбит/сек
Каналы : 2 канала
Расположение каналов : Front: L R
Частота : 48,0 КГц
Битовая глубина : 16 бит
Метод сжатия : С потерями
Задержка видео : 484 мс.
Размер потока : 108 Мбайт (8%)
Выравнивание : Разделение по промежуткам
Продолжительность промежутка : 96 мс. (2,40 видеокадра)
Время предзагрузки промежутка : 96 мс.
Натурные съемки фильма происходили в селе Выезжий Лог, Манского района, Красноярского края и на реке Мана.
В 1970 г. фильм занял 20-е место в прокате, собрав 26,8 млн зрителей.
Владимир Высоцкий в шутку вспоминал на своих выступлениях: «Потом сняли фильм „Пропажа свидетеля“, где тоже играл Золотухин, а меня не снимали, потому что в первой серии посадили, а ко второй не выпустили».
Во время съемок Золотухин, по его собственным словам, «приторговывал» Высоцким, разрешая местным жителям за молоко и самогон посмотреть на актера.
Download / Скачать

Хотите скачать бесплатно? Зарегистрируйтесь на сайте (ссылка на регистрацию). Pirat.ca - самый быстрый торрент трекер в рунете!

Как скачивать  ·   Что такое торрент  ·   Рейтинг и ограничения

Пост 20-Июн-2012 12:06 (спустя 24 минуты)

Топик был перенесен из форума Наше Кино в форум Советское кино

erchine
 

jumpersky

Легенда

Пост 20-Июн-2012 13:58 (спустя 2 часа 17 минут)

[Q] 

[Профиль]  [ЛС] 

megamastor ®

2827

Пост 06-Апр-2013 20:32 (спустя 9 месяцев 16 дней)

[Q] 

Всегда Пожалуйста!
[Профиль]  [ЛС] 
Показать сообщения:    
Ответить на тему

Текущее время: Сегодня 18:06

Часовой пояс: GMT + 4



Вы не можете начинать темы
Вы не можете отвечать на сообщения
Вы не можете редактировать свои сообщения
Вы не можете удалять свои сообщения
Вы не можете голосовать в опросах
Вы не можете прикреплять файлы к сообщениям
Вы не можете скачивать файлы

▼ Вниз