ML
     
  Уважаемый Гость!
Вы можете поддержать проект и зарегистрироваться у наших партнеров - онлайн-стратегия MyLands. При регистрации в игре Вы получите код, который сможете активировать после регистрации на pirat.ca и получить 1000 дублонов.

Ваш код:
a01a592a88af5f9996a6d1baec61b18a1769954d
 
     

Приходи на меня посмотреть (Михаил Агранович, Олег Янковский) [2000 г., мелодрама, DVDRip]

Ответить на тему
 
Автор
Сообщение

Пост 05-Июл-2012 21:57

[Q] 

avzaytsev

Морской Волк

Приходи на меня посмотреть
Производство: Россия
Режиссер: Михаил Агранович, Олег Янковский
Жанр: мелодрама
Год выпуска: 2000 г.
Продолжительность: 01:41:56
Российская премьера: 13 января 2001
Cубтитры: отсутствуют
В ролях: Ирина Купченко, Иван Янковский, Наталья Щукина, Марк Рудинштейн, Екатерина Васильева, Олег Янковский
Описание: Однажды в канун Нового года в жизни двух одиноких женщин, мамы и дочки, произошла сказочная история: на пороге их квартиры появился незнакомец с огромным букетом роз и шампанским. Он, конечно, просто ошибся адресом, но Татьяна, желая порадовать мать, просит его ненадолго задержаться и представляет своим женихом. Софья Ивановна счастлива: после ее смерти дочь не будет одинока, а, между тем, у заблудившегося Игоря есть любимая женщина, и она ждет его. Но, несмотря на это, он отчего-то медлит с уходом…
КиноПоиск: http://www.kinopoisk.ru/level/1/film/40955/
Качество видео: DVDRip
Формат видео: AVI
Видео кодек: DivX
Аудио кодек: MP3
Видео: 720x528 (1.36:1), 25 fps, DivX Codec 5.2.1 alpha ~818 kbps avg, 0.09 bit/pixel
Аудио: 44.100 kHz, MPEG Layer 3, 2 ch, ~128.00 kbps avg
Ника, 2001 год
    Номинации:
  • Лучшая мужская роль (Олег Янковский)
  • Лучшая женская роль (Екатерина Васильева)
Кинотавр, 2001 год
    Победитель:
  • Лучшая мужская роль (Олег Янковский)
    Номинации:
  • Главный приз «Золотая роза»
Общее
Полное имя : Приходи на меня посмотреть....avi
Формат : AVI
Формат/Информация : Audio Video Interleave
Размер файла : 700 Мбайт
Продолжительность : 1 ч. 41 м.
Режим общего битрейта : Переменный
Общий поток : 959 Кбит/сек
Видео
Идентификатор : 0
Формат : MPEG-4 Visual
Параметр BVOP формата : 1
Параметр QPel формата : Нет
Параметр GMC формата : Без точки перехода
Параметр матрицы формата : Default (H.263)
Режим смешивания : Сжатый битовый поток
Идентификатор кодека : DX50
Идентификатор кодека/Подсказка : DivX 5
Продолжительность : 1 ч. 41 м.
Битрейт : 815 Кбит/сек
Ширина : 720 пикселей
Высота : 528 пикселей
Соотношение сторон : 4:3
Частота кадров : 25,000 кадров/сек
Цветовое пространство : YUV
Субдискретизация насыщенности : 4:2:0
Битовая глубина : 8 бит
Тип развёртки : Прогрессивная
Метод сжатия : С потерями
Бит/(Пиксели*Кадры) : 0.086
Размер потока : 594 Мбайт (85%)
Заголовок : Video
Библиотека кодирования : DivX 5.2.1 Alpha (UTC 2004-09-08)
Аудио
Идентификатор : 1
Формат : MPEG Audio
Версия формата : Version 1
Профиль формата : Layer 3
Режим : Joint stereo
Расширение режима : MS Stereo
Идентификатор кодека : 55
Идентификатор кодека/Подсказка : MP3
Продолжительность : 1 ч. 41 м.
Вид битрейта : Переменный
Битрейт : 128 Кбит/сек
Каналы : 2 канала
Частота : 44,1 КГц
Метод сжатия : С потерями
Размер потока : 96,2 Мбайт (14%)
Выравнивание : Соединение по промежуткам
Продолжительность промежутка : 26 мс. (0,65 видеокадр)
Время предзагрузки промежутка : 482 мс.
Заголовок : Audio
Download / Скачать

Хотите скачать бесплатно? Зарегистрируйтесь на сайте (ссылка на регистрацию). Pirat.ca - самый быстрый торрент трекер в рунете!

Как скачивать  ·   Что такое торрент  ·   Рейтинг и ограничения

Пост 05-Июл-2012 22:31 (спустя 34 минуты)

Топик был перенесен из форума Наше Кино в форум Советское кино

genkasper
 
Показать сообщения:    
Ответить на тему

Текущее время: Сегодня 09:47

Часовой пояс: GMT + 4



Вы не можете начинать темы
Вы не можете отвечать на сообщения
Вы не можете редактировать свои сообщения
Вы не можете удалять свои сообщения
Вы не можете голосовать в опросах
Вы не можете прикреплять файлы к сообщениям
Вы не можете скачивать файлы

▼ Вниз