ML
     
  Уважаемый Гость!
Вы можете поддержать проект и зарегистрироваться у наших партнеров - онлайн-стратегия MyLands. При регистрации в игре Вы получите код, который сможете активировать после регистрации на pirat.ca и получить 1000 дублонов.

Ваш код:
47bfc18b89c74e4ae0d974e9b6943639e2bff08e
 
     

Следопыт (Павел Любимов) [1987 г., Приключения, DVDRip]

Ответить на тему
 
Автор
Сообщение

Пост 08-Июл-2012 09:11

[Q] 

megamastor

Следопыт Производство: Киностудия им. М. Горького
Режиссер: Павел Любимов
Жанр: Приключения
Год выпуска: 1987 г.
Продолжительность: 01:26:44
Дата выхода DVD: 10 ноября 2009
В ролях: Юрий Авшаров, Андрис Жагарс, Анастасия Немоляева, Эммануил Виторган, Андрей Миронов, Александр Глазун, Игорь Рогачев, Георгий Юматов, Сергей Ковалев, Татьяна Аугшкап, Евгений Евстигнеев, Кирилл Авениров, Алла Плоткина
Описание: По мотивам романа Фенимора Купера «Следопыт». 1758 год, Северная Америка. Юная Мэйбл Дунган, 16-летняя дочь английского сержанта, приехавшая к отцу в английскую крепость на берегах Онтарио, оказывается втянутой в сложную интригу, затеянную французским лазутчиком Санглие. Кроме того, девушке грозит еще одна опасность – ее собираются похитить индейцы.Но у них на пути встает молодой охотник по прозвищу Следопыт. Он влюблен в Мэйбл и готов защитить ее любой ценой...
КиноПоиск: http://www.kinopoisk.ru/level/1/film/43840/
Качество видео: DVDRip
Формат видео: AVI
Видео кодек: DivX
Аудио кодек: AC3
Видео: DivX 5 720x368 25.00fps 1866Kbps
Аудио: Dolby AC3 48000Hz 6ch 384Kbps
Формат : AVI
Формат/Информация : Audio Video Interleave
Размер файла : 1,37 Гбайт
Продолжительность : 1 ч. 26 м.
Общий поток : 2257 Кбит/сек
Программа кодирования : VirtualDubMod 1.5.4.1 (build 2178/release)
Библиотека кодирования : VirtualDubMod build 2178/release
Видео
Идентификатор : 0
Формат : MPEG-4 Visual
Параметр BVOP формата : 1
Параметр QPel формата : Нет
Параметр GMC формата : Без точки перехода
Параметр матрицы формата : Default (H.263)
Режим смешивания : Сжатый битовый поток
Идентификатор кодека : DX50
Идентификатор кодека/Подсказка : DivX 5
Продолжительность : 1 ч. 26 м.
Битрейт : 1866 Кбит/сек
Ширина : 720 пикселей
Высота : 368 пикселей
Соотношение сторон : 1,957
Частота кадров : 25,000 кадров/сек
Цветовое пространство : YUV
Субдискретизация насыщенности : 4:2:0
Битовая глубина : 8 бит
Тип развёртки : Прогрессивная
Метод сжатия : С потерями
Бит/(Пиксели*Кадры) : 0.282
Размер потока : 1,13 Гбайт (83%)
Библиотека кодирования : DivX 6.8.2 (UTC 2008-05-17)
Аудио
Идентификатор : 1
Формат : AC-3
Формат/Информация : Audio Coding 3
Расширение режима : CM (complete main)
Параметр Endianness формата : Big
Идентификатор кодека : 2000
Продолжительность : 1 ч. 26 м.
Вид битрейта : Постоянный
Битрейт : 384 Кбит/сек
Каналы : 6 каналов
Расположение каналов : Front: L C R, Side: L R, LFE
Частота : 48,0 КГц
Битовая глубина : 16 бит
Метод сжатия : С потерями
Размер потока : 238 Мбайт (17%)
Выравнивание : Разделение по промежуткам
Продолжительность промежутка : 96 мс. (2,40 видеокадра)
Время предзагрузки промежутка : 96 мс.
Язык : Russian
Музыку Юрия Саульского в фильме исполнил Государственный симфонический оркестр кинематографии СССР, дирижировал Сергей Скрипка.
В прологе фильма показываются батальные сцены оловянных солдатиков в мундирах стран участниц Семилетней войны, а также фигурки четырёх монархов: Фридриха II, Людовика XV, Марии Терезии и Георга II. Фигурки российской императрицы Елизаветы нет.
Чингачгук, который представлен в романе «Следопыт» соратником Натаниэля Бампо, в фильме отсутствует. Он заменён на собственного сына, Ункаса.
Любовная история, описанная Фенимором Купером, выглядит несколько иначе: Следопыт безответно влюбился в Мэйбл, а не наоборот, как показано в фильме.
Андрей Миронов не успел завершить работу над ролью Санглие, актёр умер до окончания съёмок. При озвучивании фильма Санглие заговорил голосом Алексея Неклюдова.
Download / Скачать

Хотите скачать бесплатно? Зарегистрируйтесь на сайте (ссылка на регистрацию). Pirat.ca - самый быстрый торрент трекер в рунете!

Как скачивать  ·   Что такое торрент  ·   Рейтинг и ограничения



Последний раз редактировалось: megamastor (2012-07-08 09:27), всего редактировалось 1 раз

Пост 08-Июл-2012 09:32 (спустя 21 минута)

Топик был перенесен из форума Наше Кино в форум Советское кино

erchine
 

nadabibak

Гроза морей

Пост 08-Июл-2012 12:05 (спустя 2 часа 54 минуты)

[Q] 

Это классика, бесподобно. Раздающему респект.
[Профиль]  [ЛС] 
Показать сообщения:    
Ответить на тему

Текущее время: Сегодня 06:59

Часовой пояс: GMT + 4



Вы не можете начинать темы
Вы не можете отвечать на сообщения
Вы не можете редактировать свои сообщения
Вы не можете удалять свои сообщения
Вы не можете голосовать в опросах
Вы не можете прикреплять файлы к сообщениям
Вы не можете скачивать файлы

▼ Вниз