ML
     
  Уважаемый Гость!
Вы можете поддержать проект и зарегистрироваться у наших партнеров - онлайн-стратегия MyLands. При регистрации в игре Вы получите код, который сможете активировать после регистрации на pirat.ca и получить 1000 дублонов.

Ваш код:
ba41f7961e0b4717aed6a401d955262223b8f6c4
 
     

Отель "У погибшего альпиниста" (Григорий Кроманов) [1979 г., Фантастика, детектив, DVDRip] [internal release]

Ответить на тему
 
Автор
Сообщение

Пост 10-Июл-2012 20:30

[Q] 

megamastor

Отель "У погибшего альпиниста" Производство: Таллинфильм
Режиссер: Григорий Кроманов
Жанр: Фантастика, детектив
Год выпуска: 1979 г.
Продолжительность: 01:19:27
Российская премьера: 27 августа 1979
Дата выхода DVD: 24 марта 2009
В ролях: • Улдис Пуцитис — инспектор Глебски
• Юри Ярвет — Алек Сневар, хозяин отеля
• Лембит Петерсон — Симонэ
• Микк Микивер — Хинкус
• Карлис Себрис — господин Мозес
• Ирена Криаузайте — госпожа Мозес
• Сулев Луйк — Луарвик
• Тийт Хярм — Олаф
• Ниоле Ожелите — Брюн
• Карин Райд — Кайса
Описание: Приехав по срочному вызову в отель, инспектор полиции не обнаружил ничего уголовнонаказуемого, но подметил происходящие там странности. Снежная лавина не позволила ему уехать в тот же день, и вскоре инспектор обнаружил тело убитого постояльца. Подозрение падает на всех, кто живет в отеле.-Кинопоиск, Сэмпл-Качество видео: DVDRip
Формат видео: AVI
Видео кодек: XviD
Аудио кодек: AC3
Видео: 720х560, 2006 Кбит/сек, 25 fps
Аудио: 48,0 КГц, 6 каналов, 448 Кбит/сек
Формат : AVI
Формат/Информация : Audio Video Interleave
Размер файла : 1,37 Гбайт
Продолжительность : 1 ч. 19 м.
Общий поток : 2464 Кбит/сек
Программа кодирования : VirtualDubMod 1.5.10.3 | www.virtualdub-fr.org || (build 2550/release)
Библиотека кодирования : VirtualDubMod build 2550/release
Видео
Идентификатор : 0
Формат : MPEG-4 Visual
Профиль формата : Advanced [email protected]
Параметр BVOP формата : 2
Параметр QPel формата : Нет
Параметр GMC формата : Без точки перехода
Параметр матрицы формата : Default (H.263)
Идентификатор кодека : XVID
Идентификатор кодека/Подсказка : XviD
Продолжительность : 1 ч. 19 м.
Битрейт : 2006 Кбит/сек
Ширина : 720 пикселей
Высота : 560 пикселей
Соотношение сторон : 1,286
Частота кадров : 25,000 кадров/сек
Цветовое пространство : YUV
Субдискретизация насыщенности : 4:2:0
Битовая глубина : 8 бит
Тип развёртки : Прогрессивная
Метод сжатия : С потерями
Бит/(Пиксели*Кадры) : 0.199
Размер потока : 1,11 Гбайт (81%)
Библиотека кодирования : XviD 1.2.1 (UTC 2008-12-04)
Аудио
Идентификатор : 1
Формат : AC-3
Формат/Информация : Audio Coding 3
Расширение режима : CM (complete main)
Параметр Endianness формата : Big
Идентификатор кодека : 2000
Продолжительность : 1 ч. 19 м.
Вид битрейта : Постоянный
Битрейт : 448 Кбит/сек
Каналы : 6 каналов
Расположение каналов : Front: L C R, Side: L R, LFE
Частота : 48,0 КГц
Битовая глубина : 16 бит
Метод сжатия : С потерями
Размер потока : 255 Мбайт (18%)
Выравнивание : Разделение по промежуткам
Продолжительность промежутка : 40 мс. (1,00 видеокадр)
Время предзагрузки промежутка : 500 мс.
Download / Скачать

Хотите скачать бесплатно? Зарегистрируйтесь на сайте (ссылка на регистрацию). Pirat.ca - самый быстрый торрент трекер в рунете!

Как скачивать  ·   Что такое торрент  ·   Рейтинг и ограничения

Пост 10-Июл-2012 21:00 (спустя 30 минут)

Топик был перенесен из форума Наше Кино в форум Советское кино

erchine
 

nadabibak

Гроза морей

Пост 11-Июл-2012 00:05 (спустя 3 часа)

[Q] 

Отличный фильм.
[Профиль]  [ЛС] 

Tosya bosya

Лоцман

Пост 11-Июл-2012 01:53 (спустя 1 час 47 минут)

[Q] 

Фильм шикарный
[Профиль]  [ЛС] 

gerasim

Шкипер

Пост 11-Июл-2012 03:01 (спустя 1 час 8 минут)

[Q] 

Достойный фильм.
[Профиль]  [ЛС] 

byzzbyzz

Корсар

Пост 11-Июл-2012 18:47 (спустя 15 часов)

[Q] 

Какой достойный,какой шикарный???? Просто смешно!)
Дешевое латышско-советское дерьмо, с потугами на евро...
И это 79 год, и космическая одиссея и стар варс уже был...
Разве можно эту парашу сравнить со Сталкером, который вышел тоже в 79 а?
Хрень несете,господа!)
[Профиль]  [ЛС] 

megamastor ®

2827

Пост 11-Июл-2012 19:21 (спустя 34 минуты)

[Q] 

byzzbyzz, а кто здесь сравнивал этот фильм со сталкером!?
[Профиль]  [ЛС] 

Menthat

Штурман

Пост 25-Май-2015 19:59 (спустя 2 года 10 месяцев)

[Q] 

195314Какой достойный,какой шикарный???? Просто смешно!)
Дешевое латышско-советское дерьмо, с потугами на евро...
И это 79 год, и космическая одиссея и стар варс уже был...
Разве можно эту парашу сравнить со Сталкером, который вышел тоже в 79 а?
Хрень несете,господа!)
Мдаа...что может творитьсЯ в голове у человека , сравнивающего "Сталкера" с "Стар варс"...И кстати, и "Отель2 и "Сталкер" написали АБ Стругацкие.
[Профиль]  [ЛС] 
Показать сообщения:    
Ответить на тему

Текущее время: Сегодня 14:45

Часовой пояс: GMT + 4



Вы не можете начинать темы
Вы не можете отвечать на сообщения
Вы не можете редактировать свои сообщения
Вы не можете удалять свои сообщения
Вы не можете голосовать в опросах
Вы не можете прикреплять файлы к сообщениям
Вы не можете скачивать файлы

▼ Вниз