ML
     
  Уважаемый Гость!
Вы можете поддержать проект и зарегистрироваться у наших партнеров - онлайн-стратегия MyLands. При регистрации в игре Вы получите код, который сможете активировать после регистрации на pirat.ca и получить 1000 дублонов.

Ваш код:
fcd618d94adc1456bccbde5047c9cd0930e4ae4d
 
     

Будни грузинских дорожников (Весёлые короткометражки студии «Грузия фильм») (Реваза (Резо) Габриадзе) [1974 -1980 г.г., Короткие комедии, VHSRip]

Ответить на тему
 
Автор
Сообщение

Пост 17-Июл-2012 17:42

[Q] 

sandman1973

Гроза морей

-Будни грузинских дорожников (Весёлые короткометражки студии «Грузия фильм»)-- Производство: Грузия-фильм
Режиссер: Реваз (Резо) Габриадзе
Жанр: Короткие комедии
Год выпуска: 1974-1980 гг.
Продолжительность: 02:50:37
В ролях: Кахи Кавсадзе, Баадур Цуладзе, Гиви Берикашвили, Джими Ломидзе, Абессалом Лория, Эроси Манджгаладзе, Адрек Пхаладзе, Лика Кавжарадзе, Картлос Марадишвили-Описание: Короткометражные художественные фильмы Реваза (Резо) Габриадзе о веселых приключениях трех дорожных мастеров. Трудно дополнительно что-то сказать... Кто их видел - сразу вспомнит, а кто был слишком юн, или не родился ищщо, то лучше один раз увидеть. Раньше (тогда!) часто показывали по телевизору смешные и трогательные истории про трёх друзей, работников асфальтовых дорог. Они конечно успевали между делом и белую разметку нарисовать, но ... интересно как раз было - что ещё такого выдумают эти немолодые проказники?!! Какое приключение придумают, чтобы потом из него выпутываться? Смотрели по многу раз и ведь не надоедало!!!
Всегда изумляло их чисто грузинское, почти детское отношение ко многим вещам и неудачам.
Не грустите, камрады, учитесь жить легко! эх, Грузия...-Качество видео: VHSRip
Формат видео: AVI
Видео кодек: DivX
Аудио кодек: MP3
Видео: 512x384 (1.33:1), 29.970 fps, DivX Codec 5.03 ~1200 kbps avg, 0.20 bit/pixel
Аудио: 44.100 kHz, MPEG Layer 3, 2 ch, ~127.70 kbps avg
Cубтитры: отсутствуют
Полное имя : E:\Музыка\Короткометражки!!!Грузия!1974-1980гг\reso.gabriadze.01.pari.avi
Формат : AVI
Формат/Информация : Audio Video Interleave
Размер файла : 346 Мбайт
Продолжительность : 27 м.
Общий поток : 1765 Кбит/сек
Видео
Идентификатор : 0
Формат : MPEG-4 Visual
Параметр BVOP формата : 1
Параметр QPel формата : Нет
Параметр GMC формата : Без точки перехода
Параметр матрицы формата : Default (H.263)
Режим смешивания : Сжатый битовый поток
Идентификатор кодека : DX50
Идентификатор кодека/Подсказка : DivX 5
Продолжительность : 27 м.
Битрейт : 1625 Кбит/сек
Ширина : 512 пикселей
Высота : 384 пикселя
Соотношение сторон : 4:3
Частота кадров : 29,970 кадров/сек
Цветовое пространство : YUV
Субдискретизация насыщенности : 4:2:0
Битовая глубина : 8 бит
Тип развёртки : Прогрессивная
Метод сжатия : С потерями
Бит/(Пиксели*Кадры) : 0.276
Размер потока : 319 Мбайт (92%)
Библиотека кодирования : DivX 5.0.5 Kauehi (UTC 2003-07-02)
Аудио
Идентификатор : 1
Формат : MPEG Audio
Версия формата : Version 1
Профиль формата : Layer 3
Идентификатор кодека : 55
Идентификатор кодека/Подсказка : MP3
Продолжительность : 27 м.
Вид битрейта : Постоянный
Битрейт : 128 Кбит/сек
Каналы : 2 канала
Частота : 44,1 КГц
Метод сжатия : С потерями
Размер потока : 25,1 Мбайт (7%)
Выравнивание : Разделение по промежуткам
Продолжительность промежутка : 33 мс. (1,00 видеокадр)
Время предзагрузки промежутка : 500 мс.
Общее
Полное имя : E:\Музыка\Короткометражки!!!Грузия!1974-1980гг\reso.gabriadze.02.saturday.evening.avi
Формат : AVI
Формат/Информация : Audio Video Interleave
Размер файла : 216 Мбайт
Продолжительность : 22 м.
Общий поток : 1339 Кбит/сек
Программа кодирования : VirtualDubMod 1.4.13
Библиотека кодирования : VirtualDub build 14328/release
Видео
Идентификатор : 0
Формат : MPEG-4 Visual
Параметр BVOP формата : 1
Параметр QPel формата : Нет
Параметр GMC формата : Без точки перехода
Параметр матрицы формата : Default (H.263)
Режим смешивания : Сжатый битовый поток
Идентификатор кодека : DX50
Идентификатор кодека/Подсказка : DivX 5
Продолжительность : 22 м.
Битрейт : 1200 Кбит/сек
Ширина : 512 пикселей
Высота : 384 пикселя
Соотношение сторон : 4:3
Частота кадров : 29,970 кадров/сек
Цветовое пространство : YUV
Субдискретизация насыщенности : 4:2:0
Битовая глубина : 8 бит
Тип развёртки : Прогрессивная
Метод сжатия : С потерями
Бит/(Пиксели*Кадры) : 0.204
Размер потока : 193 Мбайт (90%)
Библиотека кодирования : DivX 5.0.3 (UTC 2003-01-24)
Аудио
Идентификатор : 1
Формат : MPEG Audio
Версия формата : Version 1
Профиль формата : Layer 3
Режим : Joint stereo
Расширение режима : MS Stereo
Идентификатор кодека : 55
Идентификатор кодека/Подсказка : MP3
Продолжительность : 22 м.
Вид битрейта : Постоянный
Битрейт : 128 Кбит/сек
Каналы : 2 канала
Частота : 44,1 КГц
Метод сжатия : С потерями
Размер потока : 20,6 Мбайт (10%)
Выравнивание : Разделение по промежуткам
Продолжительность промежутка : 33 мс. (1,00 видеокадр)
Время предзагрузки промежутка : 466 мс.
Общее
Полное имя : E:\Музыка\Короткометражки!!!Грузия!1974-1980гг\reso.gabriadze.03.thermometer.avi
Формат : AVI
Формат/Информация : Audio Video Interleave
Размер файла : 182 Мбайт
Продолжительность : 18 м.
Общий поток : 1341 Кбит/сек
Программа кодирования : VirtualDubMod 1.4.13
Библиотека кодирования : VirtualDub build 14328/release
Видео
Идентификатор : 0
Формат : MPEG-4 Visual
Параметр BVOP формата : 1
Параметр QPel формата : Нет
Параметр GMC формата : Без точки перехода
Параметр матрицы формата : Default (H.263)
Режим смешивания : Сжатый битовый поток
Идентификатор кодека : DX50
Идентификатор кодека/Подсказка : DivX 5
Продолжительность : 18 м.
Битрейт : 1201 Кбит/сек
Ширина : 512 пикселей
Высота : 384 пикселя
Соотношение сторон : 4:3
Частота кадров : 29,970 кадров/сек
Цветовое пространство : YUV
Субдискретизация насыщенности : 4:2:0
Битовая глубина : 8 бит
Тип развёртки : Прогрессивная
Метод сжатия : С потерями
Бит/(Пиксели*Кадры) : 0.204
Размер потока : 163 Мбайт (90%)
Библиотека кодирования : DivX 5.0.3 (UTC 2003-01-24)
Аудио
Идентификатор : 1
Формат : MPEG Audio
Версия формата : Version 1
Профиль формата : Layer 3
Режим : Joint stereo
Расширение режима : MS Stereo
Идентификатор кодека : 55
Идентификатор кодека/Подсказка : MP3
Продолжительность : 18 м.
Вид битрейта : Постоянный
Битрейт : 128 Кбит/сек
Каналы : 2 канала
Частота : 44,1 КГц
Метод сжатия : С потерями
Размер потока : 17,3 Мбайт (10%)
Выравнивание : Разделение по промежуткам
Продолжительность промежутка : 33 мс. (1,00 видеокадр)
Время предзагрузки промежутка : 467 мс.
Общее
Полное имя : E:\Музыка\Короткометражки!!!Грузия!1974-1980гг\reso.gabriadze.04.three.rubles.avi
Формат : AVI
Формат/Информация : Audio Video Interleave
Размер файла : 196 Мбайт
Продолжительность : 20 м.
Общий поток : 1336 Кбит/сек
Программа кодирования : VirtualDubMod 1.4.13
Библиотека кодирования : VirtualDub build 14328/release
Видео
Идентификатор : 0
Формат : MPEG-4 Visual
Параметр BVOP формата : 1
Параметр QPel формата : Нет
Параметр GMC формата : Без точки перехода
Параметр матрицы формата : Default (H.263)
Режим смешивания : Сжатый битовый поток
Идентификатор кодека : DX50
Идентификатор кодека/Подсказка : DivX 5
Продолжительность : 20 м.
Битрейт : 1196 Кбит/сек
Ширина : 512 пикселей
Высота : 384 пикселя
Соотношение сторон : 4:3
Частота кадров : 29,970 кадров/сек
Цветовое пространство : YUV
Субдискретизация насыщенности : 4:2:0
Битовая глубина : 8 бит
Тип развёртки : Прогрессивная
Метод сжатия : С потерями
Бит/(Пиксели*Кадры) : 0.203
Размер потока : 176 Мбайт (90%)
Библиотека кодирования : DivX 5.0.3 (UTC 2003-01-24)
Аудио
Идентификатор : 1
Формат : MPEG Audio
Версия формата : Version 1
Профиль формата : Layer 3
Режим : Joint stereo
Расширение режима : MS Stereo
Идентификатор кодека : 55
Идентификатор кодека/Подсказка : MP3
Продолжительность : 20 м.
Вид битрейта : Постоянный
Битрейт : 128 Кбит/сек
Каналы : 2 канала
Частота : 44,1 КГц
Метод сжатия : С потерями
Размер потока : 18,7 Мбайт (10%)
Выравнивание : Разделение по промежуткам
Продолжительность промежутка : 33 мс. (1,00 видеокадр)
Время предзагрузки промежутка : 467 мс.
Общее
Полное имя : E:\Музыка\Короткометражки!!!Грузия!1974-1980гг\reso.gabriadze.05.lemon.cake.avi
Формат : AVI
Формат/Информация : Audio Video Interleave
Размер файла : 159 Мбайт
Продолжительность : 16 м.
Общий поток : 1326 Кбит/сек
Программа кодирования : VirtualDubMod 1.4.13
Библиотека кодирования : VirtualDub build 14328/release
Видео
Идентификатор : 0
Формат : MPEG-4 Visual
Параметр BVOP формата : 1
Параметр QPel формата : Нет
Параметр GMC формата : Без точки перехода
Параметр матрицы формата : Default (H.263)
Режим смешивания : Сжатый битовый поток
Идентификатор кодека : DX50
Идентификатор кодека/Подсказка : DivX 5
Продолжительность : 16 м.
Битрейт : 1186 Кбит/сек
Ширина : 512 пикселей
Высота : 384 пикселя
Соотношение сторон : 4:3
Частота кадров : 29,970 кадров/сек
Цветовое пространство : YUV
Субдискретизация насыщенности : 4:2:0
Битовая глубина : 8 бит
Тип развёртки : Прогрессивная
Метод сжатия : С потерями
Бит/(Пиксели*Кадры) : 0.201
Размер потока : 143 Мбайт (89%)
Библиотека кодирования : DivX 5.0.3 (UTC 2003-01-24)
Аудио
Идентификатор : 1
Формат : MPEG Audio
Версия формата : Version 1
Профиль формата : Layer 3
Режим : Joint stereo
Расширение режима : MS Stereo
Идентификатор кодека : 55
Идентификатор кодека/Подсказка : MP3
Продолжительность : 16 м.
Вид битрейта : Постоянный
Битрейт : 128 Кбит/сек
Каналы : 2 канала
Частота : 44,1 КГц
Метод сжатия : С потерями
Размер потока : 15,4 Мбайт (10%)
Выравнивание : Разделение по промежуткам
Продолжительность промежутка : 33 мс. (1,00 видеокадр)
Время предзагрузки промежутка : 467 мс.
Общее
Полное имя : E:\Музыка\Короткометражки!!!Грузия!1974-1980гг\reso.gabriadze.06.mountains.explorers.avi
Формат : AVI
Формат/Информация : Audio Video Interleave
Размер файла : 182 Мбайт
Продолжительность : 19 м.
Общий поток : 1339 Кбит/сек
Программа кодирования : VirtualDubMod 1.4.13
Библиотека кодирования : VirtualDub build 14328/release
Видео
Идентификатор : 0
Формат : MPEG-4 Visual
Параметр BVOP формата : 1
Параметр QPel формата : Нет
Параметр GMC формата : Без точки перехода
Параметр матрицы формата : Default (H.263)
Режим смешивания : Сжатый битовый поток
Идентификатор кодека : DX50
Идентификатор кодека/Подсказка : DivX 5
Продолжительность : 19 м.
Битрейт : 1199 Кбит/сек
Ширина : 512 пикселей
Высота : 384 пикселя
Соотношение сторон : 4:3
Частота кадров : 29,970 кадров/сек
Цветовое пространство : YUV
Субдискретизация насыщенности : 4:2:0
Битовая глубина : 8 бит
Тип развёртки : Прогрессивная
Метод сжатия : С потерями
Бит/(Пиксели*Кадры) : 0.204
Размер потока : 163 Мбайт (90%)
Библиотека кодирования : DivX 5.0.3 (UTC 2003-01-24)
Аудио
Идентификатор : 1
Формат : MPEG Audio
Версия формата : Version 1
Профиль формата : Layer 3
Режим : Joint stereo
Расширение режима : MS Stereo
Идентификатор кодека : 55
Идентификатор кодека/Подсказка : MP3
Продолжительность : 19 м.
Вид битрейта : Постоянный
Битрейт : 128 Кбит/сек
Каналы : 2 канала
Частота : 44,1 КГц
Метод сжатия : С потерями
Размер потока : 17,4 Мбайт (10%)
Выравнивание : Разделение по промежуткам
Продолжительность промежутка : 33 мс. (1,00 видеокадр)
Время предзагрузки промежутка : 467 мс.
Общее
Полное имя : E:\Музыка\Короткометражки!!!Грузия!1974-1980гг\reso.gabriadze.07.butterfly.avi
Формат : AVI
Формат/Информация : Audio Video Interleave
Размер файла : 98,0 Мбайт
Продолжительность : 10 м.
Общий поток : 1339 Кбит/сек
Программа кодирования : VirtualDubMod 1.4.13
Библиотека кодирования : VirtualDub build 14328/release
Видео
Идентификатор : 0
Формат : MPEG-4 Visual
Параметр BVOP формата : 1
Параметр QPel формата : Нет
Параметр GMC формата : Без точки перехода
Параметр матрицы формата : Default (H.263)
Режим смешивания : Сжатый битовый поток
Идентификатор кодека : DX50
Идентификатор кодека/Подсказка : DivX 5
Продолжительность : 10 м.
Битрейт : 1199 Кбит/сек
Ширина : 512 пикселей
Высота : 384 пикселя
Соотношение сторон : 4:3
Частота кадров : 29,970 кадров/сек
Цветовое пространство : YUV
Субдискретизация насыщенности : 4:2:0
Битовая глубина : 8 бит
Тип развёртки : Прогрессивная
Метод сжатия : С потерями
Бит/(Пиксели*Кадры) : 0.204
Размер потока : 87,8 Мбайт (90%)
Библиотека кодирования : DivX 5.0.3 (UTC 2003-01-24)
Аудио
Идентификатор : 1
Формат : MPEG Audio
Версия формата : Version 1
Профиль формата : Layer 3
Режим : Joint stereo
Расширение режима : MS Stereo
Идентификатор кодека : 55
Идентификатор кодека/Подсказка : MP3
Продолжительность : 10 м.
Вид битрейта : Постоянный
Битрейт : 128 Кбит/сек
Каналы : 2 канала
Частота : 44,1 КГц
Метод сжатия : С потерями
Размер потока : 9,35 Мбайт (10%)
Выравнивание : Разделение по промежуткам
Продолжительность промежутка : 33 мс. (1,00 видеокадр)
Время предзагрузки промежутка : 467 мс.
Общее
Полное имя : E:\Музыка\Короткометражки!!!Грузия!1974-1980гг\reso.gabriadze.08.three.fiances.avi
Формат : AVI
Формат/Информация : Audio Video Interleave
Размер файла : 167 Мбайт
Продолжительность : 17 м.
Общий поток : 1336 Кбит/сек
Программа кодирования : VirtualDubMod 1.4.13
Библиотека кодирования : VirtualDub build 14328/release
Видео
Идентификатор : 0
Формат : MPEG-4 Visual
Параметр BVOP формата : 1
Параметр QPel формата : Нет
Параметр GMC формата : Без точки перехода
Параметр матрицы формата : Default (H.263)
Режим смешивания : Сжатый битовый поток
Идентификатор кодека : DX50
Идентификатор кодека/Подсказка : DivX 5
Продолжительность : 17 м.
Битрейт : 1197 Кбит/сек
Ширина : 512 пикселей
Высота : 384 пикселя
Соотношение сторон : 4:3
Частота кадров : 29,970 кадров/сек
Цветовое пространство : YUV
Субдискретизация насыщенности : 4:2:0
Битовая глубина : 8 бит
Тип развёртки : Прогрессивная
Метод сжатия : С потерями
Бит/(Пиксели*Кадры) : 0.203
Размер потока : 150 Мбайт (90%)
Библиотека кодирования : DivX 5.0.3 (UTC 2003-01-24)
Аудио
Идентификатор : 1
Формат : MPEG Audio
Версия формата : Version 1
Профиль формата : Layer 3
Режим : Joint stereo
Расширение режима : MS Stereo
Идентификатор кодека : 55
Идентификатор кодека/Подсказка : MP3
Продолжительность : 17 м.
Вид битрейта : Постоянный
Битрейт : 128 Кбит/сек
Каналы : 2 канала
Частота : 44,1 КГц
Метод сжатия : С потерями
Размер потока : 16,0 Мбайт (10%)
Выравнивание : Разделение по промежуткам
Продолжительность промежутка : 33 мс. (1,00 видеокадр)
Время предзагрузки промежутка : 467 мс.
Общее
Полное имя : E:\Музыка\Короткометражки!!!Грузия!1974-1980гг\reso.gabriadze.09.fortune.avi
Формат : AVI
Формат/Информация : Audio Video Interleave
Размер файла : 169 Мбайт
Продолжительность : 17 м.
Общий поток : 1334 Кбит/сек
Программа кодирования : VirtualDubMod 1.4.13
Библиотека кодирования : VirtualDub build 14328/release
Видео
Идентификатор : 0
Формат : MPEG-4 Visual
Параметр BVOP формата : 1
Параметр QPel формата : Нет
Параметр GMC формата : Без точки перехода
Параметр матрицы формата : Default (H.263)
Режим смешивания : Сжатый битовый поток
Идентификатор кодека : DX50
Идентификатор кодека/Подсказка : DivX 5
Продолжительность : 17 м.
Битрейт : 1195 Кбит/сек
Ширина : 512 пикселей
Высота : 384 пикселя
Соотношение сторон : 4:3
Частота кадров : 29,970 кадров/сек
Цветовое пространство : YUV
Субдискретизация насыщенности : 4:2:0
Битовая глубина : 8 бит
Тип развёртки : Прогрессивная
Метод сжатия : С потерями
Бит/(Пиксели*Кадры) : 0.203
Размер потока : 152 Мбайт (90%)
Библиотека кодирования : DivX 5.0.3 (UTC 2003-01-24)
Аудио
Идентификатор : 1
Формат : MPEG Audio
Версия формата : Version 1
Профиль формата : Layer 3
Режим : Joint stereo
Расширение режима : MS Stereo
Идентификатор кодека : 55
Идентификатор кодека/Подсказка : MP3
Продолжительность : 17 м.
Вид битрейта : Постоянный
Битрейт : 128 Кбит/сек
Каналы : 2 канала
Частота : 44,1 КГц
Метод сжатия : С потерями
Размер потока : 16,2 Мбайт (10%)
Выравнивание : Разделение по промежуткам
Продолжительность промежутка : 33 мс. (1,00 видеокадр)
Время предзагрузки промежутка : 467 мс.
Пари / ნიძლავი (1974)
Сюжет фильма:
Пока Кахи (водитель машины) отдыхал на привале, его коллеги нашли на обочине кусок рельсы метра 2 длиной и поспорили между собой о том, что он сможет ее пронести до города — 7 километров, по жаре, без остановки...
Продолжительность: 00:27:25
Субботний вечер / შაბათ საღამო (1975)
Сюжет фильма:
Друзья слегка поругались. После продолжительной пробежки по горам от разъяренного Кахи, попытались от него удрать на старом «горбатом Запорожце». Да не тут то было. Кахи догнал их, схватил несчастную машину сзади, поднял и держал…
Продолжительность: 00:22:31
Термометр / თერმომეტრი (1976)
Сюжет фильма:
На привале, найдя единственное малюсенькое дерево и спрятавшись под ним, Баадур решил пошутить над друзьями — притворился умирающим…
Продолжительность: 00:18:57
Три рубля / სამი მანეთი (1976)
Сюжет фильма:
Найдя на дороге три рубля, друзья решили податься в город. Приоделись и поехали…
Продолжительность: 00:20:31
Лимонный торт / ლიმონის ტორტი (1977)
Сюжет фильма:
Три известных дорожных мастера купили лимонный торт. Как они берегут его, пока доставляют до места обеда, как ругаются между собой…
Продолжительность: 00:16:48
Покорители гор / მწვერვალის დამპყრობნი (1977)
Сюжет фильма:
«Добровольная» запись в секцию альпинизма вылилась в плановое покорение местных вершин, при полном отсутствии каких-либо навыков ориентирования.
Продолжительность: 00:19:00
Бабочка / პეპელა (1977)
Сюжет фильма:
Новелла о трех веселых дорожных мастерах, помогающих красивой девушке ловить бабочек.
Продолжительность: 00:10:14
Три жениха / სამი სასიძო (1978)
Сюжет фильма:
Решив женится на дочерях пасечника из дальнего поселка, друзья покупают по улью с пчелами и пускаются в путь на электричке…
Продолжительность: 00:17:28
Удача / წარატება (1980)
Сюжет фильма:
Баадур нашел на дороге выигрышный лотерейный билет на автомобиль «Волга». Трепетное отношение к своей собственности очень сильно сказалось на отношении с друзьми…
Продолжительность: 00:17:43
Download / Скачать

Хотите скачать бесплатно? Зарегистрируйтесь на сайте (ссылка на регистрацию). Pirat.ca - самый быстрый торрент трекер в рунете!

Как скачивать  ·   Что такое торрент  ·   Рейтинг и ограничения

Пост 17-Июл-2012 19:32 (спустя 1 час 49 минут)

Топик был перенесен из форума Наше Кино в форум Советское кино

erchine
 

sandman1973 ®

Гроза морей

2129

Пост 18-Июл-2012 23:56 (спустя 1 день 6 часов)

[Q] 

Рекомендую посмотреть Кувшин (Ираклий Квирикадзе) [1970 г., короткометражка, комедия, DVDRip] (пост)


_________________



Последний раз редактировалось: sandman1973 (2013-04-09 11:48), всего редактировалось 1 раз
[Профиль]  [ЛС] 

vit-007

Шкипер

Пост 20-Фев-2013 19:44 (спустя 7 месяцев 1 день)

[Q] 

ag
[Профиль]  [ЛС] 

UncleFather

Легенда

Пост 24-Мар-2013 20:56 (спустя 1 месяц 4 дня)

[Q] 


_________________
Одни боялись Пью, другие - Билли Бонса, а меня... меня боялся сам Флинт
[Профиль]  [ЛС] 

vinylovi4

Гроза морей

Пост 12-Июл-2013 00:35 (спустя 3 месяца 18 дней)

[Q] 

жаль нет в качестве, ну да ладно. спасибо
[Профиль]  [ЛС] 

alexxiss

Лоцман

Пост 03-Авг-2013 16:37 (спустя 22 дня)

[Q] 

Давно хотел глянуть, спасибо за раздачу
[Профиль]  [ЛС] 
Показать сообщения:    
Ответить на тему

Текущее время: Сегодня 12:50

Часовой пояс: GMT + 4



Вы не можете начинать темы
Вы не можете отвечать на сообщения
Вы не можете редактировать свои сообщения
Вы не можете удалять свои сообщения
Вы не можете голосовать в опросах
Вы не можете прикреплять файлы к сообщениям
Вы не можете скачивать файлы

▼ Вниз