ML
     
  Уважаемый Гость!
Вы можете поддержать проект и зарегистрироваться у наших партнеров - онлайн-стратегия MyLands. При регистрации в игре Вы получите код, который сможете активировать после регистрации на pirat.ca и получить 1000 дублонов.

Ваш код:
34514219cfad5497a1822ecc1269bea77988f9aa
 
     

Семь маленьких рассказов о первой любви (Георгий Матарадзе) [1981 г., комедия, SATRip, PAL]

Ответить на тему
 
Автор
Сообщение

Пост 18-Июл-2012 02:46

[Q] 

sandman1973

Гроза морей

-Семь маленьких рассказов о первой любви-- Производство: СССР
Режиссер: Георгий Матарадзе
Жанр: комедия
Год выпуска: 1981 г.
Продолжительность: 01:05:00
Российская премьера: 1 января 1981
В ролях: Бердиа Капянидзе, Дато КУблашвили, Джио Лозелиани, Алеко Гукарев, Каха Паресишвили, Гия Баларджишвили, Каха Гургенидзе, Мишико Лобджанадзе, Бесик Бачиашвили, Иа Вахтангишвили-Описание: Семь лирических новелл о первой любви, о возникновении первого наивного и чистого чувства. Герои фильма — подростки, жители провинциального грузинского городка. Это юные рыцари и их прекрасные дамы, умеющие дружить и любить...-
Качество видео: SATRip
Формат видео: AVI
Видео кодек: Windows Media
Аудио кодек: Windows Media
Видео: 720х576, 571 kbps, 25,000 fps
Формат DVD: PAL
Аудио: 20 kbps, 44 kHz, mono
Cубтитры: отсутствуют
Полное имя : E:\Загрузки\sem.malenkih.rasskazov.o.pervoj.ljubvi.avi
Формат : Windows Media
Размер файла : 275 Мбайт
Продолжительность : 1 ч. 3 м.
Режим общего битрейта : Переменный
Общий поток : 601 Кбит/сек
Максимальный общий битрейт : 1529 Кбит/сек
Дата кодирования : UTC 2008-08-03 19:19:50.375
Видео
Идентификатор : 2
Формат : VC-1
Профиль формата : [email protected]
Идентификатор кодека : WMV3
Идентификатор кодека/Информация : Windows Media Video 9
Идентификатор кодека/Подсказка : WMV3
Описание кодека : Windows Media Video 9
Продолжительность : 1 ч. 3 м.
Вид битрейта : Переменный
Битрейт : 571 Кбит/сек
Ширина : 720 пикселей
Высота : 576 пикселей
Соотношение сторон : 5:4
Частота кадров : 25,000 кадров/сек
Стандарт вещания : PAL
Битовая глубина : 8 бит
Тип развёртки : Прогрессивная
Метод сжатия : С потерями
Бит/(Пиксели*Кадры) : 0.055
Размер потока : 261 Мбайт (95%)
Язык : Russian
Аудио
Идентификатор : 1
Формат : WMA
Версия формата : Version 2
Идентификатор кодека : 161
Идентификатор кодека/Информация : Windows Media Audio
Описание кодека : Windows Media Audio 9.2 - 20 kbps, 44 kHz, mono 1-pass CBR
Продолжительность : 1 ч. 3 м.
Вид битрейта : Постоянный
Битрейт : 20,0 Кбит/сек
Каналы : 1 канал
Частота : 44,1 КГц
Битовая глубина : 16 бит
Размер потока : 9,16 Мбайт (3%)
Язык : Russian
Download / Скачать

Хотите скачать бесплатно? Зарегистрируйтесь на сайте (ссылка на регистрацию). Pirat.ca - самый быстрый торрент трекер в рунете!

Как скачивать  ·   Что такое торрент  ·   Рейтинг и ограничения



Последний раз редактировалось: sandman1973 (2012-07-18 11:39), всего редактировалось 2 раз(а)

nadabibak

Гроза морей

Пост 18-Июл-2012 04:04 (спустя 1 час 17 минут)

[Q] 

Чем старше становишся, тем интересней смотреть любимые фильмы, тем более что их не закрутили по телевизору. Раздающему респект.
[Профиль]  [ЛС] 

sandman1973 ®

Гроза морей

2128

Пост 18-Июл-2012 11:40 (спустя 7 часов)

[Q] 


Кому нравится, можете нажимать кнопочку

_________________

[Профиль]  [ЛС] 

sandman1973 ®

Гроза морей

2128

Пост 07-Авг-2012 16:59 (спустя 20 дней)

[Q] 

Рекомендую посмотреть Кувшин (Ираклий Квирикадзе) [1970 г., короткометражка, комедия, DVDRip] (пост)

_________________

[Профиль]  [ЛС] 

vinylovi4

Гроза морей

Пост 12-Июл-2013 08:40 (спустя 11 месяцев 4 дня)

[Q] 

ни в этом ли фильме мальчик по речке арбузы девочке переправлял ? :)
[Профиль]  [ЛС] 
Показать сообщения:    
Ответить на тему

Текущее время: Сегодня 07:51

Часовой пояс: GMT + 4



Вы не можете начинать темы
Вы не можете отвечать на сообщения
Вы не можете редактировать свои сообщения
Вы не можете удалять свои сообщения
Вы не можете голосовать в опросах
Вы не можете прикреплять файлы к сообщениям
Вы не можете скачивать файлы

▼ Вниз