ML
     
  Уважаемый Гость!
Вы можете поддержать проект и зарегистрироваться у наших партнеров - онлайн-стратегия MyLands. При регистрации в игре Вы получите код, который сможете активировать после регистрации на pirat.ca и получить 1000 дублонов.

Ваш код:
a01a592a88af5f9996a6d1baec61b18a1769954d
 
     

Уроки французского (Евгений Ташков) [1978 г., драма, SATRip, 576p]

Ответить на тему
 
Автор
Сообщение

Пост 28-Июл-2012 18:26

[Q] 

sandman1973

Гроза морей

-Уроки французского-- Производство: СССР
Режиссер: Евгений Ташков
Жанр: драма
Год выпуска: 1978 г.
Продолжительность: 01:20:17
Российская премьера: 17 декабря 1978
Дата выхода DVD: 25 августа 2009
В ролях: Михаил Егоров, Татьяна Ташкова, Галина Яцкина, Валентина Талызина, Борис Новиков, Вадим Яковлев, Олег Голубицкий, Володя Репин, Олег Казеннов, Андрей Звездов, Миша Кабанов-Описание: Послевоенные годы. Одиннадцатилетнего Володю мать отправляет из деревни в райцентр учиться. Мальчик поселяется у женщины, потерявшей на фронте мужа и оставшейся с тремя детьми. Молоденькая учительница французского языка Лидия Михайловна пытается помочь Володе. Под предлогом дополнительных занятий она пытается накормить мальчика, но он отказывается от еды. И тогда учительница прибегает к хитрости: она предлагает ему играть в "пристенок" на деньги, и, конечно, подыгрывает Володе. Позже Лидию Михайловну выгонят из школы и она вынуждена будет уехать.-
Качество видео: SATRip
Формат видео: AVI
Стандарт разрешения: 576p
Видео кодек: XviD
Аудио кодек: MP3
Видео: 704x528 (1.33:1), 25 fps, XviD build 64 ~2393 kbps avg, 0.26 bit/pixel
Аудио: 48 kHz, MPEG Layer 3, 2 ch, ~192.00 kbps avg
Cубтитры: отсутствуют
Общее
Полное имя : E:\Загрузки\Уроки Французского.avi
Формат : AVI
Формат/Информация : Audio Video Interleave
Размер файла : 1,45 Гбайт
Продолжительность : 1 ч. 20 м.
Общий поток : 2594 Кбит/сек
Программа кодирования : VirtualDubMod 1.5.10.3 | www.virtualdub-fr.org || (build 2550/release)
Примечание : Rip by iriston
Видео
Идентификатор : 0
Формат : MPEG-4 Visual
Профиль формата : Advanced [email protected]
Параметр BVOP формата : 1
Параметр QPel формата : Нет
Параметр GMC формата : Без точки перехода
Параметр матрицы формата : Выборочная
Идентификатор кодека : XVID
Идентификатор кодека/Подсказка : XviD
Продолжительность : 1 ч. 20 м.
Битрейт : 2392 Кбит/сек
Ширина : 704 пикселя
Высота : 528 пикселей
Соотношение сторон : 4:3
Частота кадров : 25,000 кадров/сек
Цветовое пространство : YUV
Субдискретизация насыщенности : 4:2:0
Битовая глубина : 8 бит
Тип развёртки : Прогрессивная
Метод сжатия : С потерями
Бит/(Пиксели*Кадры) : 0.257
Размер потока : 1,34 Гбайт (92%)
Библиотека кодирования : XviD 64
Аудио
Идентификатор : 1
Формат : MPEG Audio
Версия формата : Version 1
Профиль формата : Layer 3
Идентификатор кодека : 55
Идентификатор кодека/Подсказка : MP3
Продолжительность : 1 ч. 20 м.
Вид битрейта : Постоянный
Битрейт : 192 Кбит/сек
Каналы : 2 канала
Частота : 48,0 КГц
Метод сжатия : С потерями
Размер потока : 110 Мбайт (7%)
Выравнивание : Соединение по промежуткам
Продолжительность промежутка : 40 мс. (1,00 видеокадр)
Время предзагрузки промежутка : 504 мс.
Библиотека кодирования : LAME3.98r
Настройки программы : -m s -V 4 -q 2 -lowpass 18.6 -b 192
Download / Скачать

Хотите скачать бесплатно? Зарегистрируйтесь на сайте (ссылка на регистрацию). Pirat.ca - самый быстрый торрент трекер в рунете!

Как скачивать  ·   Что такое торрент  ·   Рейтинг и ограничения

Пост 28-Июл-2012 20:04 (спустя 1 час 38 минут)

Топик был перенесен из форума Наше Кино в форум Советское кино

erchine
 
Показать сообщения:    
Ответить на тему

Текущее время: Сегодня 09:50

Часовой пояс: GMT + 4



Вы не можете начинать темы
Вы не можете отвечать на сообщения
Вы не можете редактировать свои сообщения
Вы не можете удалять свои сообщения
Вы не можете голосовать в опросах
Вы не можете прикреплять файлы к сообщениям
Вы не можете скачивать файлы

▼ Вниз