ML
     
  Уважаемый Гость!
Вы можете поддержать проект и зарегистрироваться у наших партнеров - онлайн-стратегия MyLands. При регистрации в игре Вы получите код, который сможете активировать после регистрации на pirat.ca и получить 1000 дублонов.

Ваш код:
a6d1ef7ff63e237add5a4c8b21d8aa937c5e9b4b
 
     

Молодая Жена (Леонид Менакер) [1978 г., Мелодрама, DVDRip]

Ответить на тему
 
Автор
Сообщение

Пост 28-Июл-2012 18:47

[Q] 

sandman1973

Гроза морей

-Молодая Жена-- Производство: СССР
Режиссер: Леонид Менакер
Жанр: Мелодрама
Год выпуска: 1978 г.
Продолжительность: 01:32:59
Российская премьера: 3 марта 1979
В ролях: Анна Каменкова, Владлен Бирюков, Галина Макарова, Сергей Проханов, Елена Мельникова (Кузнецова), Наталья Назарова, Соня Джишкариани, Валентина Владимирова, Т. Горлова, Анатолий Рудаков, Игорь Озеров, Любовь Соколова, Игорь Эрельт-Описание: Вернувшись из армии, парень привез в деревню подружку, тем самым опозорив Маню перед односельчанами. Назло всем и себе, Маня вышла замуж за молодого вдовца из соседней деревни. А затем наперекор мужу уехала в город сдавать экзамены в техникум. Пройдет время, и Маня, полюбив своего мужа, вернется к нему навсегда...-
Качество видео: DVDRip
Формат видео: AVI
Видео кодек: DivX
Аудио кодек: AC3
Видео: 704x320 (2.20:1), 25 fps, DivX Codec 6.8 ~1900 kbps avg, 0.34 bit/pixel
Аудио: 48 kHz, AC3 Dolby Digital, 2/0 (L,R) ch, ~192.00 kbps avg
Cубтитры: отсутствуют
Общее
Полное имя : E:\Загрузки\Молодая жена.avi
Формат : AVI
Формат/Информация : Audio Video Interleave
Размер файла : 1,37 Гбайт
Продолжительность : 1 ч. 32 м.
Общий поток : 2102 Кбит/сек
Программа кодирования : VirtualDubMod 1.5.10.2 (build 2540/release)
Библиотека кодирования : VirtualDubMod build 2540/release
Видео
Идентификатор : 0
Формат : MPEG-4 Visual
Параметр BVOP формата : 1
Параметр QPel формата : Нет
Параметр GMC формата : Без точки перехода
Параметр матрицы формата : Default (H.263)
Режим смешивания : Сжатый битовый поток
Идентификатор кодека : DX50
Идентификатор кодека/Подсказка : DivX 5
Продолжительность : 1 ч. 32 м.
Битрейт : 1901 Кбит/сек
Ширина : 704 пикселя
Высота : 320 пикселей
Соотношение сторон : 2,2:1
Частота кадров : 25,000 кадров/сек
Цветовое пространство : YUV
Субдискретизация насыщенности : 4:2:0
Битовая глубина : 8 бит
Тип развёртки : Прогрессивная
Метод сжатия : С потерями
Бит/(Пиксели*Кадры) : 0.338
Размер потока : 1,23 Гбайт (90%)
Библиотека кодирования : DivX 6.8.0 (UTC 2007-12-04)
Аудио
Идентификатор : 1
Формат : AC-3
Формат/Информация : Audio Coding 3
Расширение режима : CM (complete main)
Параметр Endianness формата : Big
Идентификатор кодека : 2000
Продолжительность : 1 ч. 32 м.
Вид битрейта : Постоянный
Битрейт : 192 Кбит/сек
Каналы : 2 канала
Расположение каналов : Front: L R
Частота : 48,0 КГц
Битовая глубина : 16 бит
Метод сжатия : С потерями
Размер потока : 128 Мбайт (9%)
Выравнивание : Соединение по промежуткам
Продолжительность промежутка : 40 мс. (1,00 видеокадр)
Время предзагрузки промежутка : 512 мс.
На 12 ВКФ в Ашхабаде в 1979 г. — приз за лучшую женскую роль Анне Каменковой.
Лучший фильм 1979 года по итогам ежегодного конкурса журнала «Советский экран» (1980)
Download / Скачать

Хотите скачать бесплатно? Зарегистрируйтесь на сайте (ссылка на регистрацию). Pirat.ca - самый быстрый торрент трекер в рунете!

Как скачивать  ·   Что такое торрент  ·   Рейтинг и ограничения

Пост 28-Июл-2012 20:09 (спустя 1 час 21 минута)

Топик был перенесен из форума Наше Кино в форум Советское кино

erchine
 
Показать сообщения:    
Ответить на тему

Текущее время: Сегодня 13:37

Часовой пояс: GMT + 4



Вы не можете начинать темы
Вы не можете отвечать на сообщения
Вы не можете редактировать свои сообщения
Вы не можете удалять свои сообщения
Вы не можете голосовать в опросах
Вы не можете прикреплять файлы к сообщениям
Вы не можете скачивать файлы

▼ Вниз