ML
     
  Уважаемый Гость!
Вы можете поддержать проект и зарегистрироваться у наших партнеров - онлайн-стратегия MyLands. При регистрации в игре Вы получите код, который сможете активировать после регистрации на pirat.ca и получить 1000 дублонов.

Ваш код:
193c38d0130f05c24de871678ea3ac181461757d
 
     

Кувшин (Ираклий Квирикадзе) [1970 г., короткометражка, комедия, DVDRip]

Ответить на тему
 
Автор
Сообщение

Пост 07-Авг-2012 16:52

[Q] 

sandman1973

Гроза морей

-Кувшин-- Производство: СССР
Режиссер: Ираклий Квирикадзе
Жанр: короткометражка, комедия
Год выпуска: 1970 г.
Продолжительность: 00:35:00
Российская премьера: 1 января 1971
В ролях: Бухути Закариадзе, Генриетта Лежава, Вахтанг Сулаквелидзе, Эроси Манджгаладзе, Отар Зауташвили, Илья Бакакури, Лео Сохашвили, Мери Канделаки, Лери Зардиашвили-Описание: История о человеке, который случайно залез в большой винный кувшин, не смог оттуда выбраться и просидел там три дня-
Качество видео: DVDRip
Формат видео: AVI
Стандарт разрешения: 480p
Видео кодек: DivX
Аудио кодек: MP3
Видео: 576х416, 1409 Кбит/сек, 25,000 кадров/сек
Аудио: 128 Кбит/сек, 2 канала, 48,0 КГц
Cубтитры: отсутствуют
Общее
Полное имя : E:\Загрузки\Kuvshin.1970.DivX.DVDRip.avi
Формат : AVI
Формат/Информация : Audio Video Interleave
Размер файла : 305 Мбайт
Продолжительность : 27 м.
Общий поток : 1546 Кбит/сек
Программа кодирования : VirtualDubMod 1.5.10.1 (build 2439/release)
Библиотека кодирования : VirtualDubMod build 2439/release
Видео
Идентификатор : 0
Формат : MPEG-4 Visual
Параметр BVOP формата : 1
Параметр QPel формата : Нет
Параметр GMC формата : Без точки перехода
Параметр матрицы формата : Default (MPEG)
Режим смешивания : Сжатый битовый поток
Идентификатор кодека : DX50
Идентификатор кодека/Подсказка : DivX 5
Продолжительность : 27 м.
Битрейт : 1409 Кбит/сек
Ширина : 576 пикселей
Высота : 416 пикселей
Соотношение сторон : 1,385
Частота кадров : 25,000 кадров/сек
Цветовое пространство : YUV
Субдискретизация насыщенности : 4:2:0
Битовая глубина : 8 бит
Тип развёртки : Прогрессивная
Метод сжатия : С потерями
Бит/(Пиксели*Кадры) : 0.235
Размер потока : 278 Мбайт (91%)
Библиотека кодирования : DivX 5.2.0 (UTC 2004-07-15)
Аудио
Идентификатор : 1
Формат : MPEG Audio
Версия формата : Version 1
Профиль формата : Layer 3
Режим : Joint stereo
Расширение режима : MS Stereo
Идентификатор кодека : 55
Идентификатор кодека/Подсказка : MP3
Продолжительность : 27 м.
Вид битрейта : Постоянный
Битрейт : 128 Кбит/сек
Каналы : 2 канала
Частота : 48,0 КГц
Метод сжатия : С потерями
Размер потока : 25,2 Мбайт (8%)
Выравнивание : Соединение по промежуткам
Продолжительность промежутка : 40 мс. (1,00 видеокадр)
Время предзагрузки промежутка : 504 мс.
Download / Скачать

Хотите скачать бесплатно? Зарегистрируйтесь на сайте (ссылка на регистрацию). Pirat.ca - самый быстрый торрент трекер в рунете!

Как скачивать  ·   Что такое торрент  ·   Рейтинг и ограничения



Последний раз редактировалось: sandman1973 (2012-08-11 11:15), всего редактировалось 4 раз(а)

Дядя Витя

53902

Пост 07-Авг-2012 19:27 (спустя 2 часа 34 минуты)

[Q] 

Классика )

_________________
?
На форуме  [Профиль]  [ЛС] 

Пост 11-Авг-2012 11:20 (спустя 3 дня)

Топик был перенесен из форума Наше кино (Трюм) в форум Советское кино

ara1205
 

vinylovi4

Гроза морей

Пост 12-Июл-2013 00:37 (спустя 11 месяцев 4 дня)

[Q] 

спасибо. бочка
[Профиль]  [ЛС] 

vinylovi4

Гроза морей

Пост 12-Июл-2013 09:37 (спустя 9 часов)

[Q] 

только вот качать совсем не желает :(
[Профиль]  [ЛС] 
Показать сообщения:    
Ответить на тему

Текущее время: Сегодня 18:05

Часовой пояс: GMT + 4



Вы не можете начинать темы
Вы не можете отвечать на сообщения
Вы не можете редактировать свои сообщения
Вы не можете удалять свои сообщения
Вы не можете голосовать в опросах
Вы не можете прикреплять файлы к сообщениям
Вы не можете скачивать файлы

▼ Вниз