ML
     
  Уважаемый Гость!
Вы можете поддержать проект и зарегистрироваться у наших партнеров - онлайн-стратегия MyLands. При регистрации в игре Вы получите код, который сможете активировать после регистрации на pirat.ca и получить 1000 дублонов.

Ваш код:
6f9ab67d502902cc72a06c406977ddb589b7f39d
 
     

Не может быть! (Леонид Гайдай) [1975 г., Комедия, DVDRip]

Ответить на тему
 
Автор
Сообщение

Пост 09-Авг-2012 21:26

[Q] 

sandman1973

Гроза морей

-Не может быть!-- Производство: СССР, Мосфильм
Режиссер: Леонид Гайдай
Жанр: Комедия
Год выпуска: 1975 г.
Продолжительность: 01:31:39
Российская премьера: 23 октября 1975
Дата выхода DVD: 30 июня 2011
В ролях: Нина Гребешкова, Михаил Пуговкин, Вячеслав Невинный, Михаил Светин, Раднэр Муратов, Лев Поляков, Виктор Уральский, Олег Даль, Светлана Крючкова, Михаил Кокшенов, Евгений Жариков, Наталья Селезнёва, Лариса Еремина, Елена Вольская, Леонид Куравлёв, Савелий Крамаров, Георгий Вицин, Валентина Теличкина, Людмила Шагалова, Светлана Харитонова, Наталья Крачковская, Сергей Филиппов, Игорь Ясулович, Эве Киви, Готлиб Ронинсон, Нина Крачковская-Описание: Фильм включает три новеллы о негативных явлениях провинциальной жизни молодой страны Советов: тупости, пьянстве, стяжательстве, бездуховности — всем том, что и сейчас существует благополучно и повсеместно.-
Качество видео: DVDRip
Формат видео: AVI
Видео кодек: XviD
Аудио кодек: AC3
Видео: 704x512 (1.38:1), 25 fps, XviD build 50 ~1687 kbps avg, 0.19 bit/pixel
Аудио: 48 kHz, AC3 Dolby Digital, 3/2 (L,C,R,l,r) + LFE ch, ~448 kbps
Подгружаемое аудио Русский (AC3, 1 ch, 224 Кбит/с)
Cубтитры: отсутствуют
Киновидеообъединение "Крупный План". Полная реставрация изображения и звука!
Общее
Полное имя : D:\Архив\ФИЛЬМЫ\Ne.Mozhet.Bytj.1975.XviD.DVDRip\Ne.Mozhet.Bytj.1975.XviD.DVDRip.avi
Формат : AVI
Формат/Информация : Audio Video Interleave
Размер файла : 1,37 Гбайт
Продолжительность : 1 ч. 31 м.
Общий поток : 2146 Кбит/сек
Программа кодирования : VirtualDubMod 1.5.10.2 (build 2540/release)
Библиотека кодирования : VirtualDubMod build 2540/release
Видео
Идентификатор : 0
Формат : MPEG-4 Visual
Профиль формата : Advanced [email protected]
Параметр BVOP формата : 2
Параметр QPel формата : Нет
Параметр GMC формата : Без точки перехода
Параметр матрицы формата : Default (MPEG)
Идентификатор кодека : XVID
Идентификатор кодека/Подсказка : XviD
Продолжительность : 1 ч. 31 м.
Битрейт : 1688 Кбит/сек
Ширина : 704 пикселя
Высота : 512 пикселей
Соотношение сторон : 4:3
Частота кадров : 25,000 кадров/сек
Цветовое пространство : YUV
Субдискретизация насыщенности : 4:2:0
Битовая глубина : 8 бит
Тип развёртки : Прогрессивная
Метод сжатия : С потерями
Бит/(Пиксели*Кадры) : 0.187
Размер потока : 1,08 Гбайт (79%)
Библиотека кодирования : XviD 1.2.1 (UTC 2008-12-04)
Аудио
Идентификатор : 1
Формат : AC-3
Формат/Информация : Audio Coding 3
Расширение режима : CM (complete main)
Идентификатор кодека : 2000
Продолжительность : 1 ч. 31 м.
Вид битрейта : Постоянный
Битрейт : 448 Кбит/сек
Каналы : 6 каналов
Расположение каналов : Front: L C R, Side: L R, LFE
Частота : 48,0 КГц
Битовая глубина : 16 бит
Метод сжатия : С потерями
Размер потока : 294 Мбайт (21%)
Выравнивание : Разделение по промежуткам
Продолжительность промежутка : 40 мс. (1,00 видеокадр)
Время предзагрузки промежутка : 500 мс.
Download / Скачать

Хотите скачать бесплатно? Зарегистрируйтесь на сайте (ссылка на регистрацию). Pirat.ca - самый быстрый торрент трекер в рунете!

Как скачивать  ·   Что такое торрент  ·   Рейтинг и ограничения



Последний раз редактировалось: sandman1973 (2012-08-13 17:38), всего редактировалось 4 раз(а)

nadabibak

Гроза морей

Пост 09-Авг-2012 22:48 (спустя 1 час 22 минуты)

[Q] 

Как можно комментировать отличный фильм?
Раздающему спасибо за труды.
[Профиль]  [ЛС] 

buba-79

Флибустьер

Пост 10-Авг-2012 00:09 (спустя 1 час 20 минут)

[Q] 

Как можно комментировать отличный фильм?
Раздающему спасибо за труды.
эт точно фильм
[Профиль]  [ЛС] 

sandman1973 ®

Гроза морей

2129

Пост 10-Авг-2012 15:17 (спустя 15 часов)

[Q] 

По-моему, это просто ШЕДЕВР!

_________________

[Профиль]  [ЛС] 

cergo

Гроза морей

20034

Пост 11-Авг-2012 22:17 (спустя 1 день 7 часов)

[Q] 

[Профиль]  [ЛС] 

Roger

109529

Пост 13-Авг-2012 17:51 (спустя 1 день 19 часов)

[Q] 

sandman1973, предупреждение за самовольное перезалитие торрент-файла в раздаче, уже имеющей статус.
[Профиль]  [ЛС] 

sandman1973 ®

Гроза морей

2129

Пост 14-Авг-2012 01:16 (спустя 7 часов)

[Q] 

Как можно комментировать отличный фильм?
+1

_________________

[Профиль]  [ЛС] 

sandman1973 ®

Гроза морей

2129

Пост 14-Авг-2012 01:18 (спустя 1 минута)

[Q] 

Неужели статус "Проверено" ? НЕ МОЖЕТ БЫТЬ! bj cm be

_________________

[Профиль]  [ЛС] 

ZlobiN

Корсар

Пост 14-Авг-2012 20:46 (спустя 19 часов)

[Q] 

[Профиль]  [ЛС] 

Ustas i Aleks

Штурман

Пост 30-Окт-2012 16:16 (спустя 2 месяца 15 дней)

[Q] 

отличный фильм!!!!!!!! Вспомнил детство))))))
[Профиль]  [ЛС] 

LORD OR

Корсар

Пост 12-Ноя-2012 21:41 (спустя 13 дней)

[Q] 

[Профиль]  [ЛС] 

AndyFox

Корсар

376

Пост 21-Ноя-2012 12:39 (спустя 8 дней)

[Q] 

Отличная комедийная подборка!

_________________
Torrent.
[Профиль]  [ЛС] 

keppi

Морской Волк

1896

Пост 10-Янв-2013 23:23 (спустя 1 месяц 19 дней)

[Q] 

ШЕДЕВР!

_________________
Если нет своей цели в жизни, то будешь работать на того, у кого она есть.
[Профиль]  [ЛС] 

Romanmw223

Морской Волк

1034

Пост 29-Янв-2013 17:51 (спустя 18 дней)

[Q] 

sandman1973, в коллекцию

_________________
[Профиль]  [ЛС] 

alex denver71

Флибустьер

Пост 08-Янв-2015 19:26 (спустя 1 год 11 месяцев)

[Q] 

Автору респект!!! согласен фильм ШЕДЕВР!!!СУПЕР!!!
[Профиль]  [ЛС] 

R_O_Z_A

Морской Волк

Пост 25-Фев-2015 23:22 (спустя 1 месяц 17 дней)

[Q] 

фильм ШЕДЕВР Супер!
[Профиль]  [ЛС] 

Семен

Морской Волк

Пост 25-Мар-2015 20:58 (спустя 27 дней)

[Q] 

Раздающему спасибо за труды. Классный фильм. Спасибо!!!
[Профиль]  [ЛС] 

СерКат

Корсар

Пост 09-Май-2015 00:50 (спустя 1 месяц 14 дней)

[Q] 

реставрация,спасибо,фильму 40 лет ,а он не стареет,его интересно пересматривать Супер! Лови бочку
[Профиль]  [ЛС] 
Показать сообщения:    
Ответить на тему

Текущее время: Сегодня 16:33

Часовой пояс: GMT + 4



Вы не можете начинать темы
Вы не можете отвечать на сообщения
Вы не можете редактировать свои сообщения
Вы не можете удалять свои сообщения
Вы не можете голосовать в опросах
Вы не можете прикреплять файлы к сообщениям
Вы не можете скачивать файлы

▼ Вниз