ML
     
  Уважаемый Гость!
Вы можете поддержать проект и зарегистрироваться у наших партнеров - онлайн-стратегия MyLands. При регистрации в игре Вы получите код, который сможете активировать после регистрации на pirat.ca и получить 1000 дублонов.

Ваш код:
6f9ab67d502902cc72a06c406977ddb589b7f39d
 
     

Даурия (2 серии из 2) (Виктор Трегубович) [1971 г., Драма, военный, DVDRip]

Ответить на тему
 
Автор
Сообщение

Пост 09-Авг-2012 22:04

[Q] 

sandman1973

Гроза морей

-Даурия (2 серии из 2)-- Производство: Ленфильм, СССР
Режиссер: Виктор Трегубович
Жанр: Драма, военный
Год выпуска: 1971 г.
Продолжительность: 01:26:03
Российская премьера: 10 мая 1972
В ролях: Аркадий Трусов, Петр Шелохонов, Вера Кузнецова, Виталий Соломин, Василий Шукшин, Женя Малянцев, Светлана Головина, Федор Одиноков, Любовь Малиновская, Ефим Копелян, Борис Аракелов, Дмитрий Масанов, Виктор Павлов, Владимир Лосев, Юрий Соломин, Михаил Кокшенов, Всеволод Кузнецов, Игорь Ефимов, Юрий Дубровин, Александр Демьяненко, Игорь Дмитриев, Юрий Назаров, Георгий Штиль, Зиновий Гердт-Описание: Хроника жизни небольшого поселка в Забайкалье накануне первой мировой войны и в годы Октябрьской революции.
Рушатся вековые устои, происходит расслоение масс, в результате которого одни идут воевать за революцию, другие — против нее.
Главный герой — молодой казак Роман Улыбин. Поначалу этот беззаботный сорвиголова занят только одним вопросом: выйдет за него замуж любимая девушка Дашутка или ее отдадут за купеческого сына Алешку. Однако постепенно парень замечает, что мир вокруг изменился, люди воюют за равенство и социальную справедливость, и он, бравый казак, не может остаться в стороне…-
Качество видео: DVDRip
Формат видео: AVI
Стандарт разрешения: 720х288
Видео кодек: DivX
Аудио кодек: AC3
Видео: 1822 Кбит/с, 720x288, 25,000 кадров/сек
Аудио: 6 ch, 448 Кбит/с, 48,0 КГц
Cубтитры: отсутствуют
На съёмках фильма «Даурия» возле Читы был подготовлен и снят единственный в советском кино уникальный эпизод, в котором актёр Шелохонов в роли Северьяна Улыбина верхом на коне прыгает с 70-метрового обрыва в реку Ингоду. Прыжок коня с обрыва снимался с укреплённым на коне манекеном в казачьей форме. Во время съёмки этого единственного дубля конь погиб, а в следующей сцене, когда герой актёра Шелохонова плывет по реке, держась за гриву своего коня, уже использовался другой конь той же масти.
Съёмки проходили в 1969-71 годах в Забайкалье и под Нарвой где построили казачью станицу, в которой актёры своими руками доделали удобства и прожили с коллегам по съёмочной группе два года, как казаки. На съёмки пригласили ведущих московских и ленинградских актёров, которые овладели верховой ездой, жили в Сибири, знали традиции, уверенно держались верхом, как казаки. Это сильные образы, созданные большими артистами. Фильм по одноимённому роману К.Седых. 1971, ЛЕНФИЛЬМ, цв., 2 серии, 91 + 91 мин.
Из фильма вырезаны несколько сцен пьяной гулянки казаков, сцены драк, в том числе сцена драки между отцом и сыном и следующая сцена, когда отец наливает сыну самогон, чтобы помириться. Эти и другие сцены были вырезаны в 1975 году перед продажей фильма в зарубежный прокат. Современная версия фильма на видеокассетах и дисках на полчаса короче оригинала. В 2002 году фильм выпущен на двух видеодисках фирмы RUSCICO с браком на дисках и в буклете (в этом издании перепутано количество, нумерация и последовательность сцен по сравнению с оригиналом). Брак имеется как в Русском, так и в английском тираже RUSCICO.
Общее
Полное имя : E:\Загрузки\Dauriya.(2.serii.is.2).1971.DivX.DVDRip\Dauriya.(1.serija.iz.2).1971.DivX.DVDRip.avi
Формат : AVI
Формат/Информация : Audio Video Interleave
Размер файла : 1,37 Гбайт
Продолжительность : 1 ч. 26 м.
Общий поток : 2276 Кбит/сек
Программа кодирования : VirtualDubMod 1.5.4.1 (build 2178/release)
Библиотека кодирования : VirtualDubMod build 2178/release
Видео
Идентификатор : 0
Формат : MPEG-4 Visual
Параметр BVOP формата : 1
Параметр QPel формата : Нет
Параметр GMC формата : Без точки перехода
Параметр матрицы формата : Default (H.263)
Режим смешивания : Сжатый битовый поток
Идентификатор кодека : DX50
Идентификатор кодека/Подсказка : DivX 5
Продолжительность : 1 ч. 26 м.
Битрейт : 1821 Кбит/сек
Ширина : 720 пикселей
Высота : 288 пикселей
Соотношение сторон : 2,500
Частота кадров : 25,000 кадров/сек
Цветовое пространство : YUV
Субдискретизация насыщенности : 4:2:0
Битовая глубина : 8 бит
Тип развёртки : Прогрессивная
Метод сжатия : С потерями
Бит/(Пиксели*Кадры) : 0.351
Размер потока : 1,09 Гбайт (80%)
Библиотека кодирования : DivX 6.8.2 (UTC 2008-05-17)
Аудио
Идентификатор : 1
Формат : AC-3
Формат/Информация : Audio Coding 3
Расширение режима : CM (complete main)
Параметр Endianness формата : Big
Идентификатор кодека : 2000
Продолжительность : 1 ч. 26 м.
Вид битрейта : Постоянный
Битрейт : 448 Кбит/сек
Каналы : 6 каналов
Расположение каналов : Front: L C R, Side: L R, LFE
Частота : 48,0 КГц
Битовая глубина : 16 бит
Метод сжатия : С потерями
Задержка видео : 10 с.
Размер потока : 276 Мбайт (20%)
Выравнивание : Разделение по промежуткам
Продолжительность промежутка : 96 мс. (2,40 видеокадра)
Время предзагрузки промежутка : 96 мс.
Язык : Russian
Общее
Полное имя : E:\Загрузки\Dauriya.(2.serii.is.2).1971.DivX.DVDRip\Dauriya.(2.serija.is.2).1971.DivX.DVDRip.avi
Формат : AVI
Формат/Информация : Audio Video Interleave
Размер файла : 1,37 Гбайт
Продолжительность : 1 ч. 26 м.
Общий поток : 2277 Кбит/сек
Программа кодирования : VirtualDubMod 1.5.4.1 (build 2178/release)
Библиотека кодирования : VirtualDubMod build 2178/release
Видео
Идентификатор : 0
Формат : MPEG-4 Visual
Параметр BVOP формата : 1
Параметр QPel формата : Нет
Параметр GMC формата : Без точки перехода
Параметр матрицы формата : Default (H.263)
Режим смешивания : Сжатый битовый поток
Идентификатор кодека : DX50
Идентификатор кодека/Подсказка : DivX 5
Продолжительность : 1 ч. 26 м.
Битрейт : 1822 Кбит/сек
Ширина : 720 пикселей
Высота : 288 пикселей
Соотношение сторон : 2,500
Частота кадров : 25,000 кадров/сек
Цветовое пространство : YUV
Субдискретизация насыщенности : 4:2:0
Битовая глубина : 8 бит
Тип развёртки : Прогрессивная
Метод сжатия : С потерями
Бит/(Пиксели*Кадры) : 0.351
Размер потока : 1,09 Гбайт (80%)
Библиотека кодирования : DivX 6.8.2 (UTC 2008-05-17)
Аудио
Идентификатор : 1
Формат : AC-3
Формат/Информация : Audio Coding 3
Расширение режима : CM (complete main)
Параметр Endianness формата : Big
Идентификатор кодека : 2000
Продолжительность : 1 ч. 26 м.
Вид битрейта : Постоянный
Битрейт : 448 Кбит/сек
Каналы : 6 каналов
Расположение каналов : Front: L C R, Side: L R, LFE
Частота : 48,0 КГц
Битовая глубина : 16 бит
Метод сжатия : С потерями
Задержка видео : 10 с.
Размер потока : 276 Мбайт (20%)
Выравнивание : Разделение по промежуткам
Продолжительность промежутка : 96 мс. (2,40 видеокадра)
Время предзагрузки промежутка : 96 мс.
Язык : Russian
Download / Скачать

Хотите скачать бесплатно? Зарегистрируйтесь на сайте (ссылка на регистрацию). Pirat.ca - самый быстрый торрент трекер в рунете!

Как скачивать  ·   Что такое торрент  ·   Рейтинг и ограничения



Последний раз редактировалось: sandman1973 (2012-08-11 11:20), всего редактировалось 2 раз(а)

sandman1973 ®

Гроза морей

2129

Пост 09-Авг-2012 22:25 (спустя 20 минут)

[Q] 


_________________

[Профиль]  [ЛС] 

Пост 11-Авг-2012 12:04 (спустя 1 день 13 часов)

Топик был перенесен из форума Наше кино (Трюм) в форум Советское кино

ara1205
 
Показать сообщения:    
Ответить на тему

Текущее время: Сегодня 16:28

Часовой пояс: GMT + 4



Вы не можете начинать темы
Вы не можете отвечать на сообщения
Вы не можете редактировать свои сообщения
Вы не можете удалять свои сообщения
Вы не можете голосовать в опросах
Вы не можете прикреплять файлы к сообщениям
Вы не можете скачивать файлы

▼ Вниз