ML
     
  Уважаемый Гость!
Вы можете поддержать проект и зарегистрироваться у наших партнеров - онлайн-стратегия MyLands. При регистрации в игре Вы получите код, который сможете активировать после регистрации на pirat.ca и получить 1000 дублонов.

Ваш код:
4fbd9898b6f10799a3e8edf60f31febd2bc15453
 
     

Женщина, которая поет (Александр Орлов) [1978 г., мюзикл, VHSRip]

Ответить на тему
 
Автор
Сообщение

Пост 27-Авг-2012 10:59

[Q] 

Zaria

Лоцман

-Женщина, которая поет- Год: 1978
Страна: СССР
Жанр: мюзикл
Режиссер: Александр Орлов
Сценарий: Анатолий Степанов
Композитор: Алла Пугачёва, Александр Зацепин, Леонид Гарин
Продолжительность: 01:14:28
Перевод: Не требуется
Субтитры: Отсутствуют-В ролях:
  • Алла Пугачёва (Анна Стрельцова)
  • Николай Волков мл. (поэт)
  • Алла Будницкая (Маша)
  • Александр Хочинский (Анна Стрельцова)
  • Виктория Духина (Анна Стрельцова)
  • Вадим Александров (Климкин Иван Степанович)
-Описание:О судьбе эстрадной певицы Анны Стрельцовой. Несколько раз она пытается бросить эстраду, чувствуя, что у нее нет материала, на котором она могла бы полностью раскрыть свой талант. Но она ищет и находит свой стиль, свой жанр, свои песни. Она проходит непростой жизненный путь: расстается с мужем, становится матерью и, наконец, переживает большое сильное чувство.-Рейтинг: |
  • Занимает по посещаемости 27-е место среди отечественных фильмов за всю историю советского кинопроката
Фильм с незатейливым сюжетом, но простым и понятным для каждой женщины, которая хотя бы раз в жизни хотела быть больше, чем просто чьей-то любимой, матерью или женой. Фильм о сильной женщине. Неважно на самом деле — поет она, пишет, или танцует, или открывает свой бизнес, но она идет к своей мечте.
Анна Стрельцова идет к своей мечте, и платит за это дорогую цену.
Совместимо ли личное счастье женщины с успехом в карьере?
Этот фильм не дает ответа на этот вопрос, но он ясно и четко дает понять — личное счастье не возможно, если тебя не понимают и если в тебя не верят.
Очень искренние эмоции певицы — видно, что не наигранные, а пережитые ей в реальной жизни — в совокупности с прекрасными хитами рисуют незабываемый портрет королевы советской эстрады для нынешнего и будущих поколений. Одной этой картины вполне хватит, чтобы понять, какую жизнь она жила и для чего она жила. В ней всегда сочетались две личности. Это сильная женщина, Женщина, которая поет, и это же женщина, которая опять плачет у окна…
8 из 10
Не думаю, что фильм создан с замахом на шедевральность. Но в нем есть главное — драма, которая близка всем женщинам, которые стремятся чего-то добиться. Редко, когда рядом находится мужчина, который ее поддерживает. Вот и фильме, как в одной из песен, главная героиня просит:
«… дай мне знать, где друзья, а где враги
И от невзгод меня убереги…»
Очень хорошо прорисованы и ненадежный партнер, и такая пресловутая женская дружба, и стремление к мечте «стать женщиной, которая поет». Хорошие актеры, много фраз, которые, наверняка, во времена проката фильма «ушли в народ». Алла Пугачева сыграла великолепно, то ли есть что-то общее с жизненным опытом, то ли талантливый человек талантлив во всем. А скорее всего и то, и другое. Приятного просмотра!
Премьера: Мировая 2 марта 1979;-Качество: VHSRip
Формат: AVI (Audio Video Interleave) [693.63 MiB]
Видео: DivX 5, 528x400 (4:3), 1100 kbps (0.208 b/px), 25.00 fps, 586 MiB (85%)
Аудио: MPEG-1 Audio layer 3, 192 kbps (CBR), 48.0 KHz, 2 ch, 102 MiB (15%)
Код:
General
Complete name                            : D:\Всё скаченое с интернета\1.Всё из нета\Корп\zhenschina.kotoraya.poet.avi
Format                                   : AVI
Format/Info                              : Audio Video Interleave
File size                                : 694 MiB
Duration                                 : 1h 14mn
Overall bit rate                         : 1 302 Kbps
Writing application                      : VirtualDubMod 1.5.1.1a (build 1639/release)
Writing library                          : VirtualDubMod build 1639/release
Video
ID                                       : 0
Format                                   : MPEG-4 Visual
Format settings, BVOP                    : Yes
Format settings, QPel                    : No
Format settings, GMC                     : No warppoints
Format settings, Matrix                  : Default (H.263)
Codec ID                                 : DX50
Codec ID/Hint                            : DivX 5
Duration                                 : 1h 14mn
Bit rate                                 : 1 100 Kbps
Width                                    : 528 pixels
Height                                   : 400 pixels
Display aspect ratio                     : 4:3
Frame rate                               : 25.000 fps
Color space                              : YUV
Chroma subsampling                       : 4:2:0
Bit depth                                : 8 bits
Scan type                                : Progressive
Compression mode                         : Lossy
Bits/(Pixel*Frame)                       : 0.208
Stream size                              : 586 MiB (85%)
Writing library                          : DivX 5.0.5 (UTC 2003-04-24)
Audio
ID                                       : 1
Format                                   : MPEG Audio
Format version                           : Version 1
Format profile                           : Layer 3
Codec ID                                 : 55
Codec ID/Hint                            : MP3
Duration                                 : 1h 14mn
Bit rate mode                            : Constant
Bit rate                                 : 192 Kbps
Channel(s)                               : 2 channels
Sampling rate                            : 48.0 KHz
Compression mode                         : Lossy
Stream size                              : 102 MiB (15%)
Alignment                                : Aligned on interleaves
Interleave, duration                     : 40 ms (1.00 video frame)
Interleave, preload duration             : 480 ms
Writing library                          : LAME3.93
Encoding settings                        : -m s -V 4 -q 7 -lowpass 18.7 -b 192
nterleave, duration                     : 40 ms (1.00 video frame)
Interleave, preload duration             : 480 ms
Writing library                          : LAME3.93
Encoding settings                        : -m s -V 4 -q 7 -lowpass 18.7 -b 192
nterleave, dur
- - - - -
Download / Скачать

Хотите скачать бесплатно? Зарегистрируйтесь на сайте (ссылка на регистрацию). Pirat.ca - самый быстрый торрент трекер в рунете!

Как скачивать  ·   Что такое торрент  ·   Рейтинг и ограничения



Последний раз редактировалось: Zaria (2012-08-27 18:06), всего редактировалось 2 раз(а)

LORD OR

Корсар

Пост 12-Ноя-2012 22:20 (спустя 2 месяца 16 дней)

[Q] 

[Профиль]  [ЛС] 

Димарик82

Корсар

725

Пост 15-Ноя-2012 00:39 (спустя 2 дня 2 часа)

[Q] 

[Профиль]  [ЛС] 

lebonnet

Флибустьер

Пост 19-Ноя-2012 18:23 (спустя 4 дня)

[Q] 

Спасибо!
[Профиль]  [ЛС] 
Показать сообщения:    
Ответить на тему

Текущее время: Сегодня 19:57

Часовой пояс: GMT + 4



Вы не можете начинать темы
Вы не можете отвечать на сообщения
Вы не можете редактировать свои сообщения
Вы не можете удалять свои сообщения
Вы не можете голосовать в опросах
Вы не можете прикреплять файлы к сообщениям
Вы не можете скачивать файлы

▼ Вниз