ML
     
  Уважаемый Гость!
Вы можете поддержать проект и зарегистрироваться у наших партнеров - онлайн-стратегия MyLands. При регистрации в игре Вы получите код, который сможете активировать после регистрации на pirat.ca и получить 1000 дублонов.

Ваш код:
a978488e62322cd72e113ab723b8a7fdc10eb9b9
 
     

Угрюм-река (2 серии из 2) (Ярополк Лапшин) [1968 г., драма, DVDRip]

Ответить на тему
 
Автор
Сообщение

Пост 10-Сен-2012 12:37

[Q] 

sandman1973

Гроза морей

-Угрюм-река (2 серии из 2)-- Производство: СССР
Режиссер: Ярополк Лапшин
Жанр: драма
Год выпуска: 1968 г.
Продолжительность: 5:30:00
Российская премьера: 15 апреля 1969
Дата выхода DVD: 5 ноября 2009
В ролях: Афанасий Кочетков, Виктор Чекмарев, Георгий Епифанцев, Валентина Владимирова, Гиви Тохадзе, Александр Демьяненко, Валентина Телегина, Людмила Чурсина, Евгений Весник, Иван Рыжов-Описание: В долгое путешествие по Угрюм-реке отправляет купец сына. Многое встретит он в пути — испытание золотом и властью, тяжкую болезнь и безумную страсть.
Фильм является экранизацией одноимённого романа Вячеслава Шишкова.-
Качество видео: DVDRip
Формат видео: AVI
Видео кодек: XviD
Аудио кодек: MP3
Видео: 720х544, 1655-2232 Кбит/сек, 25,000 кадров/сек
Аудио: 128 Кбит/сек, 2 канала, 48,0 КГц
Cубтитры: отсутствуют
Общее
Полное имя : E:\Загрузки\Ugrum.reka.1969.Xvid.DVDRip(2_serii_iz_2)\Thumbs.db
Размер файла : 13,0 Кбайт
Общее
Полное имя : E:\Загрузки\Ugrum.reka.1969.Xvid.DVDRip(2_serii_iz_2)\Ugrum.reka.1969.Xvid.DVDRip (1 seriya iz 2).avi
Формат : AVI
Формат/Информация : Audio Video Interleave
Профиль формата : OpenDML
Размер файла : 1,99 Гбайт
Продолжительность : 2 ч. 39 м.
Общий поток : 1793 Кбит/сек
Программа кодирования : VirtualDubMod 1.5.4.1 (build 2178/release)
Библиотека кодирования : VirtualDubMod build 2178/release
Видео
Идентификатор : 0
Формат : MPEG-4 Visual
Профиль формата : Advanced [email protected]
Параметр BVOP формата : 1
Параметр QPel формата : Нет
Параметр GMC формата : Без точки перехода
Параметр матрицы формата : Выборочная
Идентификатор кодека : XVID
Идентификатор кодека/Подсказка : XviD
Продолжительность : 2 ч. 39 м.
Битрейт : 1655 Кбит/сек
Ширина : 720 пикселей
Высота : 544 пикселя
Соотношение сторон : 4:3
Частота кадров : 25,000 кадров/сек
Цветовое пространство : YUV
Субдискретизация насыщенности : 4:2:0
Битовая глубина : 8 бит
Тип развёртки : Прогрессивная
Метод сжатия : С потерями
Бит/(Пиксели*Кадры) : 0.169
Размер потока : 1,84 Гбайт (92%)
Библиотека кодирования : XviD 1.1.2 (UTC 2006-11-01)
Аудио
Идентификатор : 1
Формат : MPEG Audio
Версия формата : Version 1
Профиль формата : Layer 3
Режим : Joint stereo
Расширение режима : MS Stereo
Идентификатор кодека : 55
Идентификатор кодека/Подсказка : MP3
Продолжительность : 2 ч. 39 м.
Вид битрейта : Постоянный
Битрейт : 128 Кбит/сек
Каналы : 2 канала
Частота : 48,0 КГц
Метод сжатия : С потерями
Размер потока : 146 Мбайт (7%)
Выравнивание : Соединение по промежуткам
Продолжительность промежутка : 80 мс. (2,00 видеокадра)
Время предзагрузки промежутка : 504 мс.
Библиотека кодирования : LAME3.97
Настройки программы : -m j -V 4 -q 2 -lowpass 17 -b 128
Язык : Russian
Общее
Полное имя : E:\Загрузки\Ugrum.reka.1969.Xvid.DVDRip(2_serii_iz_2)\Ugrum.reka.1969.Xvid.DVDRip (2 seriya iz 2).avi
Формат : AVI
Формат/Информация : Audio Video Interleave
Профиль формата : OpenDML
Размер файла : 2,29 Гбайт
Продолжительность : 2 ч. 18 м.
Общий поток : 2369 Кбит/сек
Программа кодирования : VirtualDubMod 1.5.4.1 (build 2178/release)
Библиотека кодирования : VirtualDubMod build 2178/release
Видео
Идентификатор : 0
Формат : MPEG-4 Visual
Профиль формата : Advanced [email protected]
Параметр BVOP формата : 1
Параметр QPel формата : Нет
Параметр GMC формата : Без точки перехода
Параметр матрицы формата : Выборочная
Идентификатор кодека : XVID
Идентификатор кодека/Подсказка : XviD
Продолжительность : 2 ч. 18 м.
Битрейт : 2232 Кбит/сек
Ширина : 720 пикселей
Высота : 544 пикселя
Соотношение сторон : 4:3
Частота кадров : 25,000 кадров/сек
Цветовое пространство : YUV
Субдискретизация насыщенности : 4:2:0
Битовая глубина : 8 бит
Тип развёртки : Прогрессивная
Метод сжатия : С потерями
Бит/(Пиксели*Кадры) : 0.228
Размер потока : 2,16 Гбайт (94%)
Библиотека кодирования : XviD 1.1.2 (UTC 2006-11-01)
Аудио
Идентификатор : 1
Формат : MPEG Audio
Версия формата : Version 1
Профиль формата : Layer 3
Режим : Joint stereo
Расширение режима : MS Stereo
Идентификатор кодека : 55
Идентификатор кодека/Подсказка : MP3
Продолжительность : 2 ч. 18 м.
Вид битрейта : Постоянный
Битрейт : 128 Кбит/сек
Каналы : 2 канала
Частота : 48,0 КГц
Метод сжатия : С потерями
Размер потока : 127 Мбайт (5%)
Выравнивание : Соединение по промежуткам
Продолжительность промежутка : 80 мс. (2,00 видеокадра)
Время предзагрузки промежутка : 504 мс.
Библиотека кодирования : LAME3.97
Настройки программы : -m j -V 4 -q 2 -lowpass 17 -b 128
Язык : Russian
- Диплом «За многосерийную экранизацию» — Ярополк Лапшин, 1969 год, ВТФ
- Государственной премии имени Братьев Васильевых (1970, удостоена актриса Людмила Чурсина за роли в фильмах «Виринея», «Журавушка», «Угрюм-река»)
.
Download / Скачать

Хотите скачать бесплатно? Зарегистрируйтесь на сайте (ссылка на регистрацию). Pirat.ca - самый быстрый торрент трекер в рунете!

Как скачивать  ·   Что такое торрент  ·   Рейтинг и ограничения

Пост 10-Сен-2012 15:03 (спустя 2 часа 25 минут)

Топик был перенесен из форума Наше кино (Трюм) в форум Советское кино

erchine
 

LORD OR

Корсар

Пост 12-Ноя-2012 22:12 (спустя 2 месяца 2 дня)

[Q] 

[Профиль]  [ЛС] 
Показать сообщения:    
Ответить на тему

Текущее время: Сегодня 22:08

Часовой пояс: GMT + 4



Вы не можете начинать темы
Вы не можете отвечать на сообщения
Вы не можете редактировать свои сообщения
Вы не можете удалять свои сообщения
Вы не можете голосовать в опросах
Вы не можете прикреплять файлы к сообщениям
Вы не можете скачивать файлы

▼ Вниз