ML
     
  Уважаемый Гость!
Вы можете поддержать проект и зарегистрироваться у наших партнеров - онлайн-стратегия MyLands. При регистрации в игре Вы получите код, который сможете активировать после регистрации на pirat.ca и получить 1000 дублонов.

Ваш код:
ca44e9295b9b8527ba1c339c20494f70782efea6
 
     

Позови меня в даль светлую (Герман Лавров, Станислав Любшин) [1977 г., мелодрама, SATRip]

Ответить на тему
 
Автор
Сообщение

Пост 14-Сен-2012 13:15

[Q] 

sandman1973

Гроза морей

-Позови меня в даль светлую-- Производство: СССР
Режиссер: Герман Лавров, Станислав Любшин
Жанр: мелодрама
Год выпуска: 1977 г.
Продолжительность: 01:31:18
Российская премьера: 23 января 1978
В ролях: Лидия Федосеева-Шукшина, Станислав Любшин, Лариса Негреева, Михаил Ульянов, Василий Малов, Владимир Суворов, Людмила Гамуряк, Николай Бриллинг, Иван Рыжов, Владимир Науменко-Описание: «В небольшом русском городке, где-то на окраине, в аккуратном домике из трёх комнат жила женщина. Звали женщину красиво — Агриппина Игнатьевна Веселова, попросту Груша. Было ей 34 года от роду, и были у неё сын Витька двенадцати лет да брат Николай Игнатьевич, главный бухгалтер пригородного совхоза, да где-то был муж» — так начинается киноповесть Шукшина о судьбе русской женщины.
Муж оставил её с сыном три года назад, потому что семья ему «мешала пить». Но у Груши есть старший брат, который переживает, глядя на сестру. Однажды он привёл к ней давнего друга, который давно уже пережил страсть к водке и стал нормальным, весьма положительным и благополучным человеком… Однако Груша не испытывает к этому человеку никаких чувств — он кажется ей совершенно неинтересным и «серым». Сватовство не состоялось. По простой причине, о которой скажет сама героиня: «Не лежит душа и всё. Хоть ты что».-
Качество видео: SATRip
Формат видео: AVI
Видео кодек: XviD
Аудио кодек: MP3
Видео: 704х528, 1566 Кбит/сек, 25,000 кадров/сек
Аудио: 128 Кбит/сек, 2 канала, 48,0 КГц
Общее
Полное имя : E:\Загрузки\Pozovi.menja.v.dal.svetluju.(1977).SATRip.avi
Формат : AVI
Формат/Информация : Audio Video Interleave
Размер файла : 1,09 Гбайт
Продолжительность : 1 ч. 31 м.
Общий поток : 1703 Кбит/сек
Программа кодирования : VirtualDubModRus 1.5.10.2 (build 2542/release)
Библиотека кодирования : VirtualDubMod build 2542/release
Видео
Идентификатор : 0
Формат : MPEG-4 Visual
Профиль формата : Advanced [email protected]
Параметр BVOP формата : 1
Параметр QPel формата : Нет
Параметр GMC формата : Без точки перехода
Параметр матрицы формата : Default (MPEG)
Идентификатор кодека : XVID
Идентификатор кодека/Подсказка : XviD
Продолжительность : 1 ч. 31 м.
Битрейт : 1566 Кбит/сек
Ширина : 704 пикселя
Высота : 528 пикселей
Соотношение сторон : 4:3
Частота кадров : 25,000 кадров/сек
Цветовое пространство : YUV
Субдискретизация насыщенности : 4:2:0
Битовая глубина : 8 бит
Тип развёртки : Прогрессивная
Метод сжатия : С потерями
Бит/(Пиксели*Кадры) : 0.168
Размер потока : 1022 Мбайт (92%)
Библиотека кодирования : XviD 1.2.1 (UTC 2008-12-04)
Аудио
Идентификатор : 1
Формат : MPEG Audio
Версия формата : Version 1
Профиль формата : Layer 3
Режим : Joint stereo
Расширение режима : MS Stereo
Идентификатор кодека : 55
Идентификатор кодека/Подсказка : MP3
Продолжительность : 1 ч. 31 м.
Вид битрейта : Постоянный
Битрейт : 128 Кбит/сек
Каналы : 2 канала
Частота : 48,0 КГц
Метод сжатия : С потерями
Размер потока : 83,6 Мбайт (8%)
Выравнивание : Соединение по промежуткам
Продолжительность промежутка : 40 мс. (1,00 видеокадр)
Время предзагрузки промежутка : 504 мс.
1977 — XXVI Международный кинофестиваль в Мангейме (ФРГ) — Гран При
1977 — XXVI Международный кинофестиваль в Мангейме (ФРГ) — Приз ФИПРЕССИ
В основу киноповести «Позови меня в даль светлую», переработанной в сценарий, легли рассказы Шукшина: «Вянет, пропадает», «Владимир Семенович из мягкой секции», «Космос, нервная система и шмат сала», «Племянник главбуха».
Download / Скачать

Хотите скачать бесплатно? Зарегистрируйтесь на сайте (ссылка на регистрацию). Pirat.ca - самый быстрый торрент трекер в рунете!

Как скачивать  ·   Что такое торрент  ·   Рейтинг и ограничения



Последний раз редактировалось: sandman1973 (2012-09-14 13:54), всего редактировалось 2 раз(а)

sandman1973 ®

Гроза морей

2129

Пост 14-Сен-2012 13:20 (спустя 4 минуты)

[Q] 

По рассказам Василия Шукшина «Вянет, пропадает», «Владимир Семенович из мягкой секции», «Космос, нервная система и шмат сала», «Племянник главбуха».

_________________

[Профиль]  [ЛС] 

Пост 14-Сен-2012 14:32 (спустя 1 час 12 минут)

Топик был перенесен из форума Наше кино (Трюм) в форум Советское кино

erchine
 
Показать сообщения:    
Ответить на тему

Текущее время: Сегодня 16:17

Часовой пояс: GMT + 4



Вы не можете начинать темы
Вы не можете отвечать на сообщения
Вы не можете редактировать свои сообщения
Вы не можете удалять свои сообщения
Вы не можете голосовать в опросах
Вы не можете прикреплять файлы к сообщениям
Вы не можете скачивать файлы

▼ Вниз