ML
     
  Уважаемый Гость!
Вы можете поддержать проект и зарегистрироваться у наших партнеров - онлайн-стратегия MyLands. При регистрации в игре Вы получите код, который сможете активировать после регистрации на pirat.ca и получить 1000 дублонов.

Ваш код:
822959f93c00d34653763d5bbf9ee9a7134af98a
 
     

Мужики (Искра Бабич) [1981 г., драма, DVDRip]

Ответить на тему
 
Автор
Сообщение

Пост 14-Сен-2012 16:34

[Q] 

sandman1973

Гроза морей

-Мужики-- Производство: СССР
Режиссер: Искра Бабич
Жанр: драма
Год выпуска: 1981 г.
Продолжительность: 01:32:00
Российская премьера: 18 января 1982
В ролях: Александр Михайлов, Ирина Иванова, Петр Глебов, Вера Альховская, Михаил Бузылёв-Крэцо, Александр Павлов, Анатолий Солоницын, Мария Андрианова, Светлана Тормахова, Леонард Варфоломеев-Описание: Узнав о том, что умерла его бывшая невеста, шахтер Павел Зубов приезжает в родное село. У него на руках оказываются оставшиеся сиротами трое детей. Старшая дочь — его, Павла. Осознание ответственности перед нею приводит Павла к мужественному решению: он становится отцом всем троим детям.-
Качество видео: DVDRip
Формат видео: AVI
Видео кодек: XviD
Аудио кодек: AC3
Видео: 704х528, 1912 Кбит/сек, 25,000 кадров/сек
Аудио: 192 Кбит/сек, 2 канала, 48,0 КГц
Лидер проката (1982, 2-е место) — 38,4 млн зрителей.
Лучший фильм 1982 года, Александр Михайлов — лучший актёр года — по опросу журнала «Советский экран».
Государственная премия РСФСР имени братьев Васильевых в 1983 году (лучшая мужская роль).
премии на кинофестивалях в Западном Берлине и Ванкувере.
Общее
Полное имя : E:\Загрузки\Muzhiki.1981.XviD.DVDRip..avi
Формат : AVI
Формат/Информация : Audio Video Interleave
Размер файла : 1,36 Гбайт
Продолжительность : 1 ч. 32 м.
Общий поток : 2113 Кбит/сек
Программа кодирования : VirtualDubMod 1.5.10.2 (build 2540/release)
Библиотека кодирования : VirtualDubMod build 2540/release
Видео
Идентификатор : 0
Формат : MPEG-4 Visual
Профиль формата : Advanced [email protected]
Параметр BVOP формата : 2
Параметр QPel формата : Нет
Параметр GMC формата : Без точки перехода
Параметр матрицы формата : Default (MPEG)
Режим смешивания : Сжатый битовый поток
Идентификатор кодека : XVID
Идентификатор кодека/Подсказка : XviD
Продолжительность : 1 ч. 32 м.
Битрейт : 1912 Кбит/сек
Ширина : 704 пикселя
Высота : 528 пикселей
Соотношение сторон : 4:3
Частота кадров : 25,000 кадров/сек
Цветовое пространство : YUV
Субдискретизация насыщенности : 4:2:0
Битовая глубина : 8 бит
Тип развёртки : Прогрессивная
Метод сжатия : С потерями
Бит/(Пиксели*Кадры) : 0.206
Размер потока : 1,23 Гбайт (90%)
Библиотека кодирования : XviD 58
Аудио
Идентификатор : 1
Формат : AC-3
Формат/Информация : Audio Coding 3
Расширение режима : CM (complete main)
Параметр Endianness формата : Big
Идентификатор кодека : 2000
Продолжительность : 1 ч. 32 м.
Вид битрейта : Постоянный
Битрейт : 192 Кбит/сек
Каналы : 2 канала
Расположение каналов : Front: L R
Частота : 48,0 КГц
Битовая глубина : 16 бит
Метод сжатия : С потерями
Размер потока : 127 Мбайт (9%)
Выравнивание : Разделение по промежуткам
Продолжительность промежутка : 40 мс. (1,00 видеокадр)
Время предзагрузки промежутка : 500 мс.
Download / Скачать

Хотите скачать бесплатно? Зарегистрируйтесь на сайте (ссылка на регистрацию). Pirat.ca - самый быстрый торрент трекер в рунете!

Как скачивать  ·   Что такое торрент  ·   Рейтинг и ограничения

BottleHunter

Шкипер

Пост 14-Сен-2012 17:45 (спустя 1 час 11 минут)

[Q] 

огроменное
[Профиль]  [ЛС] 

destroymp

Штурман

Пост 29-Янв-2015 18:16 (спустя 2 года 4 месяца)

[Q] 

Товарищи скачавшие, вернитесь на раздачу, пожалуйста, а то скачака приостановилась на 87,6 процентах Вы лучшие!
[Профиль]  [ЛС] 

xzxscorpxzx

Флибустьер

Пост 14-Фев-2016 01:37 (спустя 1 год)

[Q] 

хороший фильм!
[Профиль]  [ЛС] 
Показать сообщения:    
Ответить на тему

Текущее время: Сегодня 05:58

Часовой пояс: GMT + 4



Вы не можете начинать темы
Вы не можете отвечать на сообщения
Вы не можете редактировать свои сообщения
Вы не можете удалять свои сообщения
Вы не можете голосовать в опросах
Вы не можете прикреплять файлы к сообщениям
Вы не можете скачивать файлы

▼ Вниз