ML
     
  Уважаемый Гость!
Вы можете поддержать проект и зарегистрироваться у наших партнеров - онлайн-стратегия MyLands. При регистрации в игре Вы получите код, который сможете активировать после регистрации на pirat.ca и получить 1000 дублонов.

Ваш код:
8dcb839cf1b47e56d6dc42d17f26b3e4822e9aee
 
     

Любовь Яровая (Владимир Фетин) [1970 г., драма, мелодрама, история, DVDRip]

Ответить на тему
 
Автор
Сообщение

Пост 14-Сен-2012 18:54

[Q] 

sandman1973

Гроза морей

-Любовь Яровая-- Производство: СССР
Режиссер: Владимир Фетин
Жанр: драма, мелодрама, история
Год выпуска: 1970 г.
Продолжительность: 01:37:00
Российская премьера: 4 ноября 1970
В ролях: Людмила Чурсина, Василий Лановой, Руфина Нифонтова, Василий Шукшин, Кирилл Лавров, Анатолий Папанов, Нина Алисова, Владимир Кенигсон, Алексей Грибов, Инна Макарова-Описание: Годы гражданской войны. Чтобы не пустить в город наступающих белых, председатель Ревкома приказывает взорвать мост. Шпик Яровой, выдающий себя за комиссара, срывает план красных…-
Качество видео: DVDRip
Формат видео: AVI
Видео кодек: DivX
Аудио кодек: MP3
Видео: 720х336, 1810 Кбит/сек, 25,000 кадров/сек
Аудио: 192 Кбит/сек, 2 канала, 48,0 КГц
Общее
Полное имя : E:\Загрузки\Lubov.Jarovaja.1970.DVDRip.DivX.avi
Формат : AVI
Формат/Информация : Audio Video Interleave
Размер файла : 1,37 Гбайт
Продолжительность : 1 ч. 37 м.
Общий поток : 2012 Кбит/сек
Программа кодирования : VirtualDubModRus 1.5.10.2 (build 2542/release)
Библиотека кодирования : VirtualDubMod build 2542/release
Видео
Идентификатор : 0
Формат : MPEG-4 Visual
Параметр BVOP формата : 1
Параметр QPel формата : Нет
Параметр GMC формата : Без точки перехода
Параметр матрицы формата : Default (H.263)
Режим смешивания : Сжатый битовый поток
Идентификатор кодека : DX50
Идентификатор кодека/Подсказка : DivX 5
Продолжительность : 1 ч. 37 м.
Битрейт : 1810 Кбит/сек
Ширина : 720 пикселей
Высота : 336 пикселей
Соотношение сторон : 2,143
Частота кадров : 25,000 кадров/сек
Цветовое пространство : YUV
Субдискретизация насыщенности : 4:2:0
Битовая глубина : 8 бит
Тип развёртки : Прогрессивная
Метод сжатия : С потерями
Бит/(Пиксели*Кадры) : 0.299
Размер потока : 1,23 Гбайт (90%)
Библиотека кодирования : DivX 6.8.3-6.8.4 (UTC 2008-06-07)
Аудио
Идентификатор : 1
Формат : MPEG Audio
Версия формата : Version 1
Профиль формата : Layer 3
Идентификатор кодека : 55
Идентификатор кодека/Подсказка : MP3
Продолжительность : 1 ч. 37 м.
Вид битрейта : Постоянный
Битрейт : 192 Кбит/сек
Каналы : 2 канала
Частота : 48,0 КГц
Метод сжатия : С потерями
Размер потока : 134 Мбайт (10%)
Выравнивание : Соединение по промежуткам
Продолжительность промежутка : 40 мс. (1,00 видеокадр)
Время предзагрузки промежутка : 504 мс.
Библиотека кодирования : LAME3.97
Настройки программы : -m s -V 4 -q 2 -b 192
Download / Скачать

Хотите скачать бесплатно? Зарегистрируйтесь на сайте (ссылка на регистрацию). Pirat.ca - самый быстрый торрент трекер в рунете!

Как скачивать  ·   Что такое торрент  ·   Рейтинг и ограничения



Последний раз редактировалось: sandman1973 (2012-09-14 19:21), всего редактировалось 1 раз

Linnan

2628

Пост 14-Сен-2012 19:26 (спустя 31 минута)

[Q] 

По данным семпла
I-VOPs average DRF 3
I-VOPs std. deviation 0
I-VOPs max DRF 3
P-VOPs average DRF 4.331939
P-VOPs std. deviation 0.470909
P-VOPs max DRF 5
B-VOPs average DRF 6.635401
B-VOPs std. deviation 0.931165
B-VOPs max DRF 8
Очень, очень плохо. За неимением альтернативы - сомнительно

_________________

По ночам не раздаю
[Профиль]  [ЛС] 

LORD OR

Корсар

Пост 12-Ноя-2012 22:05 (спустя 1 месяц 28 дней)

[Q] 

[Профиль]  [ЛС] 

destroymp

Штурман

Пост 29-Янв-2015 18:18 (спустя 2 года 2 месяца)

[Q] 

Товарищи скачавшие, огромная просьба вернуться на раздачу, мне одному скачать видимо нужно))))
[Профиль]  [ЛС] 

xzxscorpxzx

Флибустьер

Пост 14-Фев-2016 01:42 (спустя 1 год)

[Q] 

супер.понравился
[Профиль]  [ЛС] 
Показать сообщения:    
Ответить на тему

Текущее время: Сегодня 04:19

Часовой пояс: GMT + 4



Вы не можете начинать темы
Вы не можете отвечать на сообщения
Вы не можете редактировать свои сообщения
Вы не можете удалять свои сообщения
Вы не можете голосовать в опросах
Вы не можете прикреплять файлы к сообщениям
Вы не можете скачивать файлы

▼ Вниз