ML
     
  Уважаемый Гость!
Вы можете поддержать проект и зарегистрироваться у наших партнеров - онлайн-стратегия MyLands. При регистрации в игре Вы получите код, который сможете активировать после регистрации на pirat.ca и получить 1000 дублонов.

Ваш код:
db0e0ad91548759ffeb9bb88bed405e1a4b3c165
 
     

Псы (Дмитрий Светозаров) [1989 г., ужасы, триллер, детектив, DVDRip]

Ответить на тему
 
Автор
Сообщение

Пост 15-Сен-2012 15:06

[Q] 

sandman1973

Гроза морей

-Псы«Просто так ничего не бывает...»-- Производство: СССР
Режиссер: Дмитрий Светозаров
Жанр: ужасы, триллер, детектив
Год выпуска: 1989 г.
Продолжительность: 01:30:00
Российская премьера: 1 января 1989
В ролях: Михаил Жигалов, Юрий Кузнецов, Андрей Краско, Александр Суснин, Николай Исполатов, Райхан Айткожанова, Алексей Крыченков, Сергей Коковкин, Андрей Николаев, Сергей Архангельский-Описание: Группа охотников направляется в заброшенный городок уничтожить волков-людоедов, жертвами которого все чаще становятся жители города. Городок раньше стоял у моря, был полон жизни, но море ушло, а на его месте образовалась безводная, безжизненная пустыня. Вода осталась только в трюме старого танкера. Волков в мертвом городе охотники не обнаружили, зато себя обнаружили самым жутким образом одичавшие собаки-людоеды, брошенные людьми. Они мстят людям за «предательство», их называют оборотнями, и авторы явно проводят параллель о том, что так и природа мстит человеку за надругательство над ней.-
Качество видео: DVDRip
Формат видео: AVI
Видео кодек: XviD
Аудио кодек: AC3
Видео: XviD, 640x496 (1.290), 1960 Kbps, 25 fps, 0,247 bpp
Аудио: AC3, 192 Kbps, CBR, 2 ch, 48,0 kHz
Общее
Полное имя : E:\Загрузки\Psy.1989.DVDRip.XviD.avi
Формат : AVI
Формат/Информация : Audio Video Interleave
Размер файла : 1,37 Гбайт
Продолжительность : 1 ч. 30 м.
Общий поток : 2162 Кбит/сек
Программа кодирования : VirtualDubMod 1.5.10.2 (build 2540/release)
Библиотека кодирования : VirtualDubMod build 2540/release
Видео
Идентификатор : 0
Формат : MPEG-4 Visual
Профиль формата : Advanced [email protected]
Параметр BVOP формата : 1
Параметр QPel формата : Нет
Параметр GMC формата : Без точки перехода
Параметр матрицы формата : Default (H.263)
Режим смешивания : Сжатый битовый поток
Идентификатор кодека : XVID
Идентификатор кодека/Подсказка : XviD
Продолжительность : 1 ч. 30 м.
Битрейт : 1960 Кбит/сек
Ширина : 640 пикселей
Высота : 496 пикселей
Соотношение сторон : 1,290
Частота кадров : 25,000 кадров/сек
Цветовое пространство : YUV
Субдискретизация насыщенности : 4:2:0
Битовая глубина : 8 бит
Тип развёртки : Прогрессивная
Метод сжатия : С потерями
Бит/(Пиксели*Кадры) : 0.247
Размер потока : 1,24 Гбайт (91%)
Библиотека кодирования : XviD 1.2.1 (UTC 2008-12-04)
Аудио
Идентификатор : 1
Формат : AC-3
Формат/Информация : Audio Coding 3
Расширение режима : CM (complete main)
Параметр Endianness формата : Big
Идентификатор кодека : 2000
Продолжительность : 1 ч. 30 м.
Вид битрейта : Постоянный
Битрейт : 192 Кбит/сек
Каналы : 2 канала
Расположение каналов : Front: L R
Частота : 48,0 КГц
Битовая глубина : 16 бит
Метод сжатия : С потерями
Размер потока : 124 Мбайт (9%)
Выравнивание : Разделение по промежуткам
Продолжительность промежутка : 40 мс. (1,00 видеокадр)
Время предзагрузки промежутка : 500 мс.
- Музыка к фильму написана и исполнена группой «Машина времени».
- Ни одно животное во время съёмок не пострадало.
Download / Скачать

Хотите скачать бесплатно? Зарегистрируйтесь на сайте (ссылка на регистрацию). Pirat.ca - самый быстрый торрент трекер в рунете!

Как скачивать  ·   Что такое торрент  ·   Рейтинг и ограничения

sandman1973 ®

Гроза морей

2129

Пост 15-Сен-2012 15:08 (спустя 1 минута)

[Q] 

Смотрел это кино еще в школе, произвело впечатление...
Наконец-то оно у меня есть!

_________________

[Профиль]  [ЛС] 

LORD OR

Корсар

Пост 12-Ноя-2012 22:01 (спустя 1 месяц 27 дней)

[Q] 

[Профиль]  [ЛС] 

ivan.tratil 67

Корсар

Пост 01-Янв-2013 21:43 (спустя 1 месяц 19 дней)

[Q] 

СПАСИБО
РЕАЛЬНО СТРАШНО
[Профиль]  [ЛС] 

Wolf111

57135

Пост 12-Янв-2013 18:42 (спустя 10 дней)

[Q] 

Помогу с раздачей
[Профиль]  [ЛС] 

litti

Флибустьер

Пост 14-Май-2013 15:59 (спустя 4 месяца 1 день)

[Q] 

Да нефига не страшно, а вот собак реально жалко-мочили по настоящему...

_________________
Маньяком быть ты не обязан,
но сексуальным должен быть...
[Профиль]  [ЛС] 

alexx2201

33

Пост 28-Янв-2016 21:47 (спустя 2 года 8 месяцев)

[Q] 

227641Смотрел это кино еще в школе, произвело впечатление...

_________________
hard приказал долго жить....
[Профиль]  [ЛС] 

xzxscorpxzx

Флибустьер

Пост 09-Фев-2016 04:36 (спустя 11 дней)

[Q] 

круто!супер! Всем качать!!!
[Профиль]  [ЛС] 
Показать сообщения:    
Ответить на тему

Текущее время: Сегодня 08:04

Часовой пояс: GMT + 4



Вы не можете начинать темы
Вы не можете отвечать на сообщения
Вы не можете редактировать свои сообщения
Вы не можете удалять свои сообщения
Вы не можете голосовать в опросах
Вы не можете прикреплять файлы к сообщениям
Вы не можете скачивать файлы

▼ Вниз