ML
     
  Уважаемый Гость!
Вы можете поддержать проект и зарегистрироваться у наших партнеров - онлайн-стратегия MyLands. При регистрации в игре Вы получите код, который сможете активировать после регистрации на pirat.ca и получить 1000 дублонов.

Ваш код:
4fbd9898b6f10799a3e8edf60f31febd2bc15453
 
     

Белорусский вокзал (Андрей Смирнов) [1971 г., драма, DVDRip]

Ответить на тему
 
Автор
Сообщение

Пост 16-Сен-2012 14:03

[Q] 

sandman1973

Гроза морей

-Белорусский вокзал-- Производство: СССР
Режиссер: Андрей Смирнов
Жанр: драма
Год выпуска: 1971 г.
Продолжительность: 01:35:21
Российская премьера: 30 апреля 1971
В ролях: Алексей Глазырин, Евгений Леонов, Анатолий Папанов, Всеволод Сафонов, Нина Ургант, Николай Волков мл., Любовь Соколова, Маргарита Терехова, Раиса Куркина, Юрий Визбор, Виктор Проскурин, Людмила Аринина, Владимир Грамматиков, Валентина Ананьина, Светлана Данильченко, Николай Граббе, Никифор Колофидин, Валерий Малышев, Юрий Орлов, Юрий Волынцев, Александр Январев, Юрий Орлов-Описание: Герои фильма расстались на Белорусском вокзале летом 1945-го. Спустя четверть века они встречаются на похоронах боевого товарища. В их душах с новой силой оживает пережитое. Время не властно над их памятью: ветераны сохранили верность фронтовой дружбе, способность жертвовать собой, неистребимую любовь к жизни.-
Качество видео: DVDRip
Формат видео: AVI
Видео кодек: XviD
Аудио кодек: AC3
Видео: 688х320, 1592 Кбит/сек, 25,000 кадров/сек
Аудио: 448 Кбит/сек, 6 каналов, 48,0 КГц
Общее
Полное имя : E:\Загрузки\Belorusskiy.vokzal.1970.XviD.DVDRip.avi
Формат : AVI
Формат/Информация : Audio Video Interleave
Размер файла : 1,37 Гбайт
Продолжительность : 1 ч. 35 м.
Общий поток : 2050 Кбит/сек
Программа кодирования : FairUse Wizard - http://fairusewizard.com
Библиотека кодирования : The best and REALLY easy backup tool
Видео
Идентификатор : 0
Формат : MPEG-4 Visual
Профиль формата : Advanced [email protected]
Параметр BVOP формата : 1
Параметр QPel формата : Нет
Параметр GMC формата : Без точки перехода
Параметр матрицы формата : Default (H.263)
Режим смешивания : Сжатый битовый поток
Идентификатор кодека : XVID
Идентификатор кодека/Подсказка : XviD
Продолжительность : 1 ч. 35 м.
Битрейт : 1592 Кбит/сек
Ширина : 688 пикселей
Высота : 320 пикселей
Соотношение сторон : 2,2:1
Частота кадров : 25,000 кадров/сек
Цветовое пространство : YUV
Субдискретизация насыщенности : 4:2:0
Битовая глубина : 8 бит
Тип развёртки : Прогрессивная
Метод сжатия : С потерями
Бит/(Пиксели*Кадры) : 0.289
Размер потока : 1,06 Гбайт (78%)
Библиотека кодирования : XviD 1.1.0 (UTC 2005-11-22)
Аудио
Идентификатор : 1
Формат : AC-3
Формат/Информация : Audio Coding 3
Расширение режима : CM (complete main)
Параметр Endianness формата : Big
Идентификатор кодека : 2000
Продолжительность : 1 ч. 35 м.
Вид битрейта : Постоянный
Битрейт : 448 Кбит/сек
Каналы : 6 каналов
Расположение каналов : Front: L C R, Side: L R, LFE
Частота : 48,0 КГц
Битовая глубина : 16 бит
Метод сжатия : С потерями
Размер потока : 305 Мбайт (22%)
Выравнивание : Разделение по промежуткам
Продолжительность промежутка : 40 мс. (1,00 видеокадр)
Время предзагрузки промежутка : 500 мс.
Download / Скачать

Хотите скачать бесплатно? Зарегистрируйтесь на сайте (ссылка на регистрацию). Pirat.ca - самый быстрый торрент трекер в рунете!

Как скачивать  ·   Что такое торрент  ·   Рейтинг и ограничения

LORD OR

Корсар

Пост 12-Ноя-2012 21:58 (спустя 1 месяц 26 дней)

[Q] 

[Профиль]  [ЛС] 

Pippo48

Корсар

Пост 19-Фев-2013 19:42 (спустя 3 месяца 6 дней)

[Q] 

[Профиль]  [ЛС] 

tumparov

Морской Волк

Пост 13-Май-2015 16:45 (спустя 2 года 2 месяца)

[Q] 

Сын подрос, пора его приобщить к святому, как я конечно не пустит скупую мужскую слезу, но может проникнится атмосферой Спасибо!!!
[Профиль]  [ЛС] 

polyk

Флибустьер

Пост 29-Сен-2015 23:51 (спустя 4 месяца 16 дней)

[Q] 

достойное кино Спасибо!!!
[Профиль]  [ЛС] 
Показать сообщения:    
Ответить на тему

Текущее время: Сегодня 19:56

Часовой пояс: GMT + 4



Вы не можете начинать темы
Вы не можете отвечать на сообщения
Вы не можете редактировать свои сообщения
Вы не можете удалять свои сообщения
Вы не можете голосовать в опросах
Вы не можете прикреплять файлы к сообщениям
Вы не можете скачивать файлы

▼ Вниз