ML
     
  Уважаемый Гость!
Вы можете поддержать проект и зарегистрироваться у наших партнеров - онлайн-стратегия MyLands. При регистрации в игре Вы получите код, который сможете активировать после регистрации на pirat.ca и получить 1000 дублонов.

Ваш код:
a6d1ef7ff63e237add5a4c8b21d8aa937c5e9b4b
 
     

Вам и не снилось (Илья Фрэз) [1981 г., драма, мелодрама, DVDRip]

Ответить на тему
 
Автор
Сообщение

Пост 17-Сен-2012 03:16

[Q] 

sandman1973

Гроза морей

-Вам и не снилось-- Производство: СССР
Режиссер: Илья Фрэз
Жанр: драма, мелодрама
Год выпуска: 1981 г.
Продолжительность: 01:26:00
Российская премьера: 23 марта 1981
Дата выхода DVD: 19 ноября 2009
В ролях: Татьяна Аксюта, Никита Михайловский, Елена Соловей, Ирина Мирошниченко, Лидия Федосеева-Шукшина, Альберт Филозов, Татьяна Пельтцер, Руфина Нифонтова, Евгений Герасимов, Леонид Филатов, Вадим Курков, Екатерина Васильева (II), Нина Мазаева, Любовь Соколова, Наталья Мартинсон, Александр Карин, Валентин Голубенко, Елена Майорова, Владимир Приходько, Дмитрий Полонский, Вадим Захарченко-Описание: Школьники Роман и Катя тянутся друг к другу со всей безоглядностью первой любви. Мать Кати очень счастлива во втором браке и в озарении этого счастья хорошо понимает дочь. Роман находит поддержку у отца, давно и безответно любящего Катину маму. Но рядом ходят люди, ничего не знающие о любви…-
Качество видео: DVDRip
Формат видео: AVI
Видео кодек: DivX
Аудио кодек: AC3
Видео: 704х512, 1811 Кбит/сек, 25,000 кадров/сек
Аудио: 448 Кбит/сек, 6 каналов, 48,0 КГц

Общее
Полное имя : E:\Загрузки\Vam.i.ne.snilosj.1980.DivX.DVDRip.avi
Формат : AVI
Формат/Информация : Audio Video Interleave
Размер файла : 1,37 Гбайт
Продолжительность : 1 ч. 26 м.
Общий поток : 2268 Кбит/сек
Программа кодирования : FairUse Wizard - http://fairusewizard.com
Библиотека кодирования : The best and REALLY easy backup tool
Видео
Идентификатор : 0
Формат : MPEG-4 Visual
Параметр BVOP формата : 1
Параметр QPel формата : Нет
Параметр GMC формата : Без точки перехода
Параметр матрицы формата : Default (H.263)
Режим смешивания : Сжатый битовый поток
Идентификатор кодека : DX50
Идентификатор кодека/Подсказка : DivX 5
Продолжительность : 1 ч. 26 м.
Битрейт : 1811 Кбит/сек
Ширина : 704 пикселя
Высота : 512 пикселей
Соотношение сторон : 1,375
Частота кадров : 25,000 кадров/сек
Цветовое пространство : YUV
Субдискретизация насыщенности : 4:2:0
Битовая глубина : 8 бит
Тип развёртки : Прогрессивная
Метод сжатия : С потерями
Бит/(Пиксели*Кадры) : 0.201
Размер потока : 1,09 Гбайт (80%)
Библиотека кодирования : DivX 6.2.5 (UTC 2006-07)
Аудио
Идентификатор : 1
Формат : AC-3
Формат/Информация : Audio Coding 3
Расширение режима : CM (complete main)
Параметр Endianness формата : Big
Идентификатор кодека : 2000
Продолжительность : 1 ч. 26 м.
Вид битрейта : Постоянный
Битрейт : 448 Кбит/сек
Каналы : 6 каналов
Расположение каналов : Front: L C R, Side: L R, LFE
Частота : 48,0 КГц
Битовая глубина : 16 бит
Метод сжатия : С потерями
Размер потока : 276 Мбайт (20%)
Выравнивание : Разделение по промежуткам
Продолжительность промежутка : 40 мс. (1,00 видеокадр)
Время предзагрузки промежутка : 500 мс.
- Татьяна Аксюта на семь лет старше своего партнёра Никиты Михайловского, которому на момент съёмок едва исполнилось шестнадцать лет. А Аксюта к тому времени уже закончила театральный вуз и вышла замуж.
- Когда режиссёр Илья Фрэз задумал экранизировать повесть Галины Щербаковой «Роман и Юлька», в Госкино ему категорично заявили: «Влюблённых зовут Роман и Юля? Это что же, ваша Щербакова себя Шекспиром возомнила? Не бывать этому!». Джульетту, то есть Юльку, пришлось заменить на Катю. Но какое имя не дай героине, это история Ромео и Джульетты нашего времени.
- Оригинальная повесть заканчивается трагически. Финал экранизации был изменен уже во время съемок.
- Фильм о любви двух подростков имел оглушительный успех. Согласно опросу журнала «Советский экран», он был признан лучшим фильмом 1981 года и получил приз на кинофестивале в Вильнюсе. А на международном кинофестивале детских и юношеских фильмов в Томаре (Португалия) Татьяне Аксюте вручили почётный диплом за лучшее исполнение главной женской роли.
- Многие сцены фильма снимались на юго-западе Москвы, в окрестностях метро Юго-Западная, там же, где проходили съёмки фильмов «Ирония Судьбы, или с лёгким паром», «Покровские Ворота», «Москва слезам не верит» и многие другие.
- Сцена зимой на балконе («Слепуха моя…») снимался с балкона 16-ого этажа дома 12, к.1 по ул. 26 Бакинских коммисаров, причём в зеркальном отражении. Из за этого даже жители района не всегда могут определить, откуда велась съёмка.
- Лучший фильм по опросу журнала «Советский экран» в 1982 году.
Download / Скачать

Хотите скачать бесплатно? Зарегистрируйтесь на сайте (ссылка на регистрацию). Pirat.ca - самый быстрый торрент трекер в рунете!

Как скачивать  ·   Что такое торрент  ·   Рейтинг и ограничения

LORD OR

Корсар

Пост 12-Ноя-2012 21:56 (спустя 1 месяц 25 дней)

[Q] 

[Профиль]  [ЛС] 

reliz82

Шкипер

49

Пост 09-Дек-2012 21:50 (спустя 26 дней)

[Q] 

[Профиль]  [ЛС] 
Показать сообщения:    
Ответить на тему

Текущее время: Сегодня 13:31

Часовой пояс: GMT + 4



Вы не можете начинать темы
Вы не можете отвечать на сообщения
Вы не можете редактировать свои сообщения
Вы не можете удалять свои сообщения
Вы не можете голосовать в опросах
Вы не можете прикреплять файлы к сообщениям
Вы не можете скачивать файлы

▼ Вниз