ML
     
  Уважаемый Гость!
Вы можете поддержать проект и зарегистрироваться у наших партнеров - онлайн-стратегия MyLands. При регистрации в игре Вы получите код, который сможете активировать после регистрации на pirat.ca и получить 1000 дублонов.

Ваш код:
fe4e93b754a7c2b306fcfc8bc32532ea1cf59d3b
 
     

Единственная (Иосиф Хейфиц) [1975 г., Драма, DVDRip]

Ответить на тему
 
Автор
Сообщение

Пост 26-Сен-2012 15:31

[Q] 

sandman1973

Гроза морей

-Единственная-- Производство: СССР, Ленфильм
Режиссер: Иосиф Хейфиц
Жанр: Драма
Год выпуска: 1975 г.
Продолжительность: 01:30:00
В ролях: Валерий Золотухин, Елена Проклова, Людмила Гладунко, Владимир Высоцкий, Лариса Малеванная, Вячеслав Невинный, Любовь Соколова, Владимир Заманский, Михаил Кокшенов, Гелий Сысоев, Аркадий Трусов, Валентина Владимирова, Александр Демьяненко, Юрий Медведев, Татьяна Пельтцер, Светлана Жгун, Владимир Лосев, Ефим Каменецкий, Людмила Старицына, Любовь Тищенко, Любовь Малиновская, Николай Дупак, Галина Чигинская, Петр Лобанов, Вера Титова, Александр Суснин-Описание: Вернувшись со срочной службы, герой фильма узнает от близких, что его любимая жена «погуливала». Он решает простить непутевой былые грехи — но счастье семейной жизни все равно оказывается недолгим. Молодой муж добивается развода, хотя жена твердит, что всегда любила только его. Он уверен, что поступает правильно, надеется на облегчение страданий. Однако его жизнь начинает идти как-то наперекосяк; ноги то и дело ведут к старому дому…-
Качество видео: DVDRip
Формат видео: AVI
Видео кодек: XviD
Аудио кодек: AC3
Видео: 704х288, 1712 Кбит/сек, 25,000 кадров/сек
Аудио: 448 Кбит/сек, 6 каналов, 48,0 КГц
Второй приз «За лучшую женскую роль» на 9-м ВКФ (1976)
Приз «За лучшее исполнение женской роли» Е. Прокловой на XV МКФ в Панаме, Центральная Америка (1976)
Общее
Полное имя : E:\Загрузки\Edinstvennaja.1975.XviD.DVDRip.avi
Формат : AVI
Формат/Информация : Audio Video Interleave
Размер файла : 1,37 Гбайт
Продолжительность : 1 ч. 30 м.
Общий поток : 2170 Кбит/сек
Программа кодирования : VirtualDubMod 1.5.10.2 (build 2540/release)
Библиотека кодирования : VirtualDubMod build 2540/release
Видео
Идентификатор : 0
Формат : MPEG-4 Visual
Профиль формата : Advanced [email protected]
Параметр BVOP формата : 2
Параметр QPel формата : Нет
Параметр GMC формата : Без точки перехода
Параметр матрицы формата : Default (MPEG)
Режим смешивания : Сжатый битовый поток
Идентификатор кодека : XVID
Идентификатор кодека/Подсказка : XviD
Продолжительность : 1 ч. 30 м.
Битрейт : 1712 Кбит/сек
Ширина : 704 пикселя
Высота : 288 пикселей
Соотношение сторон : 2,40:1
Частота кадров : 25,000 кадров/сек
Цветовое пространство : YUV
Субдискретизация насыщенности : 4:2:0
Битовая глубина : 8 бит
Тип развёртки : Прогрессивная
Метод сжатия : С потерями
Бит/(Пиксели*Кадры) : 0.338
Размер потока : 1,08 Гбайт (79%)
Библиотека кодирования : XviD 1.0.3 (UTC 2004-12-20)
Аудио
Идентификатор : 1
Формат : AC-3
Формат/Информация : Audio Coding 3
Расширение режима : CM (complete main)
Параметр Endianness формата : Big
Идентификатор кодека : 2000
Продолжительность : 1 ч. 30 м.
Вид битрейта : Постоянный
Битрейт : 448 Кбит/сек
Каналы : 6 каналов
Расположение каналов : Front: L C R, Side: L R, LFE
Частота : 48,0 КГц
Битовая глубина : 16 бит
Метод сжатия : С потерями
Размер потока : 290 Мбайт (21%)
Выравнивание : Разделение по промежуткам
Продолжительность промежутка : 40 мс. (1,00 видеокадр)
Время предзагрузки промежутка : 500 мс.
«Единственная» — художественный фильм Иосифа Хейфица по рассказу Павла Нилина «Дурь».
Иосиф Хейфиц снял фильм «Единственная» в возрасте 70-ти лет в 1975 г. Почти весь фильм снимали в Запорожье.
Одну из ключевых ролей в этом фильме должен был сыграть Владимир Высоцкий. Однако, плотный график Высоцкого не позволил приехать и решили снимать без Высоцкого, особо отметив его место в кадре так чтобы потом доснять его и смонтировать в фильм. Хейфиц включил в фильм песню в исполнении Высоцкого, причём, предложил Владимиру Семеновичу самому выбрать, что именно тот хочет петь
.
Download / Скачать

Хотите скачать бесплатно? Зарегистрируйтесь на сайте (ссылка на регистрацию). Pirat.ca - самый быстрый торрент трекер в рунете!

Как скачивать  ·   Что такое торрент  ·   Рейтинг и ограничения

Пост 26-Сен-2012 17:58 (спустя 2 часа 27 минут)

Топик был перенесен из форума Наше кино (Трюм) в форум Советское кино

genkasper
 

LORD OR

Корсар

Пост 12-Ноя-2012 21:54 (спустя 1 месяц 16 дней)

[Q] 

[Профиль]  [ЛС] 
Показать сообщения:    
Ответить на тему

Текущее время: Сегодня 14:30

Часовой пояс: GMT + 4



Вы не можете начинать темы
Вы не можете отвечать на сообщения
Вы не можете редактировать свои сообщения
Вы не можете удалять свои сообщения
Вы не можете голосовать в опросах
Вы не можете прикреплять файлы к сообщениям
Вы не можете скачивать файлы

▼ Вниз