ML
     
  Уважаемый Гость!
Вы можете поддержать проект и зарегистрироваться у наших партнеров - онлайн-стратегия MyLands. При регистрации в игре Вы получите код, который сможете активировать после регистрации на pirat.ca и получить 1000 дублонов.

Ваш код:
c89b4b6523eaac3173e9a9c062ac1a19db575961
 
     

Где находится нофелет? (Геральд Бежанов) [1987 г., мелодрама, комедия, DVDRip]

Ответить на тему
 
Автор
Сообщение

Пост 31-Окт-2012 09:05

[Q] 

sandman1973

Гроза морей

-Где находится нофелет?-- Производство: СССР
Режиссер: Геральд Бежанов
Жанр: лирическая комедия
Год выпуска: 1987 г.
Продолжительность: 01:17:00
Российская премьера: 10 мая 1988
В ролях: Владимир Меньшов, Александр Панкратов-Черный, Валентина Теличкина, Людмила Шагалова, Николай Парфёнов, Марина Дюжева, Людмила Нильская, Наталья Коновалова, Ольга Шорина, Елена Покатилова-Описание: Что такое нофелет? Это разъяснит вам один из героев фильма — Гена, который взялся с помощью нехитрого приема в два счета найти невесту своему двоюродному брату Паше, сорокалетнему холостяку.
В итоге Гена остается в дураках, а Паше надоедает попадать в смешные ситуации, и он сам находит выход их положения…-
Качество видео: DVDRip
Формат видео: AVI
Видео кодек: XviD
Аудио кодек: AC3
Видео: 704х304, 1780 Кбит/сек, 25,000 кадров/сек
Аудио: 192 Кбит/сек, 2 канала, 48,0 КГц
Общее
Полное имя : E:\Загрузки\Gde.Nakhoditsja.Nofelet.1987.XviD.DVDRip.avi
Формат : AVI
Формат/Информация : Audio Video Interleave
Размер файла : 1,07 Гбайт
Продолжительность : 1 ч. 17 м.
Общий поток : 1982 Кбит/сек
Программа кодирования : VirtualDubMod 1.5.10.2 (build 2540/release)
Библиотека кодирования : VirtualDubMod build 2540/release
Видео
Идентификатор : 0
Формат : MPEG-4 Visual
Профиль формата : Advanced [email protected]
Параметр BVOP формата : 2
Параметр QPel формата : Нет
Параметр GMC формата : Без точки перехода
Параметр матрицы формата : Default (MPEG)
Режим смешивания : Сжатый битовый поток
Идентификатор кодека : XVID
Идентификатор кодека/Подсказка : XviD
Продолжительность : 1 ч. 17 м.
Битрейт : 1780 Кбит/сек
Ширина : 704 пикселя
Высота : 304 пикселя
Соотношение сторон : 2,35:1
Частота кадров : 25,000 кадров/сек
Цветовое пространство : YUV
Субдискретизация насыщенности : 4:2:0
Битовая глубина : 8 бит
Тип развёртки : Прогрессивная
Метод сжатия : С потерями
Бит/(Пиксели*Кадры) : 0.333
Размер потока : 986 Мбайт (90%)
Библиотека кодирования : XviD 58
Аудио
Идентификатор : 1
Формат : AC-3
Формат/Информация : Audio Coding 3
Расширение режима : CM (complete main)
Параметр Endianness формата : Big
Идентификатор кодека : 2000
Продолжительность : 1 ч. 17 м.
Вид битрейта : Постоянный
Битрейт : 192 Кбит/сек
Каналы : 2 канала
Расположение каналов : Front: L R
Частота : 48,0 КГц
Битовая глубина : 16 бит
Метод сжатия : С потерями
Задержка видео : 2 мс.
Размер потока : 106 Мбайт (10%)
Выравнивание : Разделение по промежуткам
Продолжительность промежутка : 40 мс. (1,00 видеокадр)
Время предзагрузки промежутка : 500 мс.

- Фильм достаточно целомудренный, несмотря на то, что вышел в Перестройку; тема секса, рельефное раскрытие которой характерно для советского кино конца 80-х, здесь практически не поднимается.
- Композитор Александр Зацепин не написал для этого фильма ни одной новой мелодии, а только переработал уже написанные им ранее темы из фильмов «За спичками» и «Тайна третьей планеты».
- Музыкальная тема Александра Зацепина «Дождь прошёл», под которую Гена с Пашей знакомятся с девушками на улице, звучит также в фильме Л. Гайдая "Частный детектив, или Операция «Кооперация», который вышел на два года позже.
- Действие происходит в Москве — автобус ЛиАЗ-677 имеет номерной знак серии МНА. Геннадий встречается с Аллой на углу улиц Льва Толстого и Тимура Фрунзе. Эти улицы действительно находятся рядом, в районе метро «Парк Культуры», но не пересекаются, а идут параллельно.
Download / Скачать

Хотите скачать бесплатно? Зарегистрируйтесь на сайте (ссылка на регистрацию). Pirat.ca - самый быстрый торрент трекер в рунете!

Как скачивать  ·   Что такое торрент  ·   Рейтинг и ограничения

LORD OR

Корсар

Пост 12-Ноя-2012 21:39 (спустя 12 дней)

[Q] 

[Профиль]  [ЛС] 

reliz82

Шкипер

49

Пост 09-Дек-2012 21:51 (спустя 27 дней)

[Q] 

Фильм моего детства ))))
[Профиль]  [ЛС] 

keppi

Морской Волк

1896

Пост 10-Янв-2013 23:20 (спустя 1 месяц 1 день)

[Q] 


_________________
Если нет своей цели в жизни, то будешь работать на того, у кого она есть.
[Профиль]  [ЛС] 

UncleFather

Легенда

Пост 24-Мар-2013 20:57 (спустя 2 месяца 13 дней)

[Q] 


_________________
Одни боялись Пью, другие - Билли Бонса, а меня... меня боялся сам Флинт
[Профиль]  [ЛС] 

sandman1973 ®

Гроза морей

2129

Пост 09-Апр-2013 11:45 (спустя 15 дней)

[Q] 


_________________

[Профиль]  [ЛС] 
Показать сообщения:    
Ответить на тему

Текущее время: Сегодня 22:31

Часовой пояс: GMT + 4



Вы не можете начинать темы
Вы не можете отвечать на сообщения
Вы не можете редактировать свои сообщения
Вы не можете удалять свои сообщения
Вы не можете голосовать в опросах
Вы не можете прикреплять файлы к сообщениям
Вы не можете скачивать файлы

▼ Вниз