ML
     
  Уважаемый Гость!
Вы можете поддержать проект и зарегистрироваться у наших партнеров - онлайн-стратегия MyLands. При регистрации в игре Вы получите код, который сможете активировать после регистрации на pirat.ca и получить 1000 дублонов.

Ваш код:
9cfe162481db953a6549f32179d7b3900b8b8643
 
     

Сердца четырех (Константин Юдин) [1941 г., мелодрама, комедия, DVDRip-AVC]

Ответить на тему
 
Автор
Сообщение

Пост 18-Дек-2012 00:21

[Q] 

leha1975

Гроза морей

-Сердца четырех-- Производство: СССР
Режиссер: Константин Юдин
Жанр: мелодрама, комедия
Год выпуска: 1941 г.
Продолжительность: 01:29:00
Дата выхода DVD: 26 апреля 2012, «Союз-Видео»
В ролях: Валентина Серова, Евгений Самойлов, Людмила Целиковская, Павел Шпрингфельд, Лиза Дмитриевская, Ирина Мурзаева, Андрей Тутышкин, Александр Антонов, Татьяна Барышева, Всеволод Санаев-Описание: В подмосковном дачном поселке расквартирован полк танкистов. Сюжет строится вокруг двух сестер, абсолютно разных, но одинаково влюбленных. Одна — серьезный математик, другая — легкомысленная стрекоза. В центре внимания девушек бравый военный. Жизенные перипетии, смешные и сложные ситуации, интриги, слезы, радость, но все строится вокруг одного — любви.
-
Качество видео: DVDRip-AVC
Формат видео: MKV
Видео кодек: H.264
Аудио кодек: AC3
Видео: 2 569 Kbps, 720*528 pixels, 4:3, 25.000 fps
Аудио: 48 kHz AC3 Dolby Digital 2/0 (L,R) ch 192 kbps
Аудио 2: 48 kHz AC3 Dolby Digital 1 ch 128 kbps
Cубтитры: отсутствуют
F:\pirat.ca\РАЗДАЧИ-4\Сердца четырёх.mkv
General
Unique ID : 227317557390153471258334574859815504211 (0xAB03C4E186DD2BDD9D4CC2392A3C4953)
Complete name : F:\pirat.ca\РАЗДАЧИ-4\Сердца четырёх.mkv
Format : Matroska
File size : 1.80 GiB
Duration : 1h 29mn
Overall bit rate : 2 877 Kbps
Encoded date : UTC 2012-09-25 17:54:13
Writing application : mkvmerge v4.0.0 ('The Stars were mine') сборка от Jun 6 2010 16:18:42
Writing library : libebml v1.0.0 + libmatroska v1.0.0
Video #1
ID : 1
Format : AVC
Format/Info : Advanced Video Codec
Format profile : [email protected]
Format settings, CABAC : Yes
Format settings, ReFrames : 4 frames
Codec ID : V_MPEG4/ISO/AVC
Duration : 1h 29mn
Bit rate : 2 569 Kbps
Width : 720 pixels
Height : 528 pixels
Display aspect ratio : 4:3
Frame rate : 25.000 fps
Color space : YUV
Chroma subsampling : 4:2:0
Bit depth : 8 bits
Scan type : Progressive
Bits/(Pixel*Frame) : 0.270
Stream size : 1.57 GiB (87%)
Writing library : x264 core 125 r2208 d9d2288
Encoding settings : cabac=1 / ref=4 / deblock=1:-1:-1 / analyse=0x3:0x133 / me=umh / subme=7 / psy=1 / psy_rd=1.00:0.15 / mixed_ref=1 / me_range=16 / chroma_me=1 / trellis=2 / 8x8dct=1 / cqm=0 / deadzone=21,11 / fast_pskip=0 / chroma_qp_offset=-3 / threads=12 / lookahead_threads=2 / sliced_threads=0 / nr=0 / decimate=1 / interlaced=0 / bluray_compat=0 / constrained_intra=0 / bframes=3 / b_pyramid=2 / b_adapt=2 / b_bias=0 / direct=1 / weightb=1 / open_gop=0 / weightp=2 / keyint=250 / keyint_min=25 / scenecut=40 / intra_refresh=0 / rc_lookahead=50 / rc=abr / mbtree=1 / bitrate=2569 / ratetol=1.0 / qcomp=0.60 / qpmin=0 / qpmax=69 / qpstep=4 / ip_ratio=1.40 / aq=1:1.00
Audio #2
ID : 2
Format : AC-3
Format/Info : Audio Coding 3
Mode extension : CM (complete main)
Codec ID : A_AC3
Duration : 1h 29mn
Bit rate mode : Constant
Bit rate : 192 Kbps
Channel(s) : 2 channels
Channel positions : Front: L R
Sampling rate : 48.0 KHz
Bit depth : 16 bits
Compression mode : Lossy
Stream size : 123 MiB (7%)
Audio #3
ID : 3
Format : AC-3
Format/Info : Audio Coding 3
Mode extension : CM (complete main)
Codec ID : A_AC3
Duration : 1h 29mn
Bit rate mode : Constant
Bit rate : 128 Kbps
Channel(s) : 1 channel
Channel positions : Front: C
Sampling rate : 48.0 KHz
Bit depth : 16 bits
Compression mode : Lossy
Stream size : 82.1 MiB (4%)
Download / Скачать

Хотите скачать бесплатно? Зарегистрируйтесь на сайте (ссылка на регистрацию). Pirat.ca - самый быстрый торрент трекер в рунете!

Как скачивать  ·   Что такое торрент  ·   Рейтинг и ограничения

Пост 18-Дек-2012 00:46 (спустя 25 минут)

Топик был перенесен из форума Наше кино (Трюм) в форум Советское кино

erchine
 

UncleFather

Легенда

Пост 24-Мар-2013 21:03 (спустя 3 месяца 6 дней)

[Q] 


_________________
Одни боялись Пью, другие - Билли Бонса, а меня... меня боялся сам Флинт
[Профиль]  [ЛС] 
Показать сообщения:    
Ответить на тему

Текущее время: Сегодня 06:03

Часовой пояс: GMT + 4



Вы не можете начинать темы
Вы не можете отвечать на сообщения
Вы не можете редактировать свои сообщения
Вы не можете удалять свои сообщения
Вы не можете голосовать в опросах
Вы не можете прикреплять файлы к сообщениям
Вы не можете скачивать файлы

▼ Вниз