ML
     
  Уважаемый Гость!
Вы можете поддержать проект и зарегистрироваться у наших партнеров - онлайн-стратегия MyLands. При регистрации в игре Вы получите код, который сможете активировать после регистрации на pirat.ca и получить 1000 дублонов.

Ваш код:
5af7de75d3db09b6a37bc8bab71b0e87ccde73d6
 
     

Раз на раз не приходится (Ара Габриэлян) [1987 г., Комедия, SATRip-AVC]

Ответить на тему
 
Автор
Сообщение

Пост 18-Дек-2012 02:26

[Q] 

leha1975

Гроза морей

-Раз на раз не приходится-- Производство: СССР
Режиссер: Ара Габриэлян
Жанр: Комедия
Год выпуска: 1987 г.
Продолжительность: 01:12:37
В ролях: Леонид Куравлев,Армен Джигарханян,Борислав Брондуков,Любовь Полищук,Виктор Кремлев,Борис Иванов,Капитолина Ильенко-Описание: Два дружка, строители-штрафники, и новенький - прибывший из мест заключения - направляются на снос старых домов и в руинах одного из ветхих жилищ находят шкатулку с золотыми слитками. Далее интрига картины строится вокруг проблемы сбыта золота.
-КиноПоиск
Качество видео: SATRip-AVC
Формат видео: MKV
Видео кодек: H.264
Аудио кодек: AC3
Видео: 2 491 Kbps, 720*384 pixels, 25.000 fps
Аудио: 48 kHz, AC3 Dolby Digital, 2/0 (L,R) ch, ~192.00 kbps avg
Cубтитры: отсутствуют
F:\pirat.ca\РАЗДАЧИ-4\Раз на раз не приходится.mkv
General
Unique ID : 211313836385520332476011739263851975824 (0x9EF990841BE0F9E5A5C1401F41425490)
Complete name : F:\pirat.ca\РАЗДАЧИ-4\Раз на раз не приходится.mkv
Format : Matroska
File size : 1.36 GiB
Duration : 1h 12mn
Overall bit rate : 2 685 Kbps
Encoded date : UTC 2012-08-08 05:34:25
Writing application : mkvmerge v5.0.1 ('Es ist Sommer') built on Nov 6 2011 16:23:40
Writing library : libebml v1.2.2 + libmatroska v1.3.0
Video #1
ID : 1
Format : AVC
Format/Info : Advanced Video Codec
Format profile : [email protected]
Format settings, CABAC : Yes
Format settings, ReFrames : 4 frames
Codec ID : V_MPEG4/ISO/AVC
Duration : 1h 12mn
Bit rate : 2 491 Kbps
Width : 720 pixels
Height : 384 pixels
Display aspect ratio : 1.875
Frame rate : 25.000 fps
Color space : YUV
Chroma subsampling : 4:2:0
Bit depth : 8 bits
Scan type : Progressive
Bits/(Pixel*Frame) : 0.360
Stream size : 1.24 GiB (91%)
Writing library : x264 core 119 r2106 07efeb4
Encoding settings : cabac=1 / ref=4 / deblock=1:-1:-1 / analyse=0x3:0x133 / me=hex / subme=7 / psy=1 / psy_rd=1.00:0.15 / mixed_ref=1 / me_range=16 / chroma_me=1 / trellis=1 / 8x8dct=1 / cqm=0 / deadzone=21,11 / fast_pskip=1 / chroma_qp_offset=-3 / threads=12 / sliced_threads=0 / nr=0 / decimate=1 / interlaced=0 / bluray_compat=0 / constrained_intra=0 / bframes=4 / b_pyramid=2 / b_adapt=1 / b_bias=0 / direct=3 / weightb=1 / open_gop=0 / weightp=2 / keyint=250 / keyint_min=25 / scenecut=40 / intra_refresh=0 / rc_lookahead=40 / rc=2pass / mbtree=1 / bitrate=2491 / ratetol=1.0 / qcomp=0.60 / qpmin=0 / qpmax=69 / qpstep=4 / cplxblur=20.0 / qblur=0.5 / ip_ratio=1.40 / aq=1:1.00
Audio #2
ID : 2
Format : AC-3
Format/Info : Audio Coding 3
Mode extension : CM (complete main)
Codec ID : A_AC3
Duration : 1h 12mn
Bit rate mode : Constant
Bit rate : 192 Kbps
Channel(s) : 2 channels
Channel positions : Front: L R
Sampling rate : 48.0 KHz
Bit depth : 16 bits
Compression mode : Lossy
Stream size : 99.6 MiB (7%)
Download / Скачать

Хотите скачать бесплатно? Зарегистрируйтесь на сайте (ссылка на регистрацию). Pirat.ca - самый быстрый торрент трекер в рунете!

Как скачивать  ·   Что такое торрент  ·   Рейтинг и ограничения

Пост 18-Дек-2012 08:40 (спустя 6 часов)

Топик был перенесен из форума Наше кино (Трюм) в форум Советское кино

ara1205
 

UncleFather

Легенда

Пост 24-Мар-2013 21:01 (спустя 3 месяца 6 дней)

[Q] 


_________________
Одни боялись Пью, другие - Билли Бонса, а меня... меня боялся сам Флинт
[Профиль]  [ЛС] 
Показать сообщения:    
Ответить на тему

Текущее время: Сегодня 14:10

Часовой пояс: GMT + 4



Вы не можете начинать темы
Вы не можете отвечать на сообщения
Вы не можете редактировать свои сообщения
Вы не можете удалять свои сообщения
Вы не можете голосовать в опросах
Вы не можете прикреплять файлы к сообщениям
Вы не можете скачивать файлы

▼ Вниз