ML
     
  Уважаемый Гость!
Вы можете поддержать проект и зарегистрироваться у наших партнеров - онлайн-стратегия MyLands. При регистрации в игре Вы получите код, который сможете активировать после регистрации на pirat.ca и получить 1000 дублонов.

Ваш код:
9cfe162481db953a6549f32179d7b3900b8b8643
 
     

Холодное лето пятьдесят третьего (Александр Прошкин) [1987 г., драма, DVDRip]

Ответить на тему
 
Автор
Сообщение

Пост 19-Фев-2013 22:50

[Q] 

zeleboba51

Шкипер

-Холодное лето пятьдесят третьего-- Производство: СССР
Режиссер: Александр Прошкин
Жанр: драма
Год выпуска: 1987 г.
Продолжительность: 01:36:04
В ролях: Валерий Приемыхов, Анатолий Папанов, Виктор Степанов, Нина Усатова, Зоя Буряк, Юрий Кузнецов, Владимир Кашпур, Сергей Власов, Владимир Головин, Андрей Дударенко, Александр Завьялов, Алексей Колесник, Виктор Косых, Борис Плотников, Елизавета Солодова, Д.Карпова, К.Лабутин, Татьяна Лебедькова, С.Мартанов, В.Назаров.-Описание: 1953 год. В тайге скрывается амнистированная группа уголовников, совершающих одно за другим тяжкие преступления. В поисках еды и средств передвижения они набредают на деревушку, где в ожидании катера находятся двое амнистированных политзаключенных. Этим двоим и предстоит спасти беспомощных жителей от банды рецидивистов...-Качество видео: DVDRip
Контейнер: AVI
Видео кодек: XviD
Аудио кодек: AC3
Видео: 688x512 (1.34:1), 25 fps, XviD MPEG-4 ~1716 kbps avg 0.195 bit/pixel
Аудио: 48 kHz, AC3 Dolby Digital, 3/2 (L,C,R,l,r) + LFE ch, ~448.00 kbps avg
Cубтитры: отсутствуют
- Премия "Ника" в номинации "Лучший игровой фильм" (1988 год);
- Гран-при Международного кинофестиваля в Валансьене (Франция, 1989 год);
- Приз Международного кинофестиваля в Хихоне (Испания, 1989 год).
Формат : AVI
Формат/Информация : Audio Video Interleave
Размер файла : 1,46 Гбайт
Продолжительность : 1 ч. 36 м.
Общий поток : 2174 Кбит/сек
Программа кодирования : VirtualDubModRus 1.5.10.2 (build 2542/release)
Библиотека кодирования : VirtualDubMod build 2542/release
Видео
Идентификатор : 0
Формат : MPEG-4 Visual
Профиль формата : Advanced [email protected]
Параметр BVOP формата : 2
Параметр QPel формата : Нет
Параметр GMC формата : Без точки перехода
Параметр матрицы формата : Default (MPEG)
Режим смешивания : Сжатый битовый поток
Идентификатор кодека : XVID
Идентификатор кодека/Подсказка : XviD
Продолжительность : 1 ч. 36 м.
Битрейт : 1716 Кбит/сек
Ширина : 688 пикселей
Высота : 512 пикселей
Соотношение сторон : 4:3
Частота кадров : 25,000 кадров/сек
Цветовое пространство : YUV
Субдискретизация насыщенности : 4:2:0
Битовая глубина : 8 бит
Тип развёртки : Прогрессивная
Метод сжатия : С потерями
Бит/(Пиксели*Кадры) : 0.195
Размер потока : 1,15 Гбайт (79%)
Библиотека кодирования : XviD 1.2.1 (UTC 2008-12-04)
Аудио
Идентификатор : 1
Формат : AC-3
Формат/Информация : Audio Coding 3
Расширение режима : CM (complete main)
Параметр Endianness формата : Big
Идентификатор кодека : 2000
Продолжительность : 1 ч. 36 м.
Вид битрейта : Постоянный
Битрейт : 448 Кбит/сек
Каналы : 6 каналов
Расположение каналов : Front: L C R, Side: L R, LFE
Частота : 48,0 КГц
Битовая глубина : 16 бит
Метод сжатия : С потерями
Размер потока : 308 Мбайт (21%)
Выравнивание : Соединение по промежуткам
Продолжительность промежутка : 40 мс. (1,00 видеокадр)
Время предзагрузки промежутка : 512 мс.
Роль Копалыча, которого играл А.Папанов (это его последняя работа в кино), озвучил Игорь Ефимов.
Лучший фильм года, Валерий Приемыхов - лучший актер года по опросу журнала "Советский экран".
Download / Скачать

Хотите скачать бесплатно? Зарегистрируйтесь на сайте (ссылка на регистрацию). Pirat.ca - самый быстрый торрент трекер в рунете!

Как скачивать  ·   Что такое торрент  ·   Рейтинг и ограничения

zeleboba51 ®

Шкипер

217

Пост 19-Фев-2013 22:53 (спустя 2 минуты)

[Q] 


_________________

[Профиль]  [ЛС] 

Пост 19-Фев-2013 23:38 (спустя 45 минут)

Топик был перенесен из форума Наше кино (Трюм) в форум Советское кино

erchine
 

ivan836

Морской Волк

Пост 20-Фев-2013 10:55 (спустя 12 часов)

[Q] 

Такие фильмы надо, что-бы все смотрели. Отличный фильм. Человеческое спасибо. aa ay
[Профиль]  [ЛС] 

Nitro

Корсар

Пост 20-Фев-2013 16:43 (спустя 5 часов)

[Q] 

Да, фильм классный! Пусть молодежь посмотрит, ато привыкли к боевикам...
[Профиль]  [ЛС] 

zeleboba51 ®

Шкипер

217

Пост 20-Фев-2013 18:05 (спустя 1 час 21 минута)

[Q] 


_________________

[Профиль]  [ЛС] 

Filimonia

Корсар

Пост 21-Фев-2013 22:23 (спустя 1 день 4 часа)

[Q] 

Очень хороший фильм
[Профиль]  [ЛС] 

MihaMiha66

Морской Волк

Пост 22-Фев-2013 02:04 (спустя 3 часа)

[Q] 

[Профиль]  [ЛС] 

zeleboba51 ®

Шкипер

217

Пост 22-Фев-2013 14:31 (спустя 12 часов)

[Q] 


_________________

[Профиль]  [ЛС] 
Показать сообщения:    
Ответить на тему

Текущее время: Сегодня 06:00

Часовой пояс: GMT + 4



Вы не можете начинать темы
Вы не можете отвечать на сообщения
Вы не можете редактировать свои сообщения
Вы не можете удалять свои сообщения
Вы не можете голосовать в опросах
Вы не можете прикреплять файлы к сообщениям
Вы не можете скачивать файлы

▼ Вниз