ML
     
  Уважаемый Гость!
Вы можете поддержать проект и зарегистрироваться у наших партнеров - онлайн-стратегия MyLands. При регистрации в игре Вы получите код, который сможете активировать после регистрации на pirat.ca и получить 1000 дублонов.

Ваш код:
c3360d664ceb84802c84b88ed062a5d134e2ba97
 
     

Высота (Александр Зархи) [1957 г., Социальная драма, DVDRip]

Ответить на тему
 
Автор
Сообщение

Пост 20-Дек-2011 19:04

[Q] 

avzaytsev

Морской Волк

Высота
Год выпуска: 1957
Мировая премьера: 29 апреля 1957
Производство: СССР
Жанр: Социальная драма
Продолжительность: 1:28:09
Режиссер: Александр Зархи
В ролях: Инна Макарова, Марианна, Борис Ситко, Василий Макаров, Хорен Абрамян, Владимир Поболь, Николай Рыбников, Леонид Чубаров, Геннадий Карнович-Валуа, Елена Максимова, Евгений Зиновьев, Лев Борисов, Михаил Воробьев, Валентин Печников, Сергей Ромоданов
Описание: Действие разворачивается на одной из строек в Советском Союзе. Николай Пасечник трудится на этой стройке. Здесь он случайно знакомится с монтажницей Катериной. У них завязываются дружеские отношения, которые постепенно перерастают в настоящие чувства. Сложность заключается в том, что Катя до этого водила дружбу не с очень хорошей компанией. Начав общаться с Колей она меняется в лучшую сторону. Однажды на стройке происходит несчастный случай - Николай срывается с высоты. Он попадает в больницу, и Катя находится постоянно рядом с ним
IMDB, КиноПоиск
Источник/Качество: DVDRip
Формат: AVI
Видео кодек: DivX
Аудио кодек: MP3
Видео: 640x464 (1.38:1), 25 fps, DivX Codec 5.2.1 build 1328 ~973 kbps avg, 0.13 bit/pixel
Аудио: 48 kHz, MPEG Layer 3, 2 ch, ~128.00 kbps avg
Лучший фильм 1957 года по опросу СЭ
Призы: Карловы Вары-57; Москва-57; ВКФ-58 (Москва)
Общее
Полное имя : Высота.avi
Формат : AVI
Формат/Информация : Audio Video Interleave
Размер файла : 701 Мбайт
Продолжительность : 1 ч. 28 м.
Общий поток : 1111 Кбит/сек
Режиссёр : KAMO
Жанр : Drama
Программа кодирования : VirtualDubMod 1.5.10.1 (build 2439/release)
Формат оригинала/Имя : Movie
Видео
Идентификатор : 0
Формат : MPEG-4 Visual
Параметр BVOP формата : 1
Параметр QPel формата : Нет
Параметр GMC формата : Без точки перехода
Параметр матрицы формата : Default (H.263)
Режим смешивания : Сжатый битовый поток
Идентификатор кодека : DX50
Идентификатор кодека/Подсказка : DivX 5
Продолжительность : 1 ч. 28 м.
Битрейт : 974 Кбит/сек
Ширина : 640 пикселей
Высота : 464 пикселя
Соотношение сторон : 1,379
Частота кадров : 25,000 кадров/сек
Цветовое пространство : YUV
Субдискретизация насыщенности : 4:2:0
Битовая глубина : 8 бит
Тип развёртки : Прогрессивная
Метод сжатия : С потерями
Бит/(Пиксели*Кадры) : 0.131
Размер потока : 614 Мбайт (88%)
Библиотека кодирования : DivX 5.2.1 (WaffleDay) (UTC 2004-09-08)
Аудио
Идентификатор : 1
Формат : MPEG Audio
Версия формата : Version 1
Профиль формата : Layer 3
Режим : Dual mono
Идентификатор кодека : 55
Идентификатор кодека/Подсказка : MP3
Продолжительность : 1 ч. 28 м.
Вид битрейта : Постоянный
Битрейт : 128 Кбит/сек
Каналы : 2 канала
Частота : 48,0 КГц
Метод сжатия : С потерями
Размер потока : 80,7 Мбайт (12%)
Выравнивание : Соединение по промежуткам
Продолжительность промежутка : 40 мс. (1,00 видеокадр)
Время предзагрузки промежутка : 504 мс.




Download / Скачать

Хотите скачать бесплатно? Зарегистрируйтесь на сайте (ссылка на регистрацию). Pirat.ca - самый быстрый торрент трекер в рунете!

Как скачивать  ·   Что такое торрент  ·   Рейтинг и ограничения

Пост 21-Дек-2011 09:47 (спустя 14 часов)

Топик был перенесен из форума Наше Кино в форум Советское кино

Skinwalker
 

fat2010

Штурман

Пост 31-Янв-2012 05:20 (спустя 1 месяц 10 дней)

[Q] 

Спасибо за классный фильм и хорошее качество!
[Профиль]  [ЛС] 

Sergunatt

Шкипер

Пост 14-Дек-2012 19:16 (спустя 10 месяцев 14 дней)

[Q] 

[Профиль]  [ЛС] 

and48

Корсар

169

Пост 02-Янв-2013 15:10 (спустя 18 дней)

[Q] 

[Профиль]  [ЛС] 

UncleFather

Легенда

Пост 16-Мар-2013 09:27 (спустя 2 месяца 13 дней)

[Q] 


_________________
Одни боялись Пью, другие - Билли Бонса, а меня... меня боялся сам Флинт
[Профиль]  [ЛС] 

alex denver71

Флибустьер

Пост 22-Ноя-2014 15:00 (спустя 1 год 8 месяцев)

[Q] 

Автору респект!!! Замечательнейший фильм cy
[Профиль]  [ЛС] 
Показать сообщения:    
Ответить на тему

Текущее время: Сегодня 10:08

Часовой пояс: GMT + 4



Вы не можете начинать темы
Вы не можете отвечать на сообщения
Вы не можете редактировать свои сообщения
Вы не можете удалять свои сообщения
Вы не можете голосовать в опросах
Вы не можете прикреплять файлы к сообщениям
Вы не можете скачивать файлы

▼ Вниз