ML
     
  Уважаемый Гость!
Вы можете поддержать проект и зарегистрироваться у наших партнеров - онлайн-стратегия MyLands. При регистрации в игре Вы получите код, который сможете активировать после регистрации на pirat.ca и получить 1000 дублонов.

Ваш код:
e6008d9811a0b6a1393c3dc51ecd7bc35637bc21
 
     

Отставной козы барабанщик (Георгий Мыльников) [1981 г., Трагикомедия, DVDRip]

Ответить на тему
 
Автор
Сообщение

Пост 22-Апр-2013 11:57

[Q] 

a1b1c1

Гроза морей

-Отставной козы барабанщик -- Производство: СССР , Мосфильм
Режиссер: Георгий Мыльников
Жанр: Трагикомедия
Год выпуска: 1981 г.
Продолжительность: 01:10:51
В ролях: Георгий Бурков, Татьяна Пельтцер, Галина Польских, Нелли Волшанинова, Петр Вельяминов, Иван Рыжов, Евгений Шутов, Муза Крепкогорская, Борис Токарев, Сергей Тегин, Андрей Комаров, Оксана Горошкевич-Описание: Уж пятый десяток пошел герою картины, а он все еще продолжает искать свое место в жизни и этой самой жизни смысл. Перепробовав с десяток профессий, работает сантехником — и считает, что тоже временно. Жена в сердцах называет его «отставной козы барабанщиком».
Глубоко страдающий, он оставляет семью и едет в деревню к матери, нарядившись при этом в одолженную у соседа форму капитана дальнего плавания. Эта поездка на многое раскроет ему глаза…-КиноПоиск
Качество видео: DVDRip
Контейнер: AVI
Видео кодек: DivX
Аудио кодек: AC3
Видео: 720x336 (2.14:1), 25 fps, DivX Codec 5.x or 6.x ~2005 kbps avg
Аудио: 48 kHz, AC3 Dolby Digital, 2/0 (L,R) ch, ~192 kbps
Cубтитры: отсутствуют
Общее
Полное имя : Otstavnoy_kozi_barabanchik.DVDRip(pirat.ca).avi
Формат : AVI
Формат/Информация : Audio Video Interleave
Размер файла : 1,09 Гбайт
Продолжительность : 1 ч. 10 м.
Общий поток : 2207 Кбит/сек
Программа кодирования : VirtualDubModRus 1.5.10.2 (build 2542/release)
Библиотека кодирования : VirtualDubMod build 2542/release
Видео
Идентификатор : 0
Формат : MPEG-4 Visual
Параметр BVOP формата : Да
Параметр QPel формата : Нет
Параметр GMC формата : Без точки перехода
Параметр матрицы формата : Default (H.263)
Идентификатор кодека : DX50
Идентификатор кодека/Подсказка : DivX 5
Продолжительность : 1 ч. 10 м.
Битрейт : 2006 Кбит/сек
Ширина : 720 пикселей
Высота : 336 пикселей
Соотношение сторон : 2,143
Частота кадров : 25,000 кадров/сек
Цветовое пространство : YUV
Субдискретизация насыщенности : 4:2:0
Битовая глубина : 8 бит
Тип развёртки : Прогрессивная
Метод сжатия : С потерями
Бит/(Пиксели*Кадры) : 0.332
Размер потока : 1017 Мбайт (91%)
Библиотека кодирования : DivX 6.8.3-6.8.4 (UTC 2008-06-07)
Аудио
Идентификатор : 1
Формат : AC-3
Формат/Информация : Audio Coding 3
Расширение режима : CM (complete main)
Параметр Endianness формата : Big
Идентификатор кодека : 2000
Продолжительность : 1 ч. 10 м.
Вид битрейта : Постоянный
Битрейт : 192 Кбит/сек
Каналы : 2 канала
Расположение каналов : Front: L R
Частота : 48,0 КГц
Битовая глубина : 16 бит
Метод сжатия : С потерями
Размер потока : 97,3 Мбайт (9%)
Выравнивание : Соединение по промежуткам
Продолжительность промежутка : 40 мс. (1,00 видеокадр)
Время предзагрузки промежутка : 512 мс.
“Отставной козы барабанщик” значение
Так в XIX веке называли людей без определенного рода деятельности, а порой и просто маленьких или забытых людей, которые кое-как кормятся какими-нибудь случайными и никому не нужными делами. Откуда же родилось на свет это шуточное понятие?
До самой революции в глуши можно было узреть бродячую труппу или нищих: поводыря с ученым медведем, показывавшим разнообразные «штуки», или «козу» – человека, на голову которого укрепляли грубое подобие козьей головы из мешка, и «барабанщика», чаще всего из отставных солдат, которые барабанным боем призывали «публику» на зрелище.
Оказаться на положении «отставного барабанщика при козе», что значит потерять и эту работу, было уже полнейшим пределом бедствия. Возможно, у бродячих трупп в языке и надо искать корни этого образного выражения.
http://frazbook.ru/2011/08/11/otstavnoj-kozy-barabanshhik/
Download / Скачать

Хотите скачать бесплатно? Зарегистрируйтесь на сайте (ссылка на регистрацию). Pirat.ca - самый быстрый торрент трекер в рунете!

Как скачивать  ·   Что такое торрент  ·   Рейтинг и ограничения



Последний раз редактировалось: a1b1c1 (2013-04-22 19:44), всего редактировалось 9 раз(а)

Саша1959

Флибустьер

Пост 22-Апр-2013 12:06 (спустя 9 минут)

[Q] 

[Профиль]  [ЛС] 

Oksika

Флибустьер

Пост 22-Апр-2013 14:39 (спустя 2 часа 33 минуты)

[Q] 

Душевное кино.
[Профиль]  [ЛС] 

a1b1c1 ®

Гроза морей

6889

Пост 22-Апр-2013 18:32 (спустя 3 часа)

[Q] 

Просьба перекачать заново , т.к. заменил исходный файл.
[Профиль]  [ЛС] 

Nitro

Корсар

Пост 23-Апр-2013 23:59 (спустя 1 день 5 часов)

[Q] 

[Профиль]  [ЛС] 

Senidel

Шкипер

Пост 24-Апр-2013 09:44 (спустя 9 часов)

[Q] 

Эх, ностальгия. :)
[Профиль]  [ЛС] 

grey7

Корсар

Пост 25-Апр-2013 09:40 (спустя 23 часа)

[Q] 


_________________
Думаю
[Профиль]  [ЛС] 

prohodilmimo

Корсар

24

Пост 25-Апр-2013 17:03 (спустя 7 часов)

[Q] 

Чет не помню фильм, может редко показывали?
[Профиль]  [ЛС] 
Показать сообщения:    
Ответить на тему

Текущее время: Сегодня 02:01

Часовой пояс: GMT + 4



Вы не можете начинать темы
Вы не можете отвечать на сообщения
Вы не можете редактировать свои сообщения
Вы не можете удалять свои сообщения
Вы не можете голосовать в опросах
Вы не можете прикреплять файлы к сообщениям
Вы не можете скачивать файлы

▼ Вниз