ML
     
  Уважаемый Гость!
Вы можете поддержать проект и зарегистрироваться у наших партнеров - онлайн-стратегия MyLands. При регистрации в игре Вы получите код, который сможете активировать после регистрации на pirat.ca и получить 1000 дублонов.

Ваш код:
ea554e7ed3eacceeae87a8b30a9de3f086c18a84
 
     

Отряд особого назначения (Вадим Лысенко) [1978 г., ВОВ, драма, DVDRip]

Ответить на тему
 
Автор
Сообщение

Пост 04-Май-2013 10:46

[Q] 

cergo

Гроза морей

-Отряд особого назначения-- Производство: СССР, Одесская Киностудия
Режиссер: Вадим Лысенко
Жанр: ВОВ, драма
Год выпуска: 1978 г.
Продолжительность: 01:12:54
Российская премьера: 13 февраля 1979
Дата выхода DVD: 20 августа 2009, «Флагман-Трейд»
-В ролях: Леонхард Мерзин, Павел Ремезов, Леонид Шумский, Улдис Пуцитис, Элгуджа Бурдули, Сергей Иванов, Марина Трошина, Улдис Лиелдидж, Юрий Пузырев, Ольгерт Кродерс, Александр Тартышников, Юрий Муравицкий, Валерий Полетаев, Борис Руднев, Марина Самойлова, Аркадий Свидерский, Марк Толмачев, Олег Федулов, Валерий Иняткин-Описание: Штурмовая группа из спортсменов, умеющих снайперски стрелять, бегать, прыгать, свободно чувствовать себя в воде и под водой, выдерживать чудовищную нагрузку рукопашных схваток, сможет добраться до цели только идя вместе, передавая задание как эстафету. Их семеро. Среди них девушка – пловчиха. Ей предстоит самый сложный, последний этап пути. В основе сюжета реальные факты Великой отечественной войны.-КиноПоиск
Качество видео: DVDRip
Контейнер: AVI
Видео кодек: XviD
Аудио кодек: AC3
Видео: 704x304 (2.32:1), 25 fps, XviD MPEG-4 ~2217 kbps avg, 0.41 bit/pixel
Аудио: 48 kHz, AC3 Dolby Digital, 3/2 (L,C,R,l,r) + LFE ch, ~448 kbps
Cубтитры: отсутствуют
Общее
Полное имя : D:\Otrjad.osobogo.naznachenija.1978.XviD.DVDRip.avi
Формат : AVI
Формат/Информация : Audio Video Interleave
Размер файла : 1,36 Гбайт
Продолжительность : 1 ч. 12 м.
Общий поток : 2673 Кбит/сек
Программа кодирования : VirtualDubMod 1.5.10.2 (build 2540/release)
Библиотека кодирования : VirtualDubMod build 2540/release
Видео
Идентификатор : 0
Формат : MPEG-4 Visual
Профиль формата : Advanced [email protected]
Параметр BVOP формата : 2
Параметр QPel формата : Нет
Параметр GMC формата : Без точки перехода
Параметр матрицы формата : Default (MPEG)
Режим смешивания : Сжатый битовый поток
Идентификатор кодека : XVID
Идентификатор кодека/Подсказка : XviD
Продолжительность : 1 ч. 12 м.
Битрейт : 2218 Кбит/сек
Ширина : 704 пикселя
Высота : 304 пикселя
Соотношение сторон : 2,35:1
Частота кадров : 25,000 кадров/сек
Цветовое пространство : YUV
Субдискретизация насыщенности : 4:2:0
Битовая глубина : 8 бит
Тип развёртки : Прогрессивная
Метод сжатия : С потерями
Бит/(Пиксели*Кадры) : 0.415
Размер потока : 1,13 Гбайт (83%)
Библиотека кодирования : XviD 1.2.0.dev47 (UTC 2006-11-01)
Аудио
Идентификатор : 1
Формат : AC-3
Формат/Информация : Audio Coding 3
Расширение режима : CM (complete main)
Параметр Endianness формата : Big
Идентификатор кодека : 2000
Продолжительность : 1 ч. 12 м.
Вид битрейта : Постоянный
Битрейт : 448 Кбит/сек
Каналы : 6 каналов
Расположение каналов : Front: L C R, Side: L R, LFE
Частота : 48,0 КГц
Битовая глубина : 16 бит
Метод сжатия : С потерями
Размер потока : 232 Мбайт (17%)
Выравнивание : Разделение по промежуткам
Продолжительность промежутка : 40 мс. (1,01 видеокадр)
Время предзагрузки промежутка : 500 мс.
Download / Скачать

Хотите скачать бесплатно? Зарегистрируйтесь на сайте (ссылка на регистрацию). Pirat.ca - самый быстрый торрент трекер в рунете!

Как скачивать  ·   Что такое торрент  ·   Рейтинг и ограничения

Пост 04-Май-2013 11:31 (спустя 45 минут)

Топик был перенесен из форума Наше кино (Трюм) в форум Советское кино

erchine
 

Nitro

Корсар

Пост 04-Май-2013 22:28 (спустя 11 часов)

[Q] 


Где ты берешь фильмы в таком качестве. Респект и уважуха. aa
[Профиль]  [ЛС] 

cergo ®

Гроза морей

20035

Пост 04-Май-2013 23:52 (спустя 1 час 23 минуты)

[Q] 

365555
Где ты берешь фильмы в таком качестве. Респект и уважуха. aa
на бескрайних просторах инета. конкретного места нет конечно. Удачи. aa az
[Профиль]  [ЛС] 

litti

Флибустьер

Пост 11-Май-2013 21:52 (спустя 6 дней)

[Q] 


_________________
Маньяком быть ты не обязан,
но сексуальным должен быть...
[Профиль]  [ЛС] 

viktor41

Шкипер

Пост 30-Окт-2013 20:31 (спустя 5 месяцев 18 дней)

[Q] 

cergo Спасибочки ! фильм класс . Супер! Автору респект!!!
[Профиль]  [ЛС] 

CHARLI2236

1090

Пост 12-Мар-2014 23:17 (спустя 4 месяца 13 дней)

[Q] 

подключусь AntiZip 07

_________________
[Профиль]  [ЛС] 
Показать сообщения:    
Ответить на тему

Текущее время: Сегодня 12:13

Часовой пояс: GMT + 4



Вы не можете начинать темы
Вы не можете отвечать на сообщения
Вы не можете редактировать свои сообщения
Вы не можете удалять свои сообщения
Вы не можете голосовать в опросах
Вы не можете прикреплять файлы к сообщениям
Вы не можете скачивать файлы

▼ Вниз