ML
     
  Уважаемый Гость!
Вы можете поддержать проект и зарегистрироваться у наших партнеров - онлайн-стратегия MyLands. При регистрации в игре Вы получите код, который сможете активировать после регистрации на pirat.ca и получить 1000 дублонов.

Ваш код:
500cb7bd8d2cec9a8aba647a87ce41c4b76f06bd
 
     

Хроника пикирующего бомбардировщика (Наум Бирман) [1967 г., ВОВ, драма, DVDRip]

Ответить на тему
 
Автор
Сообщение

Пост 04-Май-2013 11:12

[Q] 

cergo

Гроза морей

-Хроника пикирующего бомбардировщика-- Производство: СССР, Ленфильм
Режиссер: Наум Бирман
Жанр: ВОВ, драма
Год выпуска: 1967 г.
Продолжительность: 01:14:17
Российская премьера: 20 мая 1968
В ролях: Юрий Толубеев, Николай Трофимов, Геннадий Сайфулин, Олег Даль, Лев Вайнштейн, Александр Граве, Петр Щербаков, Георгий Корольчук, Леонид Реутов, Ела Санько, Герман Колушкин, Виктор Ильичев, Борис Аракелов, Юрий Гончаров, Виктор Евграфов, Виктория Смоленская, Игорь Ефимов, Ирина Лаврентьева, Мария Самойлова, Михаил Мудров, Константин Сорокин, Гелий Сысоев, Герберт Дмитриев, Аркадий Вовси
-Описание: Трое молодых друзей, летчики эскадрильи, оказываются в суровых условиях фронта. Командир экипажа, Сережа Архипцев, до войны работал учителем, Веня Гуревич, штурман, учился в музыкальной школе, готовился стать скрипачом, а стрелок-радист Женя Соболевский был студентом Академии художеств. Это рассказ о поколении двадцатилетних - недоигравших, недолюбивших, недоживших...-КиноПоиск
Качество видео: DVDRip
Контейнер: AVI
Видео кодек: DivX
Аудио кодек: AC3
Видео: 720x320 (2.25:1), 25 fps, DivX Codec 6.8 ~1052 kbps avg, 0.18 bit/pixel
Аудио: 48 kHz, AC3 Dolby Digital, 3/2 (L,C,R,l,r) + LFE ch, ~448 kbps
Cубтитры: отсутствуют
Общее
Полное имя : D:\Hronika.pikiruyushego.bombardirovshika.1967.DivX.DVDRip.avi
Формат : AVI
Формат/Информация : Audio Video Interleave
Размер файла : 801 Мбайт
Продолжительность : 1 ч. 14 м.
Общий поток : 1507 Кбит/сек
Программа кодирования : VirtualDubMod 1.5.4.1 (build 2178/release)
Библиотека кодирования : VirtualDubMod build 2178/release
Видео
Идентификатор : 0
Формат : MPEG-4 Visual
Параметр BVOP формата : 1
Параметр QPel формата : Нет
Параметр GMC формата : Без точки перехода
Параметр матрицы формата : Default (H.263)
Режим смешивания : Сжатый битовый поток
Идентификатор кодека : DX50
Идентификатор кодека/Подсказка : DivX 5
Продолжительность : 1 ч. 14 м.
Битрейт : 1052 Кбит/сек
Ширина : 720 пикселей
Высота : 320 пикселей
Соотношение сторон : 2,25:1
Частота кадров : 25,000 кадров/сек
Цветовое пространство : YUV
Субдискретизация насыщенности : 4:2:0
Битовая глубина : 8 бит
Тип развёртки : Прогрессивная
Метод сжатия : С потерями
Бит/(Пиксели*Кадры) : 0.183
Размер потока : 559 Мбайт (70%)
Библиотека кодирования : DivX 6.8.0 (UTC 2007-12-04)
Аудио
Идентификатор : 1
Формат : AC-3
Формат/Информация : Audio Coding 3
Расширение режима : CM (complete main)
Параметр Endianness формата : Big
Идентификатор кодека : 2000
Продолжительность : 1 ч. 14 м.
Вид битрейта : Постоянный
Битрейт : 448 Кбит/сек
Каналы : 6 каналов
Расположение каналов : Front: L C R, Side: L R, LFE
Частота : 48,0 КГц
Битовая глубина : 16 бит
Метод сжатия : С потерями
Задержка видео : 24 мс.
Размер потока : 238 Мбайт (30%)
Выравнивание : Разделение по промежуткам
Продолжительность промежутка : 96 мс. (2,40 видеокадра)
Время предзагрузки промежутка : 96 мс.
Download / Скачать

Хотите скачать бесплатно? Зарегистрируйтесь на сайте (ссылка на регистрацию). Pirat.ca - самый быстрый торрент трекер в рунете!

Как скачивать  ·   Что такое торрент  ·   Рейтинг и ограничения

Пост 04-Май-2013 11:29 (спустя 17 минут)

Топик был перенесен из форума Наше кино (Трюм) в форум Советское кино

erchine
 

Саша1959

Флибустьер

Пост 04-Май-2013 16:37 (спустя 5 часов)

[Q] 

[Профиль]  [ЛС] 

cergo ®

Гроза морей

20035

Пост 04-Май-2013 19:32 (спустя 2 часа 54 минуты)

[Q] 

Саша1959, Nitro, Су-34, aa az
[Профиль]  [ЛС] 

Nitro

Корсар

Пост 04-Май-2013 22:24 (спустя 2 часа 52 минуты)

[Q] 


Да еще и в отличном качестве cy
[Профиль]  [ЛС] 

Су-34

Гроза морей

10390

Пост 09-Май-2013 07:33 (спустя 4 дня)

[Q] 

Старый добрый фильм!
[Профиль]  [ЛС] 

CHARLI2236

1094

Пост 11-Сен-2013 19:11 (спустя 4 месяца 2 дня)

[Q] 

подключусь AntiZip 34

_________________
[Профиль]  [ЛС] 
Показать сообщения:    
Ответить на тему

Текущее время: Сегодня 01:45

Часовой пояс: GMT + 4



Вы не можете начинать темы
Вы не можете отвечать на сообщения
Вы не можете редактировать свои сообщения
Вы не можете удалять свои сообщения
Вы не можете голосовать в опросах
Вы не можете прикреплять файлы к сообщениям
Вы не можете скачивать файлы

▼ Вниз