ML
     
  Уважаемый Гость!
Вы можете поддержать проект и зарегистрироваться у наших партнеров - онлайн-стратегия MyLands. При регистрации в игре Вы получите код, который сможете активировать после регистрации на pirat.ca и получить 1000 дублонов.

Ваш код:
db0e0ad91548759ffeb9bb88bed405e1a4b3c165
 
     

Подвиг Одессы / серии 1-2 из 2 (Владимир Стрелков) [1985 г., ВОВ, реальные события, DVDRip]

Ответить на тему
 
Автор
Сообщение

Пост 04-Май-2013 13:05

[Q] 

cergo

Гроза морей

-Подвиг Одессысерии 1-2 из 2-- Производство: СССР, Одесская киностудия
Режиссер: Владимир Стрелков
Жанр: ВОВ, реальные события
Год выпуска: 1985 г.
Продолжительность: 02:10:34
Российская премьера: 17 февраля 1986
Дата выхода DVD: 3 сентября 2009, «Флагман-Трейд»
В ролях: Всеволод Шиловский, Роман Громадский, Юрий Дедович, Юрий Шлыков, Эрнст Романов, Наталья Гундарева, Игорь Скляр, Елена Кондратьева, Виктор Михайлов, Ирина Мельник, Лев Лемке, Наталья Батрак, Борислав Брондуков, Вадим Яковлев, Константин Степанков
-Описание: Героическая киноэпопея. В основе сюжета - подлинные факты героической обороны Одессы в годы Великой Отечественной войны. Первая серия, построенная на документальном материале, представляет собой ряд событий, связанных с обороной города. Вторая серия состоит из отдельных новелл, посвященных некоторым героям фильма, в котором 210 персонажей - ярких характеров одесситов. Герои добираются на передовую в трамваях, враг лупит по городу прямой наводкой. «Сильно страшно, но не так сильно, чтобы бояться!» - отшучивается один из героев предстоящей битвы...-КиноПоиск
Качество видео: DVDRip
Контейнер: AVI
Видео кодек: XviD
Аудио кодек: AC3
Видео: 688x320 (2.15:1), 25 fps, DivX Codec 6.8.3 ~2000 kbps avg, 0.36 bit/pixel
Аудио: 48 kHz, MPEG Layer 3, 2 ch, ~128.00 kbps avg
Cубтитры: отсутствуют
Общее
Полное имя : D:\Podvig_Odessi_DVDRip.avi
Формат : AVI
Формат/Информация : Audio Video Interleave
Размер файла : 898 Мбайт
Продолжительность : 58 м.
Общий поток : 2138 Кбит/сек
Программа кодирования : VirtualDubModRus 1.5.10.2 (build 2542/release)
Библиотека кодирования : VirtualDubMod build 2542/release
Видео
Идентификатор : 0
Формат : MPEG-4 Visual
Параметр BVOP формата : Да
Параметр QPel формата : Нет
Параметр GMC формата : Без точки перехода
Параметр матрицы формата : Default (H.263)
Идентификатор кодека : DX50
Идентификатор кодека/Подсказка : DivX 5
Продолжительность : 58 м.
Битрейт : 2001 Кбит/сек
Ширина : 688 пикселей
Высота : 320 пикселей
Соотношение сторон : 2,2:1
Частота кадров : 25,000 кадров/сек
Цветовое пространство : YUV
Субдискретизация насыщенности : 4:2:0
Битовая глубина : 8 бит
Тип развёртки : Прогрессивная
Метод сжатия : С потерями
Бит/(Пиксели*Кадры) : 0.363
Размер потока : 840 Мбайт (94%)
Библиотека кодирования : DivX 6.8.3-6.8.4 (UTC 2008-06-07)
Аудио
Идентификатор : 1
Формат : MPEG Audio
Версия формата : Version 1
Профиль формата : Layer 3
Режим : Joint stereo
Расширение режима : MS Stereo
Идентификатор кодека : 55
Идентификатор кодека/Подсказка : MP3
Продолжительность : 58 м.
Вид битрейта : Постоянный
Битрейт : 128 Кбит/сек
Каналы : 2 канала
Частота : 48,0 КГц
Метод сжатия : С потерями
Размер потока : 53,8 Мбайт (6%)
Выравнивание : Соединение по промежуткам
Продолжительность промежутка : 40 мс. (1,00 видеокадр)
Время предзагрузки промежутка : 504 мс.
Библиотека кодирования : LAME3.97
Настройки программы : -m j -V 4 -q 1 -b 128
Download / Скачать

Хотите скачать бесплатно? Зарегистрируйтесь на сайте (ссылка на регистрацию). Pirat.ca - самый быстрый торрент трекер в рунете!

Как скачивать  ·   Что такое торрент  ·   Рейтинг и ограничения

Пост 04-Май-2013 15:01 (спустя 1 час 55 минут)

Топик был перенесен из форума Наше кино (Трюм) в форум Советское кино

ara1205
 

Resident

45479

Пост 08-Май-2014 17:59 (спустя 1 год)

[Q] 

С праздником Победы!

_________________

Раздаю с 00:00 до 04:00
[Профиль]  [ЛС] 
Показать сообщения:    
Ответить на тему

Текущее время: Сегодня 08:09

Часовой пояс: GMT + 4



Вы не можете начинать темы
Вы не можете отвечать на сообщения
Вы не можете редактировать свои сообщения
Вы не можете удалять свои сообщения
Вы не можете голосовать в опросах
Вы не можете прикреплять файлы к сообщениям
Вы не можете скачивать файлы

▼ Вниз