ML
     
  Уважаемый Гость!
Вы можете поддержать проект и зарегистрироваться у наших партнеров - онлайн-стратегия MyLands. При регистрации в игре Вы получите код, который сможете активировать после регистрации на pirat.ca и получить 1000 дублонов.

Ваш код:
822959f93c00d34653763d5bbf9ee9a7134af98a
 
     

Старший сын (Виталий Мельников) [1975 г., драма, DVDRip]

Ответить на тему
 
Автор
Сообщение

Пост 24-Дек-2011 00:05

[Q] 

kufre

Корсар

Старший сын
Год выпуска: 1975
Жанр: драма
Продолжительность: 02:14:00
Режиссер: Виталий Мельников
В ролях: Евгений Леонов — Андрей Григорьевич Сарафанов,Наталья Егорова — Нина Сарафанова,Владимир Изотов — Васенька Сарафанов,Николай Караченцов — Владимир Бусыгин,Михаил Боярский — Сильва (Семён Севостьянов),Светлана Крючкова — Наталья
Описание: Это история о том, как два молодых шалопая, провожая случайно знакомых девиц, оказались холодной осенней ночью в глухом пригороде, а все их попытки пристроиться на ночлег оканчивались неудачно.
Наконец, позвонив в отсутствие хозяина дома в первую попавшуюся квартиру и чувствуя, что их вот-вот выставят за дверь, молодые люди не нашли ничего лучше, как объявить, что один из них… внебрачный сын главы семьи… Неожиданно их шутке поверили. Ситуация становится еще более удивительной, когда в вымышленное родство вдруг начинает верить и сам автор этой выдумки…
Доп. информация: Фильм «Старший сын» был поставлен по одноимённой пьесе драматурга Александра Вампилова, который погиб за четыре года до выхода картины. Ему было всего 34 года.
Судьба произведений Александра Вампилова была очень не простой. Их не разрешали к постановке, а если и разрешали то только на маленьких провинциальных сценах. Его творчество долго не понимали и игнорировали.
На роль, которую сыграла Светлана Крючкова, претендовали несколько известных актрис. В том числе, Маргарита Терехова, Людмила Зайцева. Поэтому, как утверждает Светлана Крючкова, она абсолютно не волновалась и вела себя очень спокойно, так как была уверена, что при такой серьёзной конкуренции роль ей не достанется. Возможно, благодаря этому спокойствию и уверенности в себе она и была утверждена на эту роль.
На съёмках Евгений Леонов нюхал нашатырный спирт, чтобы заплакать
2 серии
Замечательная экранизация пьесы Александра Вампилова, осуществлённая режиссёром Виталием Мельниковым, которого следовало бы причислить к когорте лучших мастеров отечественного кино за ряд его работ, существенных для понимания того, какими мы все были всего лишь несколько десятилетий назад. Помимо того, что Мельников, по сути, открыл нам в «Старшем сыне» тогда ещё молодых актёров Николая Караченцова, Светлану Крючкову, Наталью Егорову и Михаила Боярского, он с редкостным тактом позволил Евгению Леонову сыграть на стыке трагикомедии и подлинной драмы одну из его этапных ролей за всю творческую биографию.
Общая удача создателей телефильма «Старший сын» как раз в том и заключается, что они почувствовали подчас парадоксальное сочетание в драматургии Вампилова типичных «провинциальных анекдотов» и наследуемое им от Чехова видение драматического надлома эпохи даже в простом житейском поведении героев, их привычном бытовом существовании где-то «далеко от Москвы». На эту же идею работает неожиданно использованный в ленте рахманиновский концерт, который не столько подчёркивает тщетность и наивность попыток бывшего оркестранта Сарафанова, ныне вынужденного играть на похоронах, всё-таки сохранить свои амбиции в искусстве, но в большей степени сообщает повествованию необходимую «энергетику конфликта».
Как и в названии поздней пьесы «Прошлым летом в Чулимске», эффект остранения достигается за счёт сталкивания, казалось бы, несоединимых миров — весьма реального и вряд ли возможного, что позволяет увидеть даже в затерянной частной жизни в каком-то из провинциальных посёлков приметы высокого человеческого жития. Не так уж на самом деле важно, мог ли бы Сарафанов остаться творческим человеком, не жертвуя собой ради своих детей, как не имеет особого значения и то, что Бусыгин, сдуру назвавшийся его сыном, таковым вовсе не является. Лишь внутренняя убежденность лучших вампиловских героев в том, что возможное реально, превращает их из заурядных провинциалов-неудачников в абсолютно подлинных, неразмениваемых людей, цены которым нет и быть не может.
1976, Международный кинофестиваль в Праге, «Приз Интервидения», приз за лучший сценарий
Формат : AVI
Формат/Информация : Audio Video Interleave
Размер файла : 1,37 Гбайт
Продолжительность : 1 ч. 3 м.
Общий поток : 3083 Кбит/сек
Программа кодирования : VirtualDubMod 1.5.4.1 (build 2178/release)
Библиотека кодирования : VirtualDubMod build 2178/release
Видео
Идентификатор : 0
Формат : MPEG-4 Visual
Параметр BVOP формата : 1
Параметр QPel формата : Нет
Параметр GMC формата : Без точки перехода
Параметр матрицы формата : Default (H.263)
Режим смешивания : Сжатый битовый поток
Идентификатор кодека : DX50
Идентификатор кодека/Подсказка : DivX 5
Продолжительность : 1 ч. 3 м.
Битрейт : 2909 Кбит/сек
Ширина : 720 пикс.
Высота : 544 пикс.
Соотношение сторон : 4:3
Частота кадров : 25,000 кадр/сек
Цветовое пространство : YUV
Подвыборка цветности : 4:2:0
Битовая глубина : 8 бит
Тип развёртки : Прогрессивная
Метод сжатия : С потерями
Бит/(Пиксели*Кадры) : 0.297
Размер потока : 1,29 Гбайт (94%)
Библиотека кодирования : DivX 5.2.1 (WaffleDay) (UTC 2004-09-08)
Аудио
Идентификатор : 1
Формат : MPEG Audio
Версия формата : Version 1
Профиль формата : Layer 3
Режим : Joint stereo
Расширение режима : MS Stereo
Идентификатор кодека : 55
Идентификатор кодека/Подсказка : MP3
Продолжительность : 1 ч. 3 м.
Вид битрейта : Переменный
Битрейт : 161 Кбит/сек
Номинальный битрейт : 192 Кбит/сек
Каналы : 2 канала
Частота : 48,0 КГц
Метод сжатия : С потерями
Размер потока : 73,0 Мбайт (5%)
Выравнивание : Соединение по промежуткам
Продолжительность промежутка : 24 мс. (0,60 видеокадр)
Время предзагрузки промежутка : 516 ms
Библиотека кодирования : LAME3.97b
Настройки программы : -m j -V 4 -q 2 -lowpass 18.6 --abr 192
Общее
Полное имя : F:\ШАРА F\ФИЛЬМЫ\НАШЕ\Старший сын\Старший сын (2 серия).avi
Формат : AVI
Формат/Информация : Audio Video Interleave
Размер файла : 1,37 Гбайт
Продолжительность : 1 ч. 7 м.
Общий поток : 2908 Кбит/сек
Программа кодирования : VirtualDubMod 1.5.4.1 (build 2178/release)
Библиотека кодирования : VirtualDubMod build 2178/release
Видео
Идентификатор : 0
Формат : MPEG-4 Visual
Параметр BVOP формата : 1
Параметр QPel формата : Нет
Параметр GMC формата : Без точки перехода
Параметр матрицы формата : Default (H.263)
Режим смешивания : Сжатый битовый поток
Идентификатор кодека : DX50
Идентификатор кодека/Подсказка : DivX 5
Продолжительность : 1 ч. 7 м.
Битрейт : 2736 Кбит/сек
Ширина : 720 пикс.
Высота : 544 пикс.
Соотношение сторон : 4:3
Частота кадров : 25,000 кадр/сек
Цветовое пространство : YUV
Подвыборка цветности : 4:2:0
Битовая глубина : 8 бит
Тип развёртки : Прогрессивная
Метод сжатия : С потерями
Бит/(Пиксели*Кадры) : 0.279
Размер потока : 1,29 Гбайт (94%)
Библиотека кодирования : DivX 5.2.1 (WaffleDay) (UTC 2004-09-08)
Аудио
Идентификатор : 1
Формат : MPEG Audio
Версия формата : Version 1
Профиль формата : Layer 3
Режим : Joint stereo
Расширение режима : MS Stereo
Идентификатор кодека : 55
Идентификатор кодека/Подсказка : MP3
Продолжительность : 1 ч. 7 м.
Вид битрейта : Переменный
Битрейт : 159 Кбит/сек
Номинальный битрейт : 192 Кбит/сек
Каналы : 2 канала
Частота : 48,0 КГц
Метод сжатия : С потерями
Размер потока : 76,4 Мбайт (5%)
Выравнивание : Соединение по промежуткам
Продолжительность промежутка : 24 мс. (0,60 видеокадр)
Время предзагрузки промежутка : 479 ms
Библиотека кодирования : LAME3.97b
Настройки программы : -m j -V 4 -q 2 -lowpass 18.6 --abr 192

Источник/Качество: DVDRip
Формат: AVI
Видео кодек: DivX
Аудио кодек: MP3
Видео 1 серия: 720x544 (1.32:1), 25 fps, DivX Codec 5.2.1 build 1328 ~2908 kbps avg, 0.30 bit/pixel
Аудио 1 серия: 48 kHz, MPEG Layer 3, 2 ch, ~160.64 kbps avg
Видео 2 серия: 720x544 (1.32:1), 25 fps, DivX Codec 5.2.1 build 1328 ~2735 kbps avg, 0.28 bit/pixel
Аудио 2 серия: 48 kHz, MPEG Layer 3, 2 ch, ~158.70 kbps avg





Download / Скачать

Хотите скачать бесплатно? Зарегистрируйтесь на сайте (ссылка на регистрацию). Pirat.ca - самый быстрый торрент трекер в рунете!

Как скачивать  ·   Что такое торрент  ·   Рейтинг и ограничения

Пост 24-Дек-2011 01:17 (спустя 1 час 12 минут)

Топик был перенесен из форума Наше Кино в форум Советское кино

Skinwalker
 
Показать сообщения:    
Ответить на тему

Текущее время: Сегодня 05:58

Часовой пояс: GMT + 4



Вы не можете начинать темы
Вы не можете отвечать на сообщения
Вы не можете редактировать свои сообщения
Вы не можете удалять свои сообщения
Вы не можете голосовать в опросах
Вы не можете прикреплять файлы к сообщениям
Вы не можете скачивать файлы

▼ Вниз