ML
     
  Уважаемый Гость!
Вы можете поддержать проект и зарегистрироваться у наших партнеров - онлайн-стратегия MyLands. При регистрации в игре Вы получите код, который сможете активировать после регистрации на pirat.ca и получить 1000 дублонов.

Ваш код:
4fbd9898b6f10799a3e8edf60f31febd2bc15453
 
     

Ход конем (Татьяна Лукашевич) [1962 г., Комедия, DVDRip]

Ответить на тему
 
Автор
Сообщение

Пост 28-Май-2013 13:02

[Q] 

cergo

Гроза морей

-Ход конем --
Производство: СССР, "Мосфильм"
Режиссер: Татьяна Лукашевич
Жанр: Комедия
Год выпуска: 1962 г.
Продолжительность: 01:17:51
Российская премьера: 25 марта 1963
Дата выхода DVD: 11 декабря 2008, «Мастер Тэйп»
В ролях: Борис Кузнецов, Савелий Крамаров, Афанасий Кочетков, Михаил Пуговкин, Анатолий Папанов, Татьяна Пельтцер, Виктор Хохряков, Станислав Чекан, Вадим Грачев, Николай Бармин, Юрий Белов, Виктор Гераскин, Людмила Карауш, Антонина Кончакова, Петр Савин, Нина Крачковская, Майя Булгакова, Алевтина Румянцева, Александр Лебедев, Николай Сморчков, Евгения Мельникова, Владимир Липпарт, Владимир Пицек-Описание: Пятнадцатилетний Алешка Левшин, мечтающий стать таким же классным трактористом, как передовик Шугай, из-за возраста не допускается к работам в колхозе, где он намерен прожить всю жизнь. Но у него есть взрослый друг - прицепщик Колька Лопатин, который давно мечтает о беззаботной городской жизни. Лешка идет на безобидную хитрость - и по документам друга поступает в училище механизаторов, а Колька едет в город к Лешкиному дяде...-
Качество видео: DVDRip
Контейнер: AVI
Видео кодек: DivX
Аудио кодек: AC3
Видео: 704x512 (1.38:1), 25 fps, DivX Codec 6.8.2 ~2167 kbps avg, 0.24 bit/pixel
Аудио: 48 kHz, AC3 Dolby Digital, 2/0 (L,R) ch, ~384 kbps
Cубтитры: отсутствуют
Общее
Полное имя : D:\Архив\ФИЛЬМЫ\Hod.konem.1962.DivX.DVDRip.avi
Формат : AVI
Формат/Информация : Audio Video Interleave
Размер файла : 1,39 Гбайт
Продолжительность : 1 ч. 17 м.
Общий поток : 2561 Кбит/сек
Программа кодирования : VirtualDubModRus 1.5.10.2 (build 2542/release)
Библиотека кодирования : VirtualDub-MPEG2 build 24586/release
Видео
Идентификатор : 0
Формат : MPEG-4 Visual
Параметр BVOP формата : 3
Параметр QPel формата : Нет
Параметр GMC формата : Без точки перехода
Параметр матрицы формата : Default (MPEG)
Режим смешивания : Сжатый битовый поток
Идентификатор кодека : DX50
Идентификатор кодека/Подсказка : DivX 5
Продолжительность : 1 ч. 17 м.
Битрейт : 2168 Кбит/сек
Ширина : 704 пикселя
Высота : 512 пикселей
Соотношение сторон : 1,375
Частота кадров : 25,000 кадров/сек
Цветовое пространство : YUV
Субдискретизация насыщенности : 4:2:0
Битовая глубина : 8 бит
Тип развёртки : Прогрессивная
Метод сжатия : С потерями
Бит/(Пиксели*Кадры) : 0.241
Размер потока : 1,18 Гбайт (85%)
Библиотека кодирования : DivX 6.8.2 (UTC 2008-05-17)
Аудио
Идентификатор : 1
Формат : AC-3
Формат/Информация : Audio Coding 3
Расширение режима : CM (complete main)
Параметр Endianness формата : Big
Идентификатор кодека : 2000
Продолжительность : 1 ч. 17 м.
Вид битрейта : Постоянный
Битрейт : 384 Кбит/сек
Каналы : 2 канала
Расположение каналов : Front: L R
Частота : 48,0 КГц
Битовая глубина : 16 бит
Метод сжатия : С потерями
Размер потока : 214 Мбайт (15%)
Выравнивание : Соединение по промежуткам
Продолжительность промежутка : 40 мс. (1,00 видеокадр)
Время предзагрузки промежутка : 512 мс.
Download / Скачать

Хотите скачать бесплатно? Зарегистрируйтесь на сайте (ссылка на регистрацию). Pirat.ca - самый быстрый торрент трекер в рунете!

Как скачивать  ·   Что такое торрент  ·   Рейтинг и ограничения

Пост 28-Май-2013 17:47 (спустя 4 часа)

Топик был перенесен из форума Наше кино (Трюм) в форум Советское кино

ara1205
 

СерКат

Корсар

Пост 01-Дек-2013 04:14 (спустя 6 месяцев 2 дня)

[Q] 

добрый фильм,спасибочки
[Профиль]  [ЛС] 

cergo ®

Гроза морей

20035

Пост 01-Дек-2013 12:36 (спустя 8 часов)

[Q] 

456716добрый фильм,спасибочки
aa az
[Профиль]  [ЛС] 
Показать сообщения:    
Ответить на тему

Текущее время: Сегодня 19:58

Часовой пояс: GMT + 4



Вы не можете начинать темы
Вы не можете отвечать на сообщения
Вы не можете редактировать свои сообщения
Вы не можете удалять свои сообщения
Вы не можете голосовать в опросах
Вы не можете прикреплять файлы к сообщениям
Вы не можете скачивать файлы

▼ Вниз